<?xml version="1.0" standalone="yes"?><svg version="1.1" xmlns = 'http://www.w3.org/2000/svg'><defs><font id='web' horiz-adv-x="1000">
<font-face font-family="web" descent="-389" cap-height="1434" units-per-em="2048" bbox="-231,-432,3074,1892" x-height="1075" ascent="1487" />
<missing-glyph horiz-adv-x="676" d="" /><glyph horiz-adv-x="1280" d="M 476 -32 C 342 -32 239 5 166 80 C 92 154 56 248 56 360 C 56 506 108 636 214 750 C 319 863 449 920 604 920 C 668 920 734 908 802 886 C 870 863 924 840 964 816 C 972 872 976 928 976 984 C 976 1109 953 1207 908 1278 C 862 1348 800 1384 720 1384 C 634 1384 567 1374 518 1356 C 468 1337 418 1312 368 1280 L 324 1444 C 374 1473 430 1498 492 1518 C 553 1538 629 1548 720 1548 C 877 1548 992 1496 1064 1394 C 1136 1291 1172 1149 1172 968 C 1172 690 1104 454 968 260 C 832 65 668 -32 476 -32 Z M 488 128 C 716 128 868 313 944 684 C 922 705 882 726 824 748 C 765 769 706 780 648 780 C 520 780 424 738 360 654 C 296 570 264 476 264 372 C 264 300 282 241 318 196 C 354 150 410 128 488 128 Z" unicode="∂" />
<glyph horiz-adv-x="1536" d="M 76 0 L 652 1536 L 884 1536 L 1456 0 L 76 0 Z M 352 148 L 1164 148 L 752 1256 L 352 148 Z" unicode="∆" />
<glyph horiz-adv-x="1376" d="M 512 758 L 502 666 L 846 666 L 811 471 L 514 471 C 527 421 550 382 583 354 C 616 326 658 313 709 313 C 741 313 770 319 797 332 C 823 345 849 364 873 388 C 897 412 928 452 965 506 L 1288 317 C 1231 233 1174 169 1118 123 C 1061 77 997 42 926 16 C 854 -10 774 -23 686 -23 C 500 -23 355 30 253 137 C 151 243 100 391 100 580 C 100 739 131 887 195 1023 C 258 1159 345 1266 457 1342 C 569 1418 693 1456 831 1456 C 997 1456 1126 1418 1217 1343 C 1307 1268 1365 1151 1389 993 L 1006 889 C 990 978 967 1039 938 1071 C 908 1103 868 1120 817 1120 C 767 1120 722 1105 681 1076 C 639 1047 604 1006 575 952 L 897 952 L 862 758 L 512 758 Z" unicode="€" />
<glyph horiz-adv-x="1536" d="M 332 0 L 332 1348 L 80 1348 L 80 1524 L 1456 1524 L 1456 1348 L 1212 1348 L 1212 0 L 1004 0 L 1004 1356 L 540 1356 L 540 0 L 332 0 Z" unicode="∏" />
<glyph horiz-adv-x="1152" d="M 1084 1524 L 1084 1344 L 332 1344 L 796 784 L 304 188 L 1080 188 L 1080 0 L 40 0 L 40 172 L 560 788 L 68 1380 L 68 1524 L 1084 1524 Z" unicode="∑" />
<glyph horiz-adv-x="1536" d="M 200 692 L 200 888 L 1336 888 L 1336 692 L 200 692 Z" unicode="−" />
<glyph horiz-adv-x="1139" d="M 1001 549 L 141 549 L 207 918 L 1067 918 L 1001 549 Z" unicode="–" />
<glyph horiz-adv-x="1343" d="M 1208 549 L 143 549 L 207 918 L 1272 918 L 1208 549 Z" unicode="—" />
<glyph horiz-adv-x="1077" d="M 1370 1434 L 217 0 L -227 0 L 926 1434 L 1370 1434 Z" unicode="∕" />
<glyph horiz-adv-x="664" d="M 692 1434 L 549 782 L 129 782 L 440 1434 L 692 1434 Z" unicode="‘" />
<glyph horiz-adv-x="664" d="M 739 1434 L 428 782 L 176 782 L 319 1434 L 739 1434 Z" unicode="’" />
<glyph horiz-adv-x="664" d="M 555 428 L 244 -223 L -8 -223 L 135 428 L 555 428 Z" unicode="‚" />
<glyph horiz-adv-x="1245" d="M 1272 1434 L 1128 782 L 709 782 L 1020 1434 L 1272 1434 Z M 690 1434 L 547 782 L 127 782 L 438 1434 L 690 1434 Z" unicode="“" />
<glyph horiz-adv-x="1245" d="M 1319 1434 L 1008 782 L 756 782 L 899 1434 L 1319 1434 Z M 737 1434 L 426 782 L 174 782 L 317 1434 L 737 1434 Z" unicode="”" />
<glyph horiz-adv-x="1245" d="M 1137 428 L 825 -223 L 573 -223 L 717 428 L 1137 428 Z M 555 428 L 244 -223 L -8 -223 L 135 428 L 555 428 Z" unicode="„" />
<glyph horiz-adv-x="676" d="" unicode=" " />
<glyph horiz-adv-x="717" d="M 489 512 L 219 512 L 223 922 L 313 1434 L 719 1434 L 629 922 L 489 512 Z M 506 190 C 506 128 485 77 445 37 C 404 -2 353 -23 293 -23 C 233 -23 182 -2 141 37 C 100 77 80 128 80 190 C 80 250 100 299 140 339 C 180 379 231 399 293 399 C 355 399 406 379 446 339 C 486 299 506 250 506 190 Z" unicode="!" />
<glyph horiz-adv-x="1270" d="M 1311 1434 L 1112 764 L 836 764 L 874 1434 L 1311 1434 Z M 711 1434 L 512 764 L 236 764 L 274 1434 L 711 1434 Z" unicode="&#x22;" />
<glyph horiz-adv-x="1630" d="M 1477 250 L 1262 250 L 1217 0 L 844 0 L 889 250 L 639 250 L 594 0 L 221 0 L 266 250 L 51 250 L 106 563 L 322 563 L 375 870 L 160 870 L 215 1184 L 430 1184 L 475 1434 L 848 1434 L 803 1184 L 1053 1184 L 1098 1434 L 1470 1434 L 1425 1184 L 1640 1184 L 1585 870 L 1370 870 L 1317 563 L 1532 563 L 1477 250 Z M 961 537 L 1026 897 L 731 897 L 666 537 L 961 537 Z" unicode="#" />
<glyph horiz-adv-x="1346" d="M 684 1638 L 1069 1638 L 1028 1413 C 1160 1379 1274 1320 1372 1235 L 1126 950 C 1054 1008 984 1050 918 1076 C 852 1101 786 1114 721 1114 C 681 1114 650 1106 629 1091 C 608 1075 598 1054 598 1028 C 598 1002 610 982 635 966 C 660 950 717 928 807 899 C 961 849 1073 791 1143 726 C 1213 660 1249 577 1249 477 C 1249 339 1208 229 1128 147 C 1048 65 931 15 778 -2 L 743 -205 L 358 -205 L 399 20 C 253 58 121 122 4 211 L 250 496 C 404 378 555 319 705 319 C 795 319 840 349 840 410 C 840 436 824 460 793 480 C 762 500 705 523 623 549 C 465 598 353 654 286 717 C 219 780 186 863 186 965 C 186 1092 227 1198 310 1283 C 393 1368 506 1419 649 1436 L 684 1638 Z" unicode="$" />
<glyph horiz-adv-x="2204" d="M 616 1456 C 734 1456 828 1423 898 1359 C 968 1295 1004 1208 1004 1100 C 1004 995 982 902 940 820 C 897 738 838 675 764 630 C 690 585 609 563 522 563 C 403 563 309 595 239 661 C 169 726 135 812 135 920 C 135 1023 156 1115 198 1197 C 240 1279 299 1342 374 1388 C 448 1433 529 1456 616 1456 Z M 1858 1434 L 725 0 L 412 0 L 1544 1434 L 1858 1434 Z M 1745 870 C 1863 870 1957 837 2027 773 C 2097 708 2132 622 2132 514 C 2132 409 2110 316 2068 234 C 2025 152 1966 89 1892 44 C 1818 0 1737 -23 1651 -23 C 1532 -23 1438 9 1368 75 C 1298 140 1264 226 1264 334 C 1264 438 1285 530 1327 612 C 1369 693 1427 756 1502 802 C 1577 847 1658 870 1745 870 Z M 600 1233 C 552 1233 513 1204 483 1148 C 453 1091 438 1013 438 913 C 438 828 471 786 539 786 C 570 786 598 799 623 825 C 647 851 666 887 680 935 C 693 983 700 1040 700 1106 C 700 1190 666 1233 600 1233 Z M 1729 647 C 1681 647 1642 618 1612 562 C 1582 505 1567 427 1567 328 C 1567 243 1600 201 1667 201 C 1698 201 1726 214 1751 240 C 1775 266 1794 303 1808 351 C 1822 399 1829 455 1829 520 C 1829 604 1795 647 1729 647 Z" unicode="%" />
<glyph horiz-adv-x="1470" d="M 1151 334 L 1378 0 L 930 0 L 864 94 C 736 18 594 -20 438 -20 C 308 -20 204 12 128 77 C 52 141 14 228 14 338 C 14 535 135 689 377 799 C 323 881 297 973 297 1075 C 297 1196 340 1290 428 1356 C 515 1422 637 1456 793 1456 C 891 1456 981 1443 1065 1418 C 1148 1393 1231 1351 1313 1292 L 1100 1014 C 1044 1054 992 1084 945 1104 C 898 1124 850 1135 801 1135 C 763 1135 735 1127 717 1111 C 699 1095 690 1076 690 1053 C 690 1021 700 992 721 965 L 973 596 C 1025 666 1076 738 1124 811 L 1397 637 C 1303 509 1221 408 1151 334 Z M 698 334 L 526 584 C 488 561 458 534 436 503 C 414 472 403 439 403 403 C 403 329 453 293 553 293 C 602 293 650 306 698 334 Z" unicode="&#x26;" />
<glyph horiz-adv-x="702" d="M 733 1434 L 537 764 L 248 764 L 285 1434 L 733 1434 Z" unicode="'" />
<glyph horiz-adv-x="881" d="M 657 -68 L 369 -213 C 202 25 119 263 119 500 C 119 664 164 826 254 987 C 344 1148 482 1312 668 1479 L 903 1296 C 779 1159 687 1019 626 875 C 565 731 535 578 535 418 C 535 258 575 96 657 -68 Z" unicode="(" />
<glyph horiz-adv-x="881" d="M 256 1329 L 545 1475 C 711 1233 795 995 795 762 C 795 598 750 435 660 275 C 570 114 432 -49 246 -217 L 10 -35 C 133 99 225 239 287 383 C 348 527 379 680 379 844 C 379 918 370 994 352 1070 C 334 1146 302 1233 256 1329 Z" unicode=")" />
<glyph horiz-adv-x="1126" d="M 1114 813 L 969 565 L 696 788 L 754 442 L 471 442 L 526 793 L 254 571 L 111 815 L 459 938 L 111 1063 L 254 1311 L 526 1085 L 471 1434 L 754 1434 L 696 1087 L 969 1313 L 1114 1067 L 760 940 L 1114 813 Z" unicode="*" />
<glyph horiz-adv-x="1323" d="M 1231 528 L 868 528 L 868 150 L 496 150 L 496 528 L 133 528 L 133 881 L 496 881 L 496 1260 L 868 1260 L 868 881 L 1231 881 L 1231 528 Z" unicode="+" />
<glyph horiz-adv-x="643" d="M 547 428 L 229 -254 L -23 -254 L 127 428 L 547 428 Z" unicode="," />
<glyph horiz-adv-x="991" d="M 852 541 L 139 541 L 207 926 L 920 926 L 852 541 Z" unicode="-" />
<glyph horiz-adv-x="643" d="M 498 213 C 498 145 475 89 430 44 C 385 0 329 -23 262 -23 C 195 -23 139 0 94 43 C 49 87 27 144 27 213 C 27 279 49 334 93 378 C 137 422 193 444 262 444 C 330 444 387 422 431 378 C 475 334 498 279 498 213 Z" unicode="." />
<glyph horiz-adv-x="1044" d="M 1270 1618 L 229 -184 L -160 -184 L 881 1618 L 1270 1618 Z" unicode="/" />
<glyph horiz-adv-x="1458" d="M 846 1456 C 960 1456 1061 1431 1149 1383 C 1237 1335 1304 1265 1352 1175 C 1399 1084 1423 978 1423 858 C 1423 697 1390 548 1325 412 C 1259 275 1169 168 1055 92 C 941 15 815 -23 678 -23 C 563 -23 462 1 374 50 C 286 99 218 169 171 260 C 123 351 100 456 100 575 C 100 735 132 884 198 1021 C 263 1157 353 1264 467 1341 C 581 1417 708 1456 846 1456 Z M 811 1114 C 752 1114 700 1090 655 1042 C 610 994 575 930 549 849 C 523 767 510 679 510 584 C 510 498 527 433 563 387 C 598 341 648 319 713 319 C 771 319 822 342 868 390 C 914 438 949 503 975 586 C 1001 668 1014 756 1014 850 C 1014 935 996 1000 961 1046 C 925 1091 875 1114 811 1114 Z" unicode="0" />
<glyph horiz-adv-x="854" d="M 610 0 L 221 0 L 395 987 L 162 987 L 207 1239 C 297 1244 366 1261 413 1289 C 459 1317 499 1365 532 1434 L 864 1434 L 610 0 Z" unicode="1" />
<glyph horiz-adv-x="1393" d="M 1176 0 L 12 0 C 44 225 120 409 242 551 C 364 693 537 801 762 877 C 831 900 881 923 912 946 C 942 969 958 998 958 1034 C 958 1062 945 1084 919 1099 C 893 1114 849 1122 786 1122 C 658 1122 519 1086 371 1014 L 240 1307 C 420 1406 611 1456 811 1456 C 984 1456 1118 1423 1213 1358 C 1308 1292 1356 1198 1356 1075 C 1356 1000 1341 936 1312 882 C 1283 828 1239 781 1181 741 C 1123 700 1025 654 889 604 C 785 566 710 534 666 510 C 621 485 583 458 552 428 C 521 398 498 363 483 324 L 1233 324 L 1176 0 Z" unicode="2" />
<glyph horiz-adv-x="1395" d="M 1294 471 C 1294 317 1236 197 1122 109 C 1008 21 852 -23 655 -23 C 531 -23 414 1 304 50 C 194 99 101 166 25 252 L 268 496 C 405 368 548 305 696 305 C 763 305 815 319 852 347 C 888 375 907 415 907 467 C 907 509 891 539 860 559 C 828 578 776 588 702 588 L 526 588 L 582 897 L 778 897 C 890 897 946 936 946 1014 C 946 1094 871 1135 723 1135 C 609 1135 500 1103 395 1040 L 254 1298 C 403 1403 583 1456 793 1456 C 977 1456 1114 1422 1205 1356 C 1295 1289 1341 1195 1341 1073 C 1341 1001 1319 938 1275 884 C 1231 829 1171 789 1094 764 C 1160 736 1209 698 1243 651 C 1277 603 1294 543 1294 471 Z" unicode="3" />
<glyph horiz-adv-x="1509" d="M 1374 246 L 1190 246 L 1147 0 L 791 0 L 836 256 L 35 256 L 86 547 L 1006 1434 L 1399 1434 L 1249 582 L 1434 582 L 1374 246 Z M 979 1032 C 909 947 831 861 743 775 C 655 688 582 621 526 575 C 588 579 678 582 795 582 L 893 582 C 934 816 963 966 979 1032 Z" unicode="4" />
<glyph horiz-adv-x="1448" d="M 1346 573 C 1346 385 1287 239 1169 134 C 1051 29 891 -23 688 -23 C 573 -23 458 -4 343 31 C 228 67 127 120 39 188 L 240 481 C 308 431 386 389 472 356 C 558 323 638 307 713 307 C 790 307 849 323 890 357 C 931 390 952 440 952 508 C 952 556 936 592 904 618 C 872 644 826 657 764 657 C 727 657 689 651 651 639 C 613 627 568 606 518 575 L 199 690 L 379 1434 L 1415 1434 L 1358 1110 L 643 1110 L 596 911 C 628 929 669 945 719 957 C 769 969 822 975 879 975 C 1035 975 1152 940 1230 870 C 1307 800 1346 701 1346 573 Z" unicode="5" />
<glyph horiz-adv-x="1417" d="M 1341 545 C 1341 432 1311 332 1253 246 C 1194 160 1112 93 1006 47 C 900 0 781 -23 649 -23 C 468 -23 327 23 227 115 C 126 207 76 334 76 494 C 76 675 128 841 234 991 C 339 1141 483 1255 666 1335 C 849 1414 1062 1454 1305 1456 L 1247 1130 C 1081 1130 936 1106 810 1060 C 684 1013 584 944 510 854 C 601 910 714 938 848 938 C 1006 938 1128 904 1213 836 C 1298 768 1341 671 1341 545 Z M 946 487 C 946 538 924 577 880 604 C 836 631 774 645 692 645 C 616 645 556 628 512 595 C 468 561 446 515 446 457 C 446 405 466 365 508 335 C 550 305 610 291 688 291 C 767 291 830 308 876 343 C 922 377 946 425 946 487 Z" unicode="6" />
<glyph horiz-adv-x="1409" d="M 682 0 L 293 0 C 387 509 599 879 928 1110 L 201 1110 L 258 1434 L 1436 1434 L 1378 1120 C 1240 1024 1126 924 1035 818 C 944 712 871 595 815 469 C 759 343 715 186 682 0 Z" unicode="7" />
<glyph horiz-adv-x="1487" d="M 1384 453 C 1384 361 1355 279 1298 207 C 1240 134 1161 77 1059 37 C 957 -2 845 -23 723 -23 C 529 -23 372 16 253 96 C 133 175 74 282 74 416 C 74 502 97 577 145 641 C 193 705 264 755 358 791 C 318 824 289 860 269 898 C 249 936 240 982 240 1034 C 240 1113 265 1185 315 1250 C 365 1315 435 1366 525 1402 C 615 1438 719 1456 836 1456 C 1016 1456 1159 1420 1265 1349 C 1371 1277 1425 1180 1425 1057 C 1425 907 1349 800 1198 735 C 1258 704 1304 666 1336 622 C 1368 578 1384 521 1384 453 Z M 1040 1028 C 1040 1070 1021 1104 985 1129 C 948 1154 896 1167 829 1167 C 763 1167 713 1153 677 1127 C 641 1100 623 1064 623 1018 C 623 976 642 943 680 919 C 718 895 772 883 840 883 C 901 883 950 896 986 922 C 1022 948 1040 983 1040 1028 Z M 999 459 C 999 508 976 548 932 579 C 888 609 822 625 735 625 C 647 625 579 609 531 577 C 483 545 459 503 459 451 C 459 400 483 359 532 327 C 580 295 646 279 729 279 C 813 279 879 295 927 327 C 975 359 999 403 999 459 Z" unicode="8" />
<glyph horiz-adv-x="1417" d="M 141 889 C 141 1001 170 1100 228 1186 C 286 1272 369 1338 476 1385 C 582 1432 702 1456 834 1456 C 1013 1456 1153 1410 1255 1318 C 1356 1226 1407 1100 1407 940 C 1407 808 1378 682 1320 563 C 1262 443 1179 340 1071 252 C 963 164 833 96 681 49 C 529 1 361 -22 178 -23 L 236 303 C 403 303 549 326 674 374 C 799 421 899 490 973 580 C 882 524 769 496 635 496 C 477 496 355 529 269 597 C 183 665 141 762 141 889 Z M 537 946 C 537 894 558 855 602 828 C 646 801 709 788 791 788 C 867 788 927 804 971 838 C 1014 872 1036 918 1036 977 C 1036 1029 1014 1069 972 1099 C 930 1128 871 1143 795 1143 C 715 1143 652 1125 606 1090 C 560 1055 537 1007 537 946 Z" unicode="9" />
<glyph horiz-adv-x="643" d="M 618 866 C 618 798 595 741 551 697 C 507 653 451 631 383 631 C 314 631 257 653 213 698 C 169 743 147 799 147 866 C 147 934 169 989 215 1033 C 260 1076 316 1098 383 1098 C 449 1098 505 1076 550 1033 C 595 990 618 934 618 866 Z M 498 213 C 498 145 475 89 430 44 C 385 0 329 -23 262 -23 C 195 -23 139 0 94 43 C 49 87 27 144 27 213 C 27 279 49 334 93 378 C 137 422 193 444 262 444 C 330 444 387 422 431 378 C 475 334 498 279 498 213 Z" unicode=":" />
<glyph horiz-adv-x="643" d="M 618 866 C 618 798 595 741 551 697 C 507 653 451 631 383 631 C 314 631 257 653 213 698 C 169 743 147 799 147 866 C 147 934 169 989 215 1033 C 260 1076 316 1098 383 1098 C 449 1098 505 1076 550 1033 C 595 990 618 934 618 866 Z M 514 418 L 203 -248 L -41 -248 L 104 418 L 514 418 Z" unicode=";" />
<glyph horiz-adv-x="1055" d="M 950 -23 L 137 582 L 137 852 L 950 1456 L 950 977 L 551 721 L 950 465 L 950 -23 Z" unicode="&#x3C;" />
<glyph horiz-adv-x="1323" d="M 1180 799 L 184 799 L 184 1171 L 1180 1171 L 1180 799 Z M 1180 238 L 184 238 L 184 610 L 1180 610 L 1180 238 Z" unicode="=" />
<glyph horiz-adv-x="1055" d="M 958 582 L 145 -23 L 145 457 L 545 713 L 145 969 L 145 1456 L 958 852 L 958 582 Z" unicode="&#x3E;" />
<glyph horiz-adv-x="1225" d="M 750 512 L 383 512 C 393 587 410 647 434 692 C 458 736 493 775 539 808 C 584 841 642 870 713 895 C 760 911 796 929 821 949 C 845 968 858 994 858 1026 C 858 1056 843 1080 813 1097 C 783 1113 740 1122 684 1122 C 625 1122 562 1112 495 1093 C 428 1074 365 1048 305 1014 L 174 1317 C 252 1360 339 1394 433 1419 C 527 1443 621 1456 717 1456 C 885 1456 1016 1423 1110 1358 C 1204 1293 1251 1201 1251 1083 C 1251 909 1146 784 938 709 C 894 693 859 677 835 661 C 811 645 792 626 779 606 C 766 585 756 554 750 512 Z M 715 190 C 715 128 694 77 654 37 C 613 -2 562 -23 502 -23 C 442 -23 391 -2 350 37 C 309 77 289 128 289 190 C 289 250 309 299 349 339 C 389 379 440 399 502 399 C 564 399 615 379 655 339 C 695 299 715 250 715 190 Z" unicode="?" />
<glyph horiz-adv-x="1712" d="M 1638 737 C 1638 454 1537 313 1337 313 C 1239 313 1162 346 1106 414 C 1058 382 1009 358 959 342 C 909 325 852 317 788 317 C 708 317 645 341 601 390 C 557 438 535 504 535 588 C 535 669 560 732 611 777 C 661 821 730 844 817 844 C 896 844 961 831 1012 805 L 1012 860 C 1012 894 1001 917 979 931 C 957 945 925 952 881 952 C 804 952 727 934 649 899 L 582 1063 C 683 1111 796 1135 920 1135 C 1024 1135 1102 1110 1155 1061 C 1208 1012 1235 940 1235 844 L 1235 588 C 1235 544 1243 511 1260 488 C 1277 464 1306 453 1348 453 C 1400 453 1436 476 1456 523 C 1476 569 1487 641 1487 739 C 1487 845 1461 942 1411 1030 C 1360 1118 1289 1186 1199 1236 C 1108 1286 1008 1311 899 1311 C 786 1311 685 1285 595 1235 C 505 1185 436 1114 386 1023 C 336 932 311 831 311 719 C 311 604 335 501 385 411 C 435 320 505 249 595 199 C 685 148 786 123 899 123 C 997 123 1084 141 1159 178 L 1217 45 C 1109 0 1003 -23 899 -23 C 761 -23 636 9 522 75 C 408 140 319 230 255 344 C 191 458 160 582 160 717 C 160 853 192 978 258 1092 C 323 1206 412 1295 525 1359 C 637 1423 762 1456 899 1456 C 1034 1456 1158 1424 1271 1361 C 1383 1297 1473 1210 1539 1099 C 1605 987 1638 867 1638 737 Z M 1012 535 L 1012 657 C 969 676 920 686 866 686 C 829 686 801 677 781 661 C 761 645 752 622 752 592 C 752 564 761 541 779 523 C 797 505 826 496 866 496 C 886 496 910 499 939 507 C 967 515 992 524 1012 535 Z" unicode="@" />
<glyph horiz-adv-x="1561" d="M 512 252 L 391 0 L -35 0 L 729 1434 L 1139 1434 L 1397 0 L 967 0 L 938 252 L 512 252 Z M 903 567 L 893 662 C 876 806 866 926 864 1020 C 850 974 832 928 811 880 C 789 832 740 728 664 567 L 903 567 Z" unicode="A" />
<glyph horiz-adv-x="1460" d="M 1356 481 C 1356 389 1331 306 1283 233 C 1235 159 1167 102 1080 61 C 992 20 897 0 793 0 L 51 0 L 303 1434 L 940 1434 C 1104 1434 1227 1405 1309 1349 C 1391 1292 1432 1209 1432 1100 C 1432 1020 1411 952 1370 894 C 1329 836 1273 792 1202 764 C 1249 738 1286 700 1314 650 C 1342 600 1356 543 1356 481 Z M 1028 1024 C 1028 1058 1015 1082 991 1097 C 966 1112 935 1120 897 1120 L 629 1120 L 590 895 L 877 895 C 922 895 958 906 986 928 C 1014 950 1028 982 1028 1024 Z M 965 479 C 965 511 953 537 931 559 C 909 581 872 592 821 592 L 537 592 L 487 313 L 786 313 C 842 313 885 327 917 357 C 949 387 965 427 965 479 Z" unicode="B" />
<glyph horiz-adv-x="1397" d="M 1307 348 C 1219 207 1127 110 1031 57 C 935 3 824 -23 700 -23 C 513 -23 367 29 261 135 C 155 240 102 388 102 578 C 102 740 133 889 197 1025 C 260 1161 347 1266 459 1342 C 571 1418 698 1456 840 1456 C 1003 1456 1130 1422 1221 1354 C 1312 1286 1373 1180 1403 1034 L 1024 893 C 1004 971 977 1026 944 1060 C 910 1093 866 1110 811 1110 C 755 1110 706 1088 663 1046 C 620 1003 586 941 560 859 C 534 777 522 690 522 598 C 522 415 589 324 725 324 C 761 324 794 331 823 345 C 852 359 878 377 902 401 C 926 425 956 466 993 526 L 1307 348 Z" unicode="C" />
<glyph horiz-adv-x="1470" d="M 618 0 L 51 0 L 303 1434 L 715 1434 C 1193 1434 1432 1246 1432 870 C 1432 590 1362 375 1222 225 C 1082 75 881 0 618 0 Z M 1016 834 C 1016 925 990 991 939 1032 C 888 1073 806 1094 694 1094 L 645 1094 L 514 340 L 649 340 C 769 340 861 382 923 466 C 985 550 1016 673 1016 834 Z" unicode="D" />
<glyph horiz-adv-x="1358" d="M 1155 0 L 51 0 L 303 1434 L 1393 1434 L 1333 1100 L 637 1100 L 604 909 L 1020 909 L 961 580 L 545 580 L 502 334 L 1212 334 L 1155 0 Z" unicode="E" />
<glyph horiz-adv-x="1339" d="M 1370 1096 L 639 1096 L 604 897 L 1044 897 L 985 561 L 545 561 L 444 0 L 51 0 L 303 1434 L 1430 1434 L 1370 1096 Z" unicode="F" />
<glyph horiz-adv-x="1468" d="M 707 -23 C 519 -23 370 31 260 140 C 150 248 96 399 96 592 C 96 750 130 898 198 1034 C 266 1170 357 1275 472 1347 C 586 1419 714 1456 856 1456 C 1019 1456 1147 1422 1239 1354 C 1331 1286 1395 1177 1432 1026 L 1047 913 C 1013 1044 940 1110 829 1110 C 768 1110 714 1088 667 1044 C 619 1000 582 935 554 851 C 526 767 512 677 512 582 C 512 489 532 421 572 378 C 612 334 673 313 756 313 C 825 313 880 327 920 355 C 960 383 987 427 1001 489 L 739 489 L 793 786 L 1419 786 L 1384 586 C 1349 381 1276 228 1164 128 C 1052 27 899 -23 707 -23 Z" unicode="G" />
<glyph horiz-adv-x="1540" d="M 1300 0 L 895 0 L 993 565 L 555 565 L 457 0 L 51 0 L 303 1434 L 709 1434 L 616 911 L 1055 911 L 1147 1434 L 1552 1434 L 1300 0 Z" unicode="H" />
<glyph horiz-adv-x="717" d="M 467 0 L 61 0 L 315 1434 L 721 1434 L 467 0 Z" unicode="I" />
<glyph horiz-adv-x="1405" d="M 616 -23 C 440 -23 305 19 210 105 C 114 191 57 327 37 514 L 438 588 C 450 489 473 421 506 384 C 538 346 586 328 649 328 C 710 328 758 345 792 380 C 826 414 850 472 864 553 L 1020 1434 L 1425 1434 L 1268 539 C 1233 345 1162 202 1056 112 C 949 22 802 -23 616 -23 Z" unicode="J" />
<glyph horiz-adv-x="1495" d="M 729 623 L 532 432 L 457 0 L 51 0 L 303 1434 L 709 1434 C 655 1139 622 965 610 911 C 638 946 722 1040 864 1192 L 1085 1434 L 1569 1434 L 1047 930 L 1364 0 L 924 0 L 729 623 Z" unicode="K" />
<glyph horiz-adv-x="1251" d="M 1079 0 L 51 0 L 303 1434 L 709 1434 L 518 346 L 1141 346 L 1079 0 Z" unicode="L" />
<glyph horiz-adv-x="1720" d="M 1481 0 L 1108 0 C 1160 294 1193 474 1206 542 C 1219 609 1232 669 1245 723 C 1226 687 1193 629 1145 549 C 1097 469 1056 402 1020 348 L 754 -49 C 658 291 601 499 582 575 C 563 650 551 703 545 733 C 535 662 525 592 515 523 C 504 453 474 279 424 0 L 51 0 L 305 1434 L 666 1434 L 770 1051 C 824 849 858 704 870 614 C 888 650 915 701 953 766 C 991 830 1129 1053 1368 1434 L 1735 1434 L 1481 0 Z" unicode="M" />
<glyph horiz-adv-x="1540" d="M 1300 0 L 977 0 L 727 473 C 705 513 674 574 634 656 C 594 737 570 788 563 809 C 562 791 559 766 555 732 C 551 698 536 600 510 438 L 432 0 L 51 0 L 305 1434 L 655 1434 L 895 1010 C 921 960 952 900 988 828 C 1024 756 1047 704 1059 672 C 1061 715 1067 777 1077 857 C 1087 937 1096 998 1104 1042 L 1174 1434 L 1554 1434 L 1300 0 Z" unicode="N" />
<glyph horiz-adv-x="1491" d="M 844 1456 C 1040 1456 1190 1403 1294 1298 C 1398 1193 1450 1044 1450 850 C 1450 692 1417 546 1353 411 C 1289 275 1200 169 1086 92 C 972 15 845 -23 707 -23 C 511 -23 360 29 256 134 C 152 238 100 388 100 584 C 100 740 132 886 196 1021 C 260 1156 349 1262 463 1340 C 577 1417 704 1456 844 1456 Z M 819 1110 C 761 1110 708 1087 662 1042 C 616 997 580 936 554 859 C 528 781 516 698 516 610 C 516 419 587 324 731 324 C 789 324 841 346 887 391 C 933 436 969 497 995 575 C 1021 652 1034 735 1034 823 C 1034 1014 962 1110 819 1110 Z" unicode="O" />
<glyph horiz-adv-x="1382" d="M 1397 1014 C 1397 906 1373 810 1325 728 C 1277 646 1208 581 1118 535 C 1028 488 927 465 817 465 L 526 465 L 446 0 L 51 0 L 303 1434 L 852 1434 C 1028 1434 1163 1398 1257 1328 C 1350 1257 1397 1152 1397 1014 Z M 995 971 C 995 1020 980 1055 951 1077 C 921 1099 873 1110 807 1110 L 641 1110 L 584 788 L 784 788 C 852 788 905 804 941 837 C 977 869 995 914 995 971 Z" unicode="P" />
<glyph horiz-adv-x="1491" d="M 1171 178 L 1257 14 L 958 -139 L 881 8 C 826 -9 771 -18 717 -18 C 521 -18 370 34 262 140 C 154 245 100 394 100 588 C 100 746 132 892 196 1026 C 260 1160 349 1265 463 1341 C 576 1417 702 1456 842 1456 C 1032 1456 1181 1403 1289 1298 C 1397 1193 1452 1048 1452 864 C 1452 728 1427 601 1379 482 C 1330 363 1261 262 1171 178 Z M 725 303 L 633 479 L 932 633 L 991 520 C 1009 568 1024 620 1034 675 C 1044 730 1049 781 1049 829 C 1049 921 1028 990 988 1038 C 948 1086 892 1110 821 1110 C 730 1110 656 1059 600 958 C 544 856 516 728 516 573 C 516 490 534 425 571 377 C 607 329 659 304 725 303 Z" unicode="Q" />
<glyph horiz-adv-x="1458" d="M 1272 0 L 852 0 L 694 483 L 532 483 L 446 0 L 51 0 L 303 1434 L 870 1434 C 1052 1434 1190 1400 1284 1332 C 1378 1264 1425 1165 1425 1034 C 1425 916 1396 815 1340 731 C 1284 646 1199 581 1087 535 L 1272 0 Z M 1018 979 C 1018 1024 1004 1057 977 1078 C 950 1099 908 1110 852 1110 L 643 1110 L 588 797 L 819 797 C 883 797 932 812 966 844 C 1000 876 1018 921 1018 979 Z" unicode="R" />
<glyph horiz-adv-x="1382" d="M 1268 473 C 1268 315 1215 192 1111 106 C 1007 20 862 -23 676 -23 C 560 -23 443 -2 325 38 C 207 78 105 133 20 203 L 268 496 C 339 439 414 395 493 365 C 571 334 647 319 721 319 C 768 319 803 327 825 343 C 847 359 858 380 858 406 C 858 431 850 451 836 467 C 822 482 799 497 767 513 C 735 528 694 543 645 559 C 483 611 370 670 304 735 C 238 799 205 883 205 985 C 205 1134 258 1250 364 1332 C 470 1414 614 1456 797 1456 C 907 1456 1018 1436 1129 1396 C 1239 1356 1327 1307 1393 1247 L 1145 954 C 1087 1003 1021 1042 948 1071 C 875 1099 806 1114 741 1114 C 699 1114 668 1106 646 1091 C 624 1075 614 1057 614 1036 C 614 1012 620 994 633 980 C 646 966 668 952 698 938 C 728 924 769 908 821 891 C 936 851 1025 812 1088 774 C 1151 736 1197 693 1225 645 C 1253 597 1268 540 1268 473 Z" unicode="S" />
<glyph horiz-adv-x="1364" d="M 1376 1087 L 979 1087 L 786 0 L 383 0 L 575 1087 L 184 1087 L 246 1434 L 1438 1434 L 1376 1087 Z" unicode="T" />
<glyph horiz-adv-x="1524" d="M 721 -23 C 631 -23 548 -11 470 12 C 392 36 327 73 273 124 C 219 175 183 231 165 293 C 147 355 138 412 138 466 C 138 511 142 560 152 612 L 295 1434 L 700 1434 L 557 612 C 551 580 549 552 549 526 C 549 394 613 328 743 328 C 813 328 869 350 909 396 C 949 442 978 514 995 612 L 1139 1434 L 1544 1434 L 1401 612 C 1362 392 1288 232 1180 130 C 1071 28 918 -23 721 -23 Z" unicode="U" />
<glyph horiz-adv-x="1499" d="M 1599 1434 L 899 0 L 461 0 L 219 1434 L 666 1434 C 702 1046 724 797 733 688 C 741 578 746 496 748 442 C 768 498 801 583 847 697 C 893 811 996 1056 1157 1434 L 1599 1434 Z" unicode="V" />
<glyph horiz-adv-x="1888" d="M 1970 1434 L 1391 0 L 1012 0 C 1000 339 994 556 994 652 C 994 775 996 859 1001 905 C 981 830 953 736 916 624 C 879 512 842 407 805 311 L 684 0 L 315 0 L 238 1434 L 647 1434 C 639 984 631 697 621 571 C 646 665 679 770 720 888 C 761 1006 829 1188 924 1434 L 1288 1434 C 1294 1178 1298 990 1298 868 C 1297 759 1294 660 1288 571 C 1324 715 1389 923 1483 1194 L 1565 1434 L 1970 1434 Z" unicode="W" />
<glyph horiz-adv-x="1481" d="M 1327 0 L 877 0 C 819 148 782 247 764 296 C 746 345 733 390 723 430 C 711 411 699 391 685 371 C 671 350 581 226 416 0 L -35 0 L 561 725 L 233 1434 L 684 1434 L 735 1294 C 751 1248 769 1203 787 1157 C 805 1111 819 1070 829 1032 C 851 1070 879 1111 913 1157 L 1112 1434 L 1563 1434 L 995 733 L 1327 0 Z" unicode="X" />
<glyph horiz-adv-x="1520" d="M 1645 1434 L 952 518 L 862 0 L 457 0 L 549 528 L 190 1434 L 639 1434 L 711 1217 C 757 1071 790 941 809 827 C 865 942 942 1072 1040 1217 L 1190 1434 L 1645 1434 Z" unicode="Y" />
<glyph horiz-adv-x="1446" d="M 1206 0 L 39 0 L 90 285 C 321 515 501 695 629 823 C 757 951 859 1048 934 1116 C 850 1112 709 1110 512 1110 L 276 1110 L 334 1434 L 1456 1434 L 1405 1149 C 1168 913 989 734 867 613 C 745 491 643 393 561 317 C 659 321 802 324 991 324 L 1264 324 L 1206 0 Z" unicode="Z" />
<glyph horiz-adv-x="940" d="M 645 -225 L 29 -225 L 319 1434 L 936 1434 L 883 1133 L 637 1133 L 453 76 L 698 76 L 645 -225 Z" unicode="[" />
<glyph horiz-adv-x="1044" d="M 948 -184 L 559 -184 L 158 1618 L 547 1618 L 948 -184 Z" unicode="\" />
<glyph horiz-adv-x="948" d="M 643 -225 L 29 -225 L 82 76 L 326 76 L 510 1133 L 266 1133 L 319 1434 L 934 1434 L 643 -225 Z" unicode="]" />
<glyph horiz-adv-x="1253" d="M 1249 741 L 874 741 L 743 1116 L 479 741 L 88 741 L 627 1434 L 954 1434 L 1249 741 Z" unicode="^" />
<glyph horiz-adv-x="1024" d="M 858 -406 L -166 -406 L -117 -125 L 907 -125 L 858 -406 Z" unicode="_" />
<glyph horiz-adv-x="1024" d="M 889 1219 L 627 1219 L 362 1546 L 799 1546 L 889 1219 Z" unicode="`" />
<glyph horiz-adv-x="1135" d="M 934 0 L 586 0 L 598 78 C 516 10 434 -23 352 -23 C 256 -23 179 4 122 59 C 65 113 37 189 37 285 C 37 409 74 509 148 585 C 222 660 320 698 444 698 C 494 698 542 693 588 683 C 634 673 672 662 700 649 C 709 695 714 724 714 736 C 714 766 701 790 677 808 C 652 825 609 834 549 834 C 457 834 366 818 276 786 L 223 1030 C 332 1075 462 1098 612 1098 C 913 1098 1064 990 1064 774 C 1064 741 1060 705 1053 666 L 934 0 Z M 662 434 C 615 457 564 469 508 469 C 470 469 439 456 415 431 C 391 405 379 372 379 330 C 379 300 388 278 406 262 C 424 246 448 238 479 238 C 533 238 586 254 637 287 L 662 434 Z" unicode="a" />
<glyph horiz-adv-x="1163" d="M 1108 727 C 1108 581 1089 452 1052 338 C 1014 224 961 135 892 72 C 823 8 745 -23 657 -23 C 611 -23 564 -13 517 4 C 469 22 431 45 401 72 L 389 0 L 20 0 L 256 1346 L 651 1493 L 565 999 C 644 1065 723 1098 803 1098 C 899 1098 974 1066 1028 1004 C 1081 942 1108 849 1108 727 Z M 737 666 C 737 710 730 742 718 763 C 705 784 682 795 649 795 C 627 795 604 789 579 778 C 553 766 534 755 520 743 L 446 336 C 463 320 481 307 501 297 C 521 286 545 281 575 281 C 621 281 660 317 691 390 C 721 462 737 554 737 666 Z" unicode="b" />
<glyph horiz-adv-x="1057" d="M 952 205 C 833 53 686 -23 512 -23 C 369 -23 258 16 178 96 C 98 176 59 288 59 432 C 59 557 82 671 129 773 C 175 875 241 955 326 1012 C 411 1069 509 1098 621 1098 C 729 1098 817 1076 885 1032 C 953 988 1006 919 1044 825 L 756 651 C 738 705 719 744 697 766 C 675 788 647 799 612 799 C 558 799 514 764 480 696 C 445 627 428 544 428 446 C 428 332 468 276 549 276 C 585 276 618 288 649 312 C 679 336 711 368 743 408 L 952 205 Z" unicode="c" />
<glyph horiz-adv-x="1163" d="M 53 350 C 53 494 72 623 110 739 C 148 854 201 943 270 1006 C 338 1068 416 1100 504 1100 C 549 1100 596 1090 644 1072 C 692 1054 730 1032 760 1006 L 819 1346 L 1214 1493 L 952 2 L 584 2 L 596 78 C 517 12 438 -20 358 -20 C 261 -20 186 11 133 73 C 79 135 53 227 53 350 Z M 424 412 C 424 368 430 335 443 314 C 455 293 478 283 512 283 C 532 283 555 288 581 299 C 607 309 627 321 641 334 L 715 741 C 697 756 679 769 659 780 C 639 791 615 797 586 797 C 539 797 500 760 470 688 C 439 615 424 523 424 412 Z" unicode="d" />
<glyph horiz-adv-x="1114" d="M 1044 666 C 1044 577 1033 499 1012 432 L 391 432 L 390 415 C 390 366 405 328 437 301 C 468 273 511 260 565 260 C 617 260 663 265 703 276 C 743 287 784 303 825 324 L 926 80 C 792 11 658 -23 522 -23 C 376 -23 262 18 181 102 C 99 185 59 299 59 444 C 59 566 82 678 130 778 C 177 878 243 957 328 1013 C 413 1069 509 1098 616 1098 C 755 1098 861 1060 934 985 C 1007 909 1044 803 1044 666 Z M 729 662 L 729 672 C 729 721 719 759 700 785 C 680 811 644 825 590 825 C 548 825 514 811 489 783 C 463 755 443 715 428 662 L 729 662 Z" unicode="e" />
<glyph horiz-adv-x="784" d="M 834 1204 C 803 1219 767 1227 725 1227 C 707 1227 694 1224 685 1219 C 676 1213 669 1203 663 1189 C 657 1175 649 1137 639 1075 L 795 1075 L 743 786 L 594 786 L 457 0 L 88 0 L 227 786 L 117 786 L 168 1075 L 279 1075 L 301 1200 C 319 1305 353 1379 403 1422 C 452 1465 525 1487 623 1487 C 665 1487 710 1481 758 1471 C 806 1460 844 1446 874 1430 L 834 1204 Z" unicode="f" />
<glyph horiz-adv-x="1163" d="M 1143 1075 L 975 119 C 953 1 918 -92 868 -163 C 818 -234 751 -288 666 -324 C 581 -360 468 -382 328 -389 L 231 -172 C 325 -164 395 -152 443 -136 C 491 -120 526 -99 548 -71 C 570 -43 586 6 596 78 C 517 12 438 -20 358 -20 C 261 -20 186 11 133 73 C 79 135 53 227 53 350 C 53 494 72 623 110 739 C 148 854 201 943 270 1006 C 338 1068 416 1100 504 1100 C 549 1100 596 1090 644 1072 C 692 1054 730 1032 760 1006 L 772 1075 L 1143 1075 Z M 424 412 C 424 368 430 335 443 314 C 455 293 478 283 512 283 C 532 283 555 288 581 299 C 607 309 627 321 641 334 L 715 741 C 697 756 679 769 659 780 C 639 791 615 797 586 797 C 539 797 500 760 470 688 C 439 615 424 523 424 412 Z" unicode="g" />
<glyph horiz-adv-x="1200" d="M 997 0 L 627 0 L 735 610 C 739 632 741 654 741 676 C 741 714 731 741 713 759 C 694 777 669 786 639 786 C 597 786 565 773 544 747 C 523 721 507 677 496 614 L 387 0 L 18 0 L 256 1346 L 651 1493 L 565 1004 C 643 1066 727 1098 815 1098 C 1021 1098 1124 993 1124 784 C 1124 744 1118 690 1108 623 L 997 0 Z" unicode="h" />
<glyph horiz-adv-x="618" d="M 236 1319 C 236 1373 257 1419 299 1456 C 341 1492 394 1511 459 1511 C 523 1511 573 1496 610 1466 C 647 1436 666 1397 666 1348 C 666 1292 644 1246 601 1210 C 558 1173 505 1155 442 1155 C 378 1155 327 1170 291 1200 C 254 1230 236 1269 236 1319 Z M 397 0 L 29 0 L 219 1075 L 588 1075 L 397 0 Z" unicode="i" />
<glyph horiz-adv-x="627" d="M 236 1319 C 236 1373 257 1419 299 1456 C 341 1492 394 1511 459 1511 C 523 1511 573 1496 610 1466 C 647 1436 666 1397 666 1348 C 666 1292 644 1246 601 1210 C 558 1173 505 1155 442 1155 C 378 1155 327 1170 291 1200 C 254 1230 236 1269 236 1319 Z M -152 -395 L -231 -141 C -165 -133 -114 -121 -78 -107 C -42 -92 -15 -71 3 -43 C 21 -15 35 26 45 82 L 219 1075 L 588 1075 L 412 66 C 392 -40 361 -125 318 -189 C 275 -253 217 -302 144 -335 C 70 -367 -28 -387 -152 -395 Z" unicode="j" />
<glyph horiz-adv-x="1167" d="M 1026 0 L 639 0 L 563 449 L 446 326 L 389 0 L 20 0 L 258 1346 L 651 1493 L 575 1055 L 543 894 L 510 737 C 533 768 586 831 669 925 L 797 1075 L 1217 1075 L 883 743 L 1026 0 Z" unicode="k" />
<glyph horiz-adv-x="618" d="M 399 0 L 31 0 L 268 1346 L 664 1493 L 399 0 Z" unicode="l" />
<glyph horiz-adv-x="1802" d="M 1225 0 L 1333 610 C 1338 649 1341 673 1341 682 C 1341 751 1307 786 1239 786 C 1199 786 1169 771 1148 743 C 1126 714 1111 671 1102 614 L 993 0 L 618 0 L 727 610 C 731 636 733 659 733 678 C 733 750 699 786 633 786 C 594 786 564 772 543 745 C 521 718 506 674 496 614 L 387 0 L 18 0 L 209 1075 L 578 1075 L 565 1004 C 651 1066 739 1098 829 1098 C 939 1098 1026 1057 1092 975 C 1148 1019 1201 1050 1251 1069 C 1301 1088 1353 1098 1407 1098 C 1615 1098 1720 995 1720 791 C 1720 740 1714 687 1704 631 L 1589 0 L 1225 0 Z" unicode="m" />
<glyph horiz-adv-x="1200" d="M 997 0 L 627 0 L 735 610 C 739 632 741 654 741 676 C 741 714 731 741 713 759 C 694 777 669 786 639 786 C 597 786 565 773 544 747 C 523 721 507 677 496 614 L 387 0 L 18 0 L 209 1075 L 578 1075 L 565 1004 C 643 1066 727 1098 815 1098 C 1021 1098 1124 993 1124 784 C 1124 744 1118 690 1108 623 L 997 0 Z" unicode="n" />
<glyph horiz-adv-x="1157" d="M 522 -23 C 381 -23 269 18 185 100 C 101 182 59 292 59 430 C 59 556 83 671 131 773 C 179 875 248 955 336 1012 C 424 1069 523 1098 633 1098 C 775 1098 887 1056 971 973 C 1054 890 1096 781 1096 645 C 1096 520 1072 407 1024 305 C 976 203 909 122 822 64 C 734 6 634 -23 522 -23 Z M 537 276 C 594 276 640 309 676 376 C 711 442 729 527 729 631 C 729 743 692 799 618 799 C 560 799 514 765 479 699 C 443 632 426 547 426 444 C 426 332 463 276 537 276 Z" unicode="o" />
<glyph horiz-adv-x="1163" d="M 1108 727 C 1108 581 1089 452 1052 338 C 1014 224 961 135 892 72 C 823 8 745 -23 657 -23 C 611 -23 564 -13 517 4 C 469 22 431 45 401 72 L 346 -248 L -49 -395 L 209 1075 L 578 1075 L 565 999 C 644 1065 723 1098 803 1098 C 899 1098 974 1066 1028 1004 C 1081 942 1108 849 1108 727 Z M 737 666 C 737 710 730 742 718 763 C 705 784 682 795 649 795 C 627 795 604 789 579 778 C 553 766 534 755 520 743 L 446 336 C 463 320 481 307 501 297 C 521 286 545 281 575 281 C 621 281 660 317 691 390 C 721 462 737 554 737 666 Z" unicode="p" />
<glyph horiz-adv-x="1163" d="M 53 350 C 53 494 72 623 110 739 C 148 854 201 943 270 1006 C 338 1068 416 1100 504 1100 C 549 1100 596 1090 644 1072 C 692 1054 730 1032 760 1006 L 772 1075 L 1143 1075 L 909 -248 L 514 -395 L 596 78 C 517 12 438 -20 358 -20 C 261 -20 186 11 133 73 C 79 135 53 227 53 350 Z M 424 412 C 424 368 430 335 443 314 C 455 293 478 283 512 283 C 532 283 555 288 581 299 C 607 309 627 321 641 334 L 715 741 C 697 756 679 769 659 780 C 639 791 615 797 586 797 C 539 797 500 760 470 688 C 439 615 424 523 424 412 Z" unicode="q" />
<glyph horiz-adv-x="909" d="M 969 1040 L 817 670 C 766 730 708 760 643 760 C 599 760 565 747 542 721 C 518 695 501 650 489 586 L 387 0 L 18 0 L 209 1075 L 578 1075 L 565 1012 C 637 1069 711 1098 786 1098 C 858 1098 919 1078 969 1040 Z" unicode="r" />
<glyph horiz-adv-x="1071" d="M 944 356 C 944 233 905 139 827 74 C 749 9 636 -23 489 -23 C 408 -23 329 -13 252 5 C 174 24 92 55 4 98 L 139 367 C 205 329 271 300 335 280 C 399 260 456 250 506 250 C 563 250 592 267 592 301 C 592 317 588 329 580 337 C 572 345 553 355 522 367 C 425 401 349 434 295 467 C 241 499 201 535 176 574 C 151 612 139 661 139 721 C 139 840 178 933 258 999 C 337 1065 446 1098 584 1098 C 746 1098 897 1063 1036 995 L 905 717 C 772 789 658 825 563 825 C 515 825 492 808 492 774 C 492 756 498 742 510 732 C 522 722 546 711 580 700 C 671 668 743 635 795 603 C 847 571 885 536 909 499 C 932 461 944 414 944 356 Z" unicode="s" />
<glyph horiz-adv-x="922" d="M 770 332 L 668 16 C 605 -10 532 -23 449 -23 C 350 -23 278 -4 232 34 C 186 72 164 133 164 217 C 164 249 167 283 174 319 L 256 786 L 102 786 L 154 1075 L 307 1075 L 354 1348 L 750 1493 L 676 1075 L 899 1075 L 848 786 L 625 786 L 557 397 L 553 358 C 553 332 559 315 573 305 C 587 295 608 291 637 291 C 659 291 683 295 707 303 C 731 311 752 320 770 332 Z" unicode="t" />
<glyph horiz-adv-x="1200" d="M 203 1075 L 573 1075 L 465 465 C 461 441 459 419 459 399 C 459 361 468 333 487 315 C 505 297 530 289 561 289 C 604 289 636 302 657 330 C 678 357 694 401 705 461 L 813 1075 L 1182 1075 L 991 0 L 623 0 L 635 72 C 595 40 554 17 510 1 C 466 -15 424 -23 385 -23 C 179 -23 76 81 76 291 C 76 329 81 383 92 453 L 203 1075 Z" unicode="u" />
<glyph horiz-adv-x="1161" d="M 1225 1075 L 690 0 L 307 0 L 125 1075 L 516 1075 L 546 606 C 553 504 557 432 557 390 L 557 358 C 579 438 618 545 674 680 L 836 1075 L 1225 1075 Z" unicode="v" />
<glyph horiz-adv-x="1509" d="M 1571 1075 L 1102 0 L 784 0 L 779 574 L 780 657 C 736 540 656 321 541 0 L 233 0 L 131 1075 L 487 1075 L 490 806 C 488 684 486 574 483 477 L 513 561 C 571 735 613 855 639 920 L 702 1075 L 1006 1075 C 1010 920 1012 788 1012 680 L 1012 477 L 1040 561 C 1085 699 1145 871 1219 1075 L 1571 1075 Z" unicode="w" />
<glyph horiz-adv-x="1167" d="M 651 836 C 693 910 747 989 811 1075 L 1192 1075 L 772 578 L 1044 0 L 643 0 L 530 305 C 474 212 403 110 317 0 L -63 0 L 408 561 L 168 1075 L 569 1075 C 597 1006 625 926 651 836 Z" unicode="x" />
<glyph horiz-adv-x="1200" d="M 1264 1075 L 492 -379 L 139 -379 L 334 -45 L 125 1075 L 516 1075 C 542 753 556 572 558 530 C 560 488 562 445 563 400 L 561 309 C 575 355 598 418 630 497 C 662 575 744 768 877 1075 L 1264 1075 Z" unicode="y" />
<glyph horiz-adv-x="1149" d="M 938 0 L 12 0 L 57 256 L 334 512 C 398 571 481 644 585 732 L 645 784 C 511 778 421 776 373 776 L 174 776 L 225 1075 L 1126 1075 L 1081 819 C 963 707 872 621 810 562 C 748 503 644 413 498 291 C 631 296 724 299 776 299 L 991 299 L 938 0 Z" unicode="z" />
<glyph horiz-adv-x="1036" d="M 791 -225 C 411 -203 221 -81 221 139 C 221 165 223 192 229 221 L 254 356 L 257 385 C 257 408 249 426 233 438 C 217 450 190 457 152 457 L 82 457 L 135 764 L 205 764 C 253 764 286 770 305 783 C 323 795 336 822 344 864 L 371 1034 C 387 1138 421 1219 473 1277 C 525 1335 600 1377 699 1404 C 797 1430 926 1444 1085 1444 L 1042 1206 C 978 1199 928 1188 893 1173 C 857 1158 831 1137 813 1109 C 795 1081 780 1032 768 961 C 754 873 739 810 725 774 C 710 738 692 708 670 686 C 648 664 620 647 588 636 C 555 624 509 616 449 610 C 519 596 566 582 591 568 C 616 553 634 533 646 508 C 657 482 663 451 663 413 C 663 383 659 347 653 307 C 641 237 636 189 636 165 C 636 119 650 84 680 61 C 710 38 761 22 834 12 L 791 -225 Z" unicode="{" />
<glyph horiz-adv-x="664" d="M 352 -379 L -12 -379 L 344 1638 L 709 1638 L 352 -379 Z" unicode="|" />
<glyph horiz-adv-x="1036" d="M 272 1444 C 652 1422 842 1300 842 1079 C 842 1053 839 1025 834 997 L 809 862 L 806 834 C 806 809 813 791 829 779 C 845 767 872 762 911 762 L 981 762 L 928 455 L 858 455 C 810 455 776 448 757 434 C 737 420 725 394 719 354 L 692 184 C 676 79 642 -1 590 -59 C 538 -116 462 -158 364 -185 C 265 -211 136 -225 -23 -225 L 20 12 C 84 18 134 29 170 45 C 206 60 232 81 250 109 C 268 136 283 186 295 258 L 303 307 C 314 379 330 435 352 476 C 373 516 401 546 436 566 C 470 585 530 599 614 608 C 541 621 493 635 469 650 C 445 665 427 685 416 710 C 405 734 400 766 400 804 C 400 834 403 869 410 911 C 421 980 427 1027 427 1052 C 427 1099 412 1134 383 1157 C 353 1179 302 1196 229 1206 L 272 1444 Z" unicode="}" />
<glyph horiz-adv-x="1184" d="M 1153 895 C 1073 757 1005 663 949 613 C 893 562 833 537 770 537 C 710 537 654 558 600 600 L 566 627 C 526 658 492 674 463 674 C 441 674 421 665 405 648 C 388 630 357 590 313 526 L 106 625 C 183 757 251 850 311 903 C 370 956 432 983 496 983 C 526 983 555 978 582 968 C 608 958 642 937 682 907 C 701 890 720 876 739 864 C 757 852 778 846 801 846 C 821 846 839 853 855 869 C 870 885 901 926 948 993 L 1153 895 Z" unicode="~" />
<glyph horiz-adv-x="1208" d="M 1030 176 L 715 176 L 647 -205 L 295 -205 L 362 176 L 47 176 L 104 494 L 420 494 L 461 735 L 145 735 L 203 1053 L 518 1053 L 586 1434 L 942 1434 L 870 1053 L 1186 1053 L 1128 735 L 813 735 L 772 494 L 1087 494 L 1030 176 Z" unicode="‡" />
<glyph horiz-adv-x="1712" d="M 1638 717 C 1638 582 1606 458 1544 346 C 1482 233 1393 143 1279 77 C 1165 10 1038 -23 899 -23 C 763 -23 638 9 525 73 C 411 137 322 226 257 340 C 192 454 160 579 160 717 C 160 854 192 979 257 1093 C 321 1206 410 1295 524 1359 C 637 1423 762 1456 899 1456 C 1036 1456 1161 1423 1275 1359 C 1388 1294 1477 1205 1541 1092 C 1605 978 1638 853 1638 717 Z M 1487 717 C 1487 831 1462 933 1412 1023 C 1362 1113 1291 1184 1201 1235 C 1110 1285 1009 1311 899 1311 C 787 1311 686 1285 596 1235 C 505 1184 435 1113 385 1023 C 335 932 311 830 311 717 C 311 602 336 499 386 409 C 436 318 506 248 596 198 C 686 148 787 123 899 123 C 1011 123 1112 148 1202 198 C 1292 248 1362 318 1412 409 C 1462 499 1487 602 1487 717 Z M 1278 852 C 1278 667 1168 575 950 575 L 840 575 L 840 315 L 621 315 L 621 1118 L 967 1118 C 1174 1118 1278 1029 1278 852 Z M 1057 848 C 1057 906 1025 936 961 936 L 840 936 L 840 756 L 956 756 C 1023 756 1057 786 1057 848 Z" unicode="℗" />
<glyph horiz-adv-x="643" d="M 598 752 C 598 684 575 628 531 583 C 486 538 430 516 362 516 C 294 516 237 538 193 582 C 149 626 127 683 127 752 C 127 818 149 873 193 917 C 237 961 293 983 362 983 C 430 983 487 961 531 917 C 575 873 598 818 598 752 Z" unicode="∙" />
<glyph horiz-adv-x="1536" d="M 468 1216 C 566 1216 646 1188 706 1134 C 766 1079 813 981 848 840 C 853 720 877 642 920 608 C 962 573 1013 556 1072 556 C 1128 556 1176 579 1218 626 C 1259 672 1280 736 1280 816 C 1280 882 1264 940 1234 988 C 1203 1036 1152 1060 1080 1060 C 1008 1060 954 1029 920 968 C 885 906 857 834 836 752 C 809 648 760 562 688 496 C 616 429 533 396 440 396 C 336 396 252 433 190 508 C 127 582 96 682 96 808 C 96 925 133 1022 208 1100 C 282 1177 369 1216 468 1216 Z M 1072 396 C 973 396 896 424 840 482 C 784 539 741 633 712 764 C 685 870 652 944 614 986 C 575 1027 528 1048 472 1048 C 408 1048 356 1026 316 982 C 276 938 256 874 256 792 C 256 709 271 648 302 610 C 332 571 381 552 448 552 C 509 552 562 576 608 624 C 653 672 689 752 716 864 C 748 984 796 1072 860 1130 C 924 1187 1004 1216 1100 1216 C 1198 1216 1280 1181 1346 1112 C 1411 1042 1444 945 1444 820 C 1444 700 1409 599 1340 518 C 1270 436 1181 396 1072 396 Z" unicode="∞" />
<glyph horiz-adv-x="1438" d="M 1524 1434 L 735 0 L 356 0 L 106 696 L 496 696 C 548 506 577 396 583 368 C 588 340 591 315 592 293 C 630 399 672 500 719 596 L 1128 1434 L 1524 1434 Z" unicode="√" />
<glyph horiz-adv-x="338" d="" unicode=" " />
<glyph horiz-adv-x="717" d="M 692 1243 C 692 1183 672 1133 632 1093 C 592 1053 541 1034 479 1034 C 417 1034 366 1053 326 1093 C 286 1133 266 1183 266 1243 C 266 1304 286 1355 327 1395 C 367 1435 418 1456 479 1456 C 539 1456 589 1435 630 1395 C 671 1355 692 1304 692 1243 Z M 465 0 L 59 0 L 152 512 L 291 922 L 561 922 L 557 512 L 465 0 Z" unicode="¡" />
<glyph horiz-adv-x="1057" d="M 532 1456 L 891 1456 L 856 1255 C 953 1215 1027 1136 1079 1016 L 791 838 C 777 886 760 923 738 949 C 716 975 686 989 647 989 C 593 989 548 956 514 890 C 480 824 463 741 463 641 C 463 525 503 467 584 467 C 615 467 648 478 682 501 C 716 523 748 555 778 596 L 981 401 C 923 332 870 281 821 247 C 771 213 719 190 664 178 L 629 -23 L 270 -23 L 313 217 C 165 291 92 429 92 631 C 92 729 108 822 142 912 C 175 1002 222 1077 284 1139 C 345 1201 416 1243 498 1266 L 532 1456 Z" unicode="¢" />
<glyph horiz-adv-x="1413" d="M 342 530 L 164 530 L 213 807 L 379 807 C 372 831 364 853 356 873 C 348 893 340 913 333 935 C 325 956 319 979 314 1003 C 309 1027 307 1056 307 1090 C 307 1161 328 1225 370 1281 C 412 1337 473 1380 552 1410 C 630 1440 722 1456 827 1456 C 945 1456 1059 1438 1168 1404 C 1277 1370 1372 1321 1454 1257 L 1235 981 C 1173 1031 1108 1069 1039 1095 C 970 1120 904 1133 842 1133 C 789 1133 750 1122 725 1101 C 700 1079 688 1050 688 1014 C 688 994 690 977 694 961 C 698 945 703 930 709 915 C 715 899 721 883 728 866 C 735 849 742 829 748 807 L 1061 807 L 1012 530 L 729 530 C 708 476 682 429 651 390 C 619 350 589 321 559 303 L 1245 303 L 1192 0 L 70 0 L 121 287 C 179 323 225 360 259 398 C 293 436 321 480 342 530 Z" unicode="£" />
<glyph horiz-adv-x="1152" d="M 1056 392 L 940 284 L 740 500 C 692 468 636 452 572 452 C 510 452 456 468 408 500 L 208 284 L 92 392 L 300 608 C 281 634 268 660 262 686 C 255 711 252 742 252 780 C 252 848 268 906 300 952 L 92 1168 L 208 1276 L 408 1060 C 456 1092 510 1108 572 1108 C 636 1108 692 1092 740 1060 L 944 1276 L 1060 1156 L 852 952 C 870 925 883 898 890 872 C 896 845 900 814 900 780 C 900 716 882 658 848 608 L 1056 392 Z M 748 780 C 748 833 731 876 698 910 C 664 943 622 960 572 960 C 521 960 480 943 448 910 C 416 876 400 833 400 780 C 400 726 416 684 450 652 C 483 620 524 604 572 604 C 625 604 668 620 700 652 C 732 684 748 726 748 780 Z" unicode="¤" />
<glyph horiz-adv-x="1479" d="M 1602 1434 L 924 524 L 918 489 L 1241 489 L 1190 193 L 866 193 L 831 0 L 451 0 L 485 193 L 162 193 L 213 489 L 537 489 L 543 518 L 188 1434 L 645 1434 C 708 1218 748 1077 765 1012 C 781 947 793 892 801 846 C 871 994 939 1117 1004 1217 L 1145 1434 L 1602 1434 Z" unicode="¥" />
<glyph horiz-adv-x="640" d="M 216 788 L 216 1636 L 424 1636 L 424 788 L 216 788 Z M 216 -412 L 216 440 L 424 440 L 424 -412 L 216 -412 Z" unicode="¦" />
<glyph horiz-adv-x="1470" d="M 408 940 C 390 974 381 1021 381 1081 C 381 1153 399 1218 437 1275 C 474 1332 528 1376 598 1408 C 668 1440 751 1456 846 1456 C 939 1456 1033 1441 1128 1411 C 1223 1381 1301 1342 1362 1294 L 1192 1028 C 1128 1067 1062 1099 993 1124 C 924 1148 863 1161 811 1161 C 786 1161 766 1155 752 1145 C 738 1135 731 1122 731 1108 C 731 1093 735 1081 744 1071 C 753 1061 769 1050 791 1038 C 813 1026 842 1013 877 999 C 1008 943 1107 894 1175 852 C 1242 810 1291 768 1321 726 C 1351 683 1366 630 1366 567 C 1366 483 1342 411 1296 352 C 1249 293 1175 241 1073 195 C 1091 155 1100 107 1100 53 C 1100 -19 1081 -84 1044 -141 C 1006 -198 952 -242 882 -274 C 812 -306 729 -322 635 -322 C 543 -322 451 -307 358 -278 C 264 -249 185 -210 119 -160 L 289 106 C 355 64 423 32 491 8 C 559 -15 620 -27 672 -27 C 695 -27 714 -21 728 -11 C 742 0 750 12 750 27 C 750 45 740 61 721 75 C 701 89 662 109 604 135 C 472 191 373 239 306 281 C 238 323 190 365 160 408 C 130 450 115 503 115 567 C 115 651 138 723 186 783 C 234 842 308 894 408 940 Z M 879 381 C 955 416 993 459 993 510 C 993 532 986 551 973 566 C 960 580 937 596 905 614 C 873 632 823 655 756 684 C 675 718 624 742 602 754 C 525 718 487 675 487 625 C 487 602 493 583 506 569 C 519 555 540 539 570 523 C 600 506 651 482 725 451 C 801 417 853 394 879 381 Z" unicode="§" />
<glyph horiz-adv-x="1024" d="M 1094 1405 C 1094 1358 1075 1317 1039 1282 C 1002 1246 960 1229 913 1229 C 865 1229 822 1246 785 1281 C 747 1316 729 1357 729 1405 C 729 1454 747 1496 784 1532 C 820 1567 863 1585 913 1585 C 962 1585 1004 1567 1040 1531 C 1076 1495 1094 1453 1094 1405 Z M 606 1405 C 606 1358 587 1317 551 1282 C 514 1246 472 1229 424 1229 C 376 1229 333 1246 297 1282 C 260 1317 242 1358 242 1405 C 242 1453 259 1495 295 1531 C 331 1567 374 1585 424 1585 C 474 1585 516 1567 552 1531 C 588 1495 606 1453 606 1405 Z" unicode="¨" />
<glyph horiz-adv-x="1712" d="M 1638 717 C 1638 582 1606 458 1544 346 C 1482 233 1393 143 1279 77 C 1165 10 1038 -23 899 -23 C 763 -23 638 9 525 73 C 411 137 322 226 257 340 C 192 454 160 579 160 717 C 160 854 192 979 257 1093 C 321 1206 410 1295 524 1359 C 637 1423 762 1456 899 1456 C 1036 1456 1161 1423 1275 1359 C 1388 1294 1477 1205 1541 1092 C 1605 978 1638 853 1638 717 Z M 1487 717 C 1487 831 1462 933 1412 1023 C 1362 1113 1291 1184 1201 1235 C 1110 1285 1009 1311 899 1311 C 787 1311 686 1285 596 1235 C 505 1184 435 1113 385 1023 C 335 932 311 830 311 717 C 311 602 336 499 386 409 C 436 318 506 248 596 198 C 686 148 787 123 899 123 C 1011 123 1112 148 1202 198 C 1292 248 1362 318 1412 409 C 1462 499 1487 602 1487 717 Z M 1235 518 C 1195 444 1148 391 1094 359 C 1040 327 975 311 901 311 C 788 311 699 348 633 423 C 567 497 535 598 535 725 C 535 850 568 950 635 1026 C 702 1101 791 1139 901 1139 C 989 1139 1058 1121 1109 1087 C 1159 1052 1201 991 1233 903 L 1030 823 C 1010 874 990 907 972 923 C 954 938 930 946 901 946 C 858 946 825 927 802 889 C 779 851 768 797 768 725 C 768 654 780 600 804 562 C 828 524 861 506 903 506 C 932 506 957 513 977 527 C 997 541 1021 572 1047 618 L 1235 518 Z" unicode="©" />
<glyph horiz-adv-x="1016" d="M 885 565 L 602 565 L 612 625 C 589 604 559 586 522 571 C 484 556 449 549 416 549 C 337 549 275 572 229 619 C 183 666 160 731 160 813 C 160 915 189 994 248 1050 C 306 1105 388 1133 494 1133 C 572 1133 640 1120 696 1096 L 704 1162 C 704 1188 694 1208 676 1221 C 658 1234 622 1241 569 1241 C 499 1241 428 1226 354 1196 L 311 1395 C 345 1409 386 1422 436 1436 C 486 1449 546 1456 618 1456 C 738 1456 831 1434 895 1390 C 959 1346 991 1282 991 1198 C 991 1177 989 1155 985 1133 L 885 565 Z M 666 922 C 626 938 586 946 545 946 C 511 946 485 936 466 917 C 447 898 438 872 438 840 C 438 817 445 798 459 782 C 473 766 496 758 526 758 C 568 758 607 772 643 801 L 666 922 Z" unicode="ª" />
<glyph horiz-adv-x="1421" d="M 1243 0 L 844 0 L 678 537 L 1032 1075 L 1432 1075 L 1069 539 L 1243 0 Z M 627 0 L 227 0 L 61 537 L 416 1075 L 815 1075 L 453 539 L 627 0 Z" unicode="«" />
<glyph horiz-adv-x="1536" d="M 1116 352 L 1116 728 L 212 728 L 212 920 L 1296 920 L 1296 352 L 1116 352 Z" unicode="¬" />
<glyph horiz-adv-x="991" d="M 852 541 L 139 541 L 207 926 L 920 926 L 852 541 Z" unicode="­" />
<glyph horiz-adv-x="1712" d="M 1638 717 C 1638 582 1606 458 1544 346 C 1482 233 1393 143 1279 77 C 1165 10 1038 -23 899 -23 C 763 -23 638 9 525 73 C 411 137 322 226 257 340 C 192 454 160 579 160 717 C 160 854 192 979 257 1093 C 321 1206 410 1295 524 1359 C 637 1423 762 1456 899 1456 C 1036 1456 1161 1423 1275 1359 C 1388 1294 1477 1205 1541 1092 C 1605 978 1638 853 1638 717 Z M 1487 717 C 1487 831 1462 933 1412 1023 C 1362 1113 1291 1184 1201 1235 C 1110 1285 1009 1311 899 1311 C 787 1311 686 1285 596 1235 C 505 1184 435 1113 385 1023 C 335 932 311 830 311 717 C 311 602 336 499 386 409 C 436 318 506 248 596 198 C 686 148 787 123 899 123 C 1011 123 1112 148 1202 198 C 1292 248 1362 318 1412 409 C 1462 499 1487 602 1487 717 Z M 1278 334 L 1030 334 L 899 604 L 809 604 L 809 334 L 590 334 L 590 1137 L 950 1137 C 1159 1137 1264 1049 1264 874 C 1264 763 1215 685 1118 639 L 1278 334 Z M 1042 868 C 1042 925 1009 954 944 954 L 809 954 L 809 780 L 940 780 C 977 780 1003 787 1019 802 C 1034 817 1042 839 1042 868 Z" unicode="®" />
<glyph horiz-adv-x="1024" d="M 971 1249 L 303 1249 L 344 1485 L 1012 1485 L 971 1249 Z" unicode="¯" />
<glyph horiz-adv-x="1077" d="M 1057 1012 C 1057 928 1037 852 999 783 C 960 714 906 660 838 621 C 769 582 693 563 610 563 C 527 563 451 582 383 621 C 314 660 260 714 222 784 C 183 853 164 929 164 1012 C 164 1094 183 1169 222 1237 C 260 1305 314 1359 383 1398 C 452 1436 528 1456 610 1456 C 692 1456 767 1436 837 1398 C 906 1359 960 1305 999 1237 C 1037 1168 1057 1093 1057 1012 Z M 795 1012 C 795 1071 778 1118 744 1154 C 710 1190 666 1208 610 1208 C 554 1208 510 1189 476 1153 C 442 1117 426 1070 426 1012 C 426 952 442 903 476 866 C 510 829 554 811 610 811 C 666 811 711 829 745 865 C 778 901 795 950 795 1012 Z" unicode="°" />
<glyph horiz-adv-x="1536" d="M 672 352 L 672 764 L 200 764 L 200 936 L 672 936 L 672 1352 L 864 1352 L 864 936 L 1340 936 L 1340 764 L 864 764 L 864 352 L 672 352 Z M 204 24 L 204 216 L 1336 216 L 1336 24 L 204 24 Z" unicode="±" />
<glyph horiz-adv-x="896" d="M 56 628 L 56 768 L 400 1108 C 448 1153 485 1194 512 1230 C 538 1266 552 1306 552 1352 C 552 1386 536 1414 506 1436 C 475 1457 440 1468 400 1468 C 328 1468 252 1428 172 1348 L 64 1456 C 104 1498 156 1536 220 1570 C 284 1603 353 1620 428 1620 C 521 1620 598 1593 658 1540 C 718 1486 748 1421 748 1344 C 748 1272 718 1202 658 1134 C 598 1066 542 1013 492 976 L 268 788 L 776 788 L 776 628 L 56 628 Z" unicode="²" />
<glyph horiz-adv-x="896" d="M 48 732 L 152 864 C 230 805 320 776 424 776 C 490 776 540 790 572 818 C 604 846 620 882 620 928 C 620 978 597 1016 552 1040 C 506 1064 450 1076 384 1076 L 312 1076 L 312 1204 L 372 1204 C 438 1204 491 1216 530 1242 C 568 1267 588 1298 588 1336 C 588 1378 570 1409 536 1428 C 501 1446 460 1456 412 1456 C 358 1456 312 1447 272 1430 C 232 1412 200 1397 176 1384 L 88 1516 C 196 1585 316 1620 448 1620 C 546 1620 625 1598 684 1556 C 742 1513 772 1453 772 1376 C 772 1254 697 1178 548 1148 C 625 1140 688 1117 738 1080 C 787 1042 812 984 812 904 C 812 810 774 738 700 688 C 625 637 536 612 432 612 C 274 612 146 652 48 732 Z" unicode="³" />
<glyph horiz-adv-x="1024" d="M 1016 1546 L 635 1219 L 373 1219 L 580 1546 L 1016 1546 Z" unicode="´" />
<glyph horiz-adv-x="1408" d="M 252 -424 C 214 -424 186 -413 168 -392 C 149 -370 140 -333 140 -280 C 140 -176 145 -49 156 100 C 166 233 172 309 172 328 L 176 356 L 176 1176 L 368 1176 L 368 320 C 368 258 395 210 450 176 C 504 141 564 124 628 124 C 716 124 792 146 858 190 C 923 234 973 297 1008 380 L 1008 1176 L 1200 1176 L 1200 308 L 1220 0 L 1056 0 L 1020 176 C 974 104 913 50 836 14 C 758 -22 670 -40 572 -40 C 537 -40 494 -31 444 -14 C 393 3 353 28 324 60 C 324 1 333 -56 352 -112 C 370 -168 380 -218 380 -264 C 380 -370 337 -424 252 -424 Z" unicode="µ" />
<glyph horiz-adv-x="1475" d="M 1151 -379 L 866 -379 L 1143 1194 L 1022 1194 L 745 -379 L 461 -379 L 621 535 C 472 535 355 568 271 634 C 187 700 145 791 145 909 C 145 1015 170 1108 220 1188 C 270 1268 339 1329 429 1371 C 518 1413 619 1434 731 1434 L 1470 1434 L 1151 -379 Z" unicode="¶" />
<glyph horiz-adv-x="643" d="M 598 752 C 598 684 575 628 531 583 C 486 538 430 516 362 516 C 294 516 237 538 193 582 C 149 626 127 683 127 752 C 127 818 149 873 193 917 C 237 961 293 983 362 983 C 430 983 487 961 531 917 C 575 873 598 818 598 752 Z" unicode="·" />
<glyph horiz-adv-x="1024" d="M 627 -209 C 627 -267 606 -312 566 -345 C 526 -378 472 -395 406 -395 C 293 -395 184 -364 80 -303 L 133 -213 C 218 -255 290 -276 348 -276 C 409 -276 440 -256 440 -217 C 440 -188 425 -174 397 -174 C 381 -174 368 -176 356 -182 C 344 -187 331 -194 317 -203 L 250 -150 L 317 0 L 442 0 L 401 -86 C 426 -74 453 -68 483 -68 C 527 -68 562 -80 588 -105 C 614 -130 627 -165 627 -209 Z" unicode="¸" />
<glyph horiz-adv-x="768" d="M 324 628 L 324 1424 L 144 1384 L 144 1528 L 392 1636 L 508 1636 L 508 628 L 324 628 Z" unicode="¹" />
<glyph horiz-adv-x="1020" d="M 639 1456 C 753 1456 843 1423 911 1359 C 978 1295 1012 1206 1012 1092 C 1012 989 992 896 954 812 C 915 728 860 664 790 618 C 720 572 638 549 545 549 C 431 549 340 581 273 645 C 205 709 172 799 172 913 C 172 1015 191 1108 230 1192 C 268 1276 323 1341 393 1387 C 463 1433 545 1456 639 1456 Z M 563 791 C 593 791 620 804 643 831 C 665 857 683 893 696 938 C 708 983 715 1032 715 1085 C 715 1171 683 1214 621 1214 C 590 1214 563 1200 541 1174 C 518 1147 500 1111 488 1066 C 475 1021 469 972 469 920 C 469 834 500 791 563 791 Z" unicode="º" />
<glyph horiz-adv-x="1421" d="M 1360 539 L 1006 0 L 606 0 L 969 537 L 795 1075 L 1194 1075 L 1360 539 Z M 743 539 L 389 0 L -10 0 L 352 537 L 178 1075 L 578 1075 L 743 539 Z" unicode="»" />
<glyph horiz-adv-x="1920" d="M 368 0 L 1340 1524 L 1520 1524 L 548 0 L 368 0 Z M 292 628 L 292 1424 L 112 1384 L 112 1528 L 360 1636 L 476 1636 L 476 628 L 292 628 Z M 1540 0 L 1540 220 L 1060 220 L 1060 360 L 1512 980 L 1724 980 L 1724 376 L 1844 376 L 1844 220 L 1724 220 L 1724 0 L 1540 0 Z M 1260 368 L 1540 368 L 1540 768 L 1260 368 Z" unicode="¼" />
<glyph horiz-adv-x="1920" d="M 276 0 L 1248 1524 L 1428 1524 L 456 0 L 276 0 Z M 268 628 L 268 1424 L 88 1384 L 88 1528 L 336 1636 L 452 1636 L 452 628 L 268 628 Z M 1136 0 L 1136 140 L 1480 480 C 1528 525 1565 566 1592 602 C 1618 638 1632 678 1632 724 C 1632 758 1616 786 1586 808 C 1555 829 1520 840 1480 840 C 1408 840 1332 800 1252 720 L 1144 828 C 1184 870 1236 908 1300 942 C 1364 975 1433 992 1508 992 C 1601 992 1678 965 1738 912 C 1798 858 1828 793 1828 716 C 1828 644 1798 574 1738 506 C 1678 438 1622 385 1572 348 L 1348 160 L 1856 160 L 1856 0 L 1136 0 Z" unicode="½" />
<glyph horiz-adv-x="1920" d="M 440 0 L 1412 1524 L 1592 1524 L 620 0 L 440 0 Z M 48 732 L 152 864 C 230 805 320 776 424 776 C 490 776 540 790 572 818 C 604 846 620 882 620 928 C 620 978 597 1016 552 1040 C 506 1064 450 1076 384 1076 L 312 1076 L 312 1204 L 372 1204 C 438 1204 491 1216 530 1242 C 568 1267 588 1298 588 1336 C 588 1378 570 1409 536 1428 C 501 1446 460 1456 412 1456 C 358 1456 312 1447 272 1430 C 232 1412 200 1397 176 1384 L 88 1516 C 196 1585 316 1620 448 1620 C 546 1620 625 1598 684 1556 C 742 1513 772 1453 772 1376 C 772 1254 697 1178 548 1148 C 625 1140 688 1117 738 1080 C 787 1042 812 984 812 904 C 812 810 774 738 700 688 C 625 637 536 612 432 612 C 274 612 146 652 48 732 Z M 1564 0 L 1564 220 L 1084 220 L 1084 360 L 1536 980 L 1748 980 L 1748 376 L 1868 376 L 1868 220 L 1748 220 L 1748 0 L 1564 0 Z M 1284 368 L 1564 368 L 1564 768 L 1284 368 Z" unicode="¾" />
<glyph horiz-adv-x="1225" d="M 575 1243 C 575 1304 595 1355 636 1395 C 676 1435 727 1456 788 1456 C 848 1456 898 1435 939 1395 C 980 1355 1001 1304 1001 1243 C 1001 1183 981 1133 941 1093 C 901 1053 850 1034 788 1034 C 726 1034 675 1053 635 1093 C 595 1133 575 1183 575 1243 Z M 541 922 L 907 922 C 895 817 863 736 812 679 C 760 621 682 575 578 539 C 530 522 493 504 469 485 C 444 465 432 440 432 408 C 432 376 447 352 477 336 C 507 319 550 311 606 311 C 667 311 732 321 801 341 C 869 361 931 388 985 420 L 1116 117 C 1038 73 952 38 856 14 C 760 -10 665 -23 573 -23 C 405 -23 274 9 180 74 C 86 139 39 231 39 350 C 39 524 143 649 352 725 C 416 748 461 772 487 798 C 513 823 531 864 541 922 Z" unicode="¿" />
<glyph horiz-adv-x="1561" d="M 512 252 L 391 0 L -35 0 L 729 1434 L 1139 1434 L 1397 0 L 967 0 L 938 252 L 512 252 Z M 903 567 L 893 662 C 876 806 866 926 864 1020 C 850 974 832 928 811 880 C 789 832 740 728 664 567 L 903 567 Z M 1090 1526 L 828 1526 L 563 1853 L 1000 1853 L 1090 1526 Z" unicode="À" />
<glyph horiz-adv-x="1561" d="M 512 252 L 391 0 L -35 0 L 729 1434 L 1139 1434 L 1397 0 L 967 0 L 938 252 L 512 252 Z M 903 567 L 893 662 C 876 806 866 926 864 1020 C 850 974 832 928 811 880 C 789 832 740 728 664 567 L 903 567 Z M 1432 1853 L 1051 1526 L 789 1526 L 996 1853 L 1432 1853 Z" unicode="Á" />
<glyph horiz-adv-x="1561" d="M 512 252 L 391 0 L -35 0 L 729 1434 L 1139 1434 L 1397 0 L 967 0 L 938 252 L 512 252 Z M 903 567 L 893 662 C 876 806 866 926 864 1020 C 850 974 832 928 811 880 C 789 832 740 728 664 567 L 903 567 Z M 1356 1563 L 1116 1563 L 968 1694 L 776 1563 L 528 1563 L 854 1890 L 1145 1890 L 1356 1563 Z" unicode="Â" />
<glyph horiz-adv-x="1561" d="M 512 252 L 391 0 L -35 0 L 729 1434 L 1139 1434 L 1397 0 L 967 0 L 938 252 L 512 252 Z M 903 567 L 893 662 C 876 806 866 926 864 1020 C 850 974 832 928 811 880 C 789 832 740 728 664 567 L 903 567 Z M 1427 1841 C 1411 1743 1376 1665 1322 1607 C 1268 1548 1202 1519 1124 1519 C 1070 1519 1010 1535 946 1569 C 916 1583 889 1596 866 1610 C 842 1623 822 1630 805 1630 C 782 1630 765 1621 754 1604 C 742 1587 731 1561 721 1526 L 510 1526 C 527 1622 564 1700 622 1759 C 679 1817 747 1847 825 1847 C 881 1847 939 1830 999 1798 C 1027 1782 1051 1768 1073 1756 C 1095 1743 1114 1737 1132 1737 C 1154 1737 1172 1745 1184 1763 C 1196 1781 1206 1807 1216 1841 L 1427 1841 Z" unicode="Ã" />
<glyph horiz-adv-x="1561" d="M 512 252 L 391 0 L -35 0 L 729 1434 L 1139 1434 L 1397 0 L 967 0 L 938 252 L 512 252 Z M 903 567 L 893 662 C 876 806 866 926 864 1020 C 850 974 832 928 811 880 C 789 832 740 728 664 567 L 903 567 Z M 1405 1712 C 1405 1665 1386 1624 1350 1589 C 1313 1553 1271 1536 1224 1536 C 1176 1536 1133 1553 1096 1588 C 1058 1623 1040 1664 1040 1712 C 1040 1761 1058 1803 1095 1839 C 1131 1874 1174 1892 1224 1892 C 1273 1892 1315 1874 1351 1838 C 1387 1802 1405 1760 1405 1712 Z M 917 1712 C 917 1665 898 1624 862 1589 C 825 1553 783 1536 735 1536 C 687 1536 644 1553 608 1589 C 571 1624 553 1665 553 1712 C 553 1760 570 1802 606 1838 C 642 1874 685 1892 735 1892 C 785 1892 827 1874 863 1838 C 899 1802 917 1760 917 1712 Z" unicode="Ä" />
<glyph horiz-adv-x="1561" d="M 1159 1319 L 1397 0 L 967 0 L 938 252 L 512 252 L 391 0 L -35 0 L 702 1368 C 673 1414 659 1464 659 1518 C 659 1598 687 1665 743 1720 C 799 1774 868 1802 950 1802 C 1032 1802 1101 1774 1157 1720 C 1213 1665 1241 1598 1241 1518 C 1241 1438 1213 1372 1159 1319 Z M 1063 1518 C 1063 1554 1053 1584 1033 1606 C 1013 1628 985 1640 950 1640 C 915 1640 888 1628 868 1606 C 848 1584 838 1554 838 1518 C 838 1480 848 1451 868 1429 C 888 1407 915 1397 950 1397 C 985 1397 1013 1407 1033 1429 C 1053 1451 1063 1480 1063 1518 Z M 903 567 L 893 662 C 876 806 866 926 864 1020 C 850 974 832 928 811 880 C 789 832 740 728 664 567 L 903 567 Z" unicode="Å" />
<glyph horiz-adv-x="2185" d="M 504 156 L 385 0 L -63 0 L 1096 1434 L 2222 1434 L 2163 1100 L 1503 1100 L 1470 909 L 1849 909 L 1790 580 L 1411 580 L 1368 334 L 2042 334 L 1985 0 L 952 0 L 979 156 L 504 156 Z M 729 455 L 1032 455 L 1073 690 L 1133 1008 C 1104 962 1070 913 1032 859 C 994 805 893 670 729 455 Z" unicode="Æ" />
<glyph horiz-adv-x="1397" d="M 553 -10 C 408 17 297 81 219 182 C 141 283 102 415 102 578 C 102 740 133 889 197 1025 C 260 1161 347 1266 459 1342 C 571 1418 698 1456 840 1456 C 1003 1456 1130 1422 1221 1354 C 1312 1286 1373 1180 1403 1034 L 1024 893 C 1004 971 977 1026 944 1060 C 910 1093 866 1110 811 1110 C 755 1110 706 1088 663 1046 C 620 1003 586 941 560 859 C 534 777 522 690 522 598 C 522 415 589 324 725 324 C 761 324 794 331 823 345 C 852 359 878 377 902 401 C 926 425 956 466 993 526 L 1307 348 C 1219 207 1127 110 1031 57 C 935 3 824 -23 700 -23 L 672 -23 L 641 -86 C 666 -74 693 -68 723 -68 C 767 -68 801 -80 827 -105 C 853 -130 866 -165 866 -209 C 866 -267 845 -312 805 -345 C 765 -378 711 -395 645 -395 C 532 -395 423 -364 319 -303 L 373 -213 C 457 -255 528 -276 588 -276 C 649 -276 680 -256 680 -217 C 680 -188 665 -174 637 -174 C 621 -174 608 -176 596 -182 C 584 -187 571 -194 557 -203 L 489 -150 L 553 -10 Z" unicode="Ç" />
<glyph horiz-adv-x="1358" d="M 1155 0 L 51 0 L 303 1434 L 1393 1434 L 1333 1100 L 637 1100 L 604 909 L 1020 909 L 961 580 L 545 580 L 502 334 L 1212 334 L 1155 0 Z M 1016 1526 L 754 1526 L 489 1853 L 926 1853 L 1016 1526 Z" unicode="È" />
<glyph horiz-adv-x="1358" d="M 1155 0 L 51 0 L 303 1434 L 1393 1434 L 1333 1100 L 637 1100 L 604 909 L 1020 909 L 961 580 L 545 580 L 502 334 L 1212 334 L 1155 0 Z M 1321 1853 L 940 1526 L 678 1526 L 885 1853 L 1321 1853 Z" unicode="É" />
<glyph horiz-adv-x="1358" d="M 1155 0 L 51 0 L 303 1434 L 1393 1434 L 1333 1100 L 637 1100 L 604 909 L 1020 909 L 961 580 L 545 580 L 502 334 L 1212 334 L 1155 0 Z M 1276 1526 L 1036 1526 L 888 1657 L 696 1526 L 448 1526 L 774 1853 L 1065 1853 L 1276 1526 Z" unicode="Ê" />
<glyph horiz-adv-x="1358" d="M 1155 0 L 51 0 L 303 1434 L 1393 1434 L 1333 1100 L 637 1100 L 604 909 L 1020 909 L 961 580 L 545 580 L 502 334 L 1212 334 L 1155 0 Z M 1321 1712 C 1321 1665 1302 1624 1266 1589 C 1229 1553 1187 1536 1140 1536 C 1092 1536 1049 1553 1012 1588 C 974 1623 956 1664 956 1712 C 956 1761 974 1803 1011 1839 C 1047 1874 1090 1892 1140 1892 C 1189 1892 1231 1874 1267 1838 C 1303 1802 1321 1760 1321 1712 Z M 833 1712 C 833 1665 814 1624 778 1589 C 741 1553 699 1536 651 1536 C 603 1536 560 1553 524 1589 C 487 1624 469 1665 469 1712 C 469 1760 486 1802 522 1838 C 558 1874 601 1892 651 1892 C 701 1892 743 1874 779 1838 C 815 1802 833 1760 833 1712 Z" unicode="Ë" />
<glyph horiz-adv-x="717" d="M 467 0 L 61 0 L 315 1434 L 721 1434 L 467 0 Z M 628 1526 L 366 1526 L 101 1853 L 538 1853 L 628 1526 Z" unicode="Ì" />
<glyph horiz-adv-x="717" d="M 467 0 L 61 0 L 315 1434 L 721 1434 L 467 0 Z M 1020 1853 L 639 1526 L 377 1526 L 584 1853 L 1020 1853 Z" unicode="Í" />
<glyph horiz-adv-x="717" d="M 467 0 L 61 0 L 315 1434 L 721 1434 L 467 0 Z M 935 1495 L 695 1495 L 547 1626 L 355 1495 L 107 1495 L 433 1822 L 724 1822 L 935 1495 Z" unicode="Î" />
<glyph horiz-adv-x="717" d="M 467 0 L 61 0 L 315 1434 L 721 1434 L 467 0 Z M 982 1686 C 982 1639 963 1598 927 1563 C 890 1527 848 1510 801 1510 C 753 1510 710 1527 673 1562 C 635 1597 617 1638 617 1686 C 617 1735 635 1777 672 1813 C 708 1848 751 1866 801 1866 C 850 1866 892 1848 928 1812 C 964 1776 982 1734 982 1686 Z M 494 1686 C 494 1639 475 1598 439 1563 C 402 1527 360 1510 312 1510 C 264 1510 221 1527 185 1563 C 148 1598 130 1639 130 1686 C 130 1734 147 1776 183 1812 C 219 1848 262 1866 312 1866 C 362 1866 404 1848 440 1812 C 476 1776 494 1734 494 1686 Z" unicode="Ï" />
<glyph horiz-adv-x="1511" d="M 195 584 L 70 584 L 123 891 L 248 891 L 344 1434 L 752 1434 C 986 1434 1164 1388 1286 1296 C 1407 1204 1468 1062 1468 870 C 1468 589 1398 374 1258 224 C 1118 74 917 0 655 0 L 92 0 L 195 584 Z M 629 891 L 809 891 L 756 584 L 575 584 L 532 340 L 686 340 C 806 340 898 382 960 466 C 1022 550 1053 673 1053 834 C 1053 925 1027 991 976 1032 C 925 1073 843 1094 731 1094 L 664 1094 L 629 891 Z" unicode="Ð" />
<glyph horiz-adv-x="1540" d="M 1297 0 L 974 0 L 724 473 C 702 513 671 574 631 656 C 591 737 567 788 560 809 C 559 791 556 766 552 732 C 548 698 533 600 507 438 L 429 0 L 48 0 L 302 1434 L 652 1434 L 892 1010 C 918 960 949 900 985 828 C 1021 756 1044 704 1056 672 C 1058 715 1064 777 1074 857 C 1084 937 1093 998 1101 1042 L 1171 1434 L 1551 1434 L 1297 0 Z M 1425 1835 C 1409 1737 1374 1659 1320 1601 C 1266 1542 1200 1513 1122 1513 C 1068 1513 1008 1529 944 1563 C 914 1577 887 1590 864 1604 C 840 1617 820 1624 803 1624 C 780 1624 763 1615 752 1598 C 740 1581 729 1555 719 1520 L 508 1520 C 525 1616 562 1694 620 1753 C 677 1811 745 1841 823 1841 C 879 1841 937 1824 997 1792 C 1025 1776 1049 1762 1071 1750 C 1093 1737 1112 1731 1130 1731 C 1152 1731 1170 1739 1182 1757 C 1194 1775 1204 1801 1214 1835 L 1425 1835 Z" unicode="Ñ" />
<glyph horiz-adv-x="1491" d="M 844 1456 C 1040 1456 1190 1403 1294 1298 C 1398 1193 1450 1044 1450 850 C 1450 692 1417 546 1353 411 C 1289 275 1200 169 1086 92 C 972 15 845 -23 707 -23 C 511 -23 360 29 256 134 C 152 238 100 388 100 584 C 100 740 132 886 196 1021 C 260 1156 349 1262 463 1340 C 577 1417 704 1456 844 1456 Z M 819 1110 C 761 1110 708 1087 662 1042 C 616 997 580 936 554 859 C 528 781 516 698 516 610 C 516 419 587 324 731 324 C 789 324 841 346 887 391 C 933 436 969 497 995 575 C 1021 652 1034 735 1034 823 C 1034 1014 962 1110 819 1110 Z M 1045 1526 L 783 1526 L 518 1853 L 955 1853 L 1045 1526 Z" unicode="Ò" />
<glyph horiz-adv-x="1491" d="M 844 1456 C 1040 1456 1190 1403 1294 1298 C 1398 1193 1450 1044 1450 850 C 1450 692 1417 546 1353 411 C 1289 275 1200 169 1086 92 C 972 15 845 -23 707 -23 C 511 -23 360 29 256 134 C 152 238 100 388 100 584 C 100 740 132 886 196 1021 C 260 1156 349 1262 463 1340 C 577 1417 704 1456 844 1456 Z M 819 1110 C 761 1110 708 1087 662 1042 C 616 997 580 936 554 859 C 528 781 516 698 516 610 C 516 419 587 324 731 324 C 789 324 841 346 887 391 C 933 436 969 497 995 575 C 1021 652 1034 735 1034 823 C 1034 1014 962 1110 819 1110 Z M 1397 1853 L 1016 1526 L 754 1526 L 961 1853 L 1397 1853 Z" unicode="Ó" />
<glyph horiz-adv-x="1491" d="M 844 1456 C 1040 1456 1190 1403 1294 1298 C 1398 1193 1450 1044 1450 850 C 1450 692 1417 546 1353 411 C 1289 275 1200 169 1086 92 C 972 15 845 -23 707 -23 C 511 -23 360 29 256 134 C 152 238 100 388 100 584 C 100 740 132 886 196 1021 C 260 1156 349 1262 463 1340 C 577 1417 704 1456 844 1456 Z M 819 1110 C 761 1110 708 1087 662 1042 C 616 997 580 936 554 859 C 528 781 516 698 516 610 C 516 419 587 324 731 324 C 789 324 841 346 887 391 C 933 436 969 497 995 575 C 1021 652 1034 735 1034 823 C 1034 1014 962 1110 819 1110 Z M 1326 1516 L 1086 1516 L 938 1647 L 746 1516 L 498 1516 L 824 1843 L 1115 1843 L 1326 1516 Z" unicode="Ô" />
<glyph horiz-adv-x="1491" d="M 844 1456 C 1040 1456 1190 1403 1294 1298 C 1398 1193 1450 1044 1450 850 C 1450 692 1417 546 1353 411 C 1289 275 1200 169 1086 92 C 972 15 845 -23 707 -23 C 511 -23 360 29 256 134 C 152 238 100 388 100 584 C 100 740 132 886 196 1021 C 260 1156 349 1262 463 1340 C 577 1417 704 1456 844 1456 Z M 819 1110 C 761 1110 708 1087 662 1042 C 616 997 580 936 554 859 C 528 781 516 698 516 610 C 516 419 587 324 731 324 C 789 324 841 346 887 391 C 933 436 969 497 995 575 C 1021 652 1034 735 1034 823 C 1034 1014 962 1110 819 1110 Z M 1386 1841 C 1370 1743 1335 1665 1281 1607 C 1227 1548 1161 1519 1083 1519 C 1029 1519 969 1535 905 1569 C 875 1583 848 1596 825 1610 C 801 1623 781 1630 764 1630 C 741 1630 724 1621 713 1604 C 701 1587 690 1561 680 1526 L 469 1526 C 486 1622 523 1700 581 1759 C 638 1817 706 1847 784 1847 C 840 1847 898 1830 958 1798 C 986 1782 1010 1768 1032 1756 C 1054 1743 1073 1737 1091 1737 C 1113 1737 1131 1745 1143 1763 C 1155 1781 1165 1807 1175 1841 L 1386 1841 Z" unicode="Õ" />
<glyph horiz-adv-x="1491" d="M 844 1456 C 1040 1456 1190 1403 1294 1298 C 1398 1193 1450 1044 1450 850 C 1450 692 1417 546 1353 411 C 1289 275 1200 169 1086 92 C 972 15 845 -23 707 -23 C 511 -23 360 29 256 134 C 152 238 100 388 100 584 C 100 740 132 886 196 1021 C 260 1156 349 1262 463 1340 C 577 1417 704 1456 844 1456 Z M 819 1110 C 761 1110 708 1087 662 1042 C 616 997 580 936 554 859 C 528 781 516 698 516 610 C 516 419 587 324 731 324 C 789 324 841 346 887 391 C 933 436 969 497 995 575 C 1021 652 1034 735 1034 823 C 1034 1014 962 1110 819 1110 Z M 1373 1712 C 1373 1665 1354 1624 1318 1589 C 1281 1553 1239 1536 1192 1536 C 1144 1536 1101 1553 1064 1588 C 1026 1623 1008 1664 1008 1712 C 1008 1761 1026 1803 1063 1839 C 1099 1874 1142 1892 1192 1892 C 1241 1892 1283 1874 1319 1838 C 1355 1802 1373 1760 1373 1712 Z M 885 1712 C 885 1665 866 1624 830 1589 C 793 1553 751 1536 703 1536 C 655 1536 612 1553 576 1589 C 539 1624 521 1665 521 1712 C 521 1760 538 1802 574 1838 C 610 1874 653 1892 703 1892 C 753 1892 795 1874 831 1838 C 867 1802 885 1760 885 1712 Z" unicode="Ö" />
<glyph horiz-adv-x="1536" d="M 472 376 L 352 492 L 648 792 L 352 1088 L 480 1212 L 768 912 L 1068 1204 L 1184 1088 L 892 792 L 1184 492 L 1068 376 L 768 668 L 472 376 Z" unicode="×" />
<glyph horiz-adv-x="1491" d="M 1100 1417 L 1192 1536 L 1618 1536 L 1366 1206 C 1422 1111 1450 992 1450 850 C 1450 692 1417 546 1353 411 C 1289 275 1200 169 1086 92 C 972 15 845 -23 707 -23 C 613 -23 528 -10 453 14 L 362 -102 L -63 -102 L 186 225 C 128 317 100 437 100 584 C 100 740 132 886 196 1021 C 260 1156 349 1262 463 1340 C 577 1417 704 1456 844 1456 C 942 1456 1027 1443 1100 1417 Z M 819 1110 C 761 1110 708 1087 662 1042 C 616 997 580 936 554 859 C 528 781 516 698 516 610 C 516 419 587 324 731 324 C 789 324 841 346 887 391 C 933 436 969 497 995 575 C 1021 652 1034 735 1034 823 C 1034 1014 962 1110 819 1110 Z" unicode="Ø" />
<glyph horiz-adv-x="1524" d="M 721 -23 C 631 -23 548 -11 470 12 C 392 36 327 73 273 124 C 219 175 183 231 165 293 C 147 355 138 412 138 466 C 138 511 142 560 152 612 L 295 1434 L 700 1434 L 557 612 C 551 580 549 552 549 526 C 549 394 613 328 743 328 C 813 328 869 350 909 396 C 949 442 978 514 995 612 L 1139 1434 L 1544 1434 L 1401 612 C 1362 392 1288 232 1180 130 C 1071 28 918 -23 721 -23 Z M 1077 1495 L 815 1495 L 550 1822 L 987 1822 L 1077 1495 Z" unicode="Ù" />
<glyph horiz-adv-x="1524" d="M 721 -23 C 631 -23 548 -11 470 12 C 392 36 327 73 273 124 C 219 175 183 231 165 293 C 147 355 138 412 138 466 C 138 511 142 560 152 612 L 295 1434 L 700 1434 L 557 612 C 551 580 549 552 549 526 C 549 394 613 328 743 328 C 813 328 869 350 909 396 C 949 442 978 514 995 612 L 1139 1434 L 1544 1434 L 1401 612 C 1362 392 1288 232 1180 130 C 1071 28 918 -23 721 -23 Z M 1419 1822 L 1038 1495 L 776 1495 L 983 1822 L 1419 1822 Z" unicode="Ú" />
<glyph horiz-adv-x="1524" d="M 721 -23 C 631 -23 548 -11 470 12 C 392 36 327 73 273 124 C 219 175 183 231 165 293 C 147 355 138 412 138 466 C 138 511 142 560 152 612 L 295 1434 L 700 1434 L 557 612 C 551 580 549 552 549 526 C 549 394 613 328 743 328 C 813 328 869 350 909 396 C 949 442 978 514 995 612 L 1139 1434 L 1544 1434 L 1401 612 C 1362 392 1288 232 1180 130 C 1071 28 918 -23 721 -23 Z M 1342 1526 L 1102 1526 L 954 1657 L 762 1526 L 514 1526 L 840 1853 L 1131 1853 L 1342 1526 Z" unicode="Û" />
<glyph horiz-adv-x="1524" d="M 721 -23 C 631 -23 548 -11 470 12 C 392 36 327 73 273 124 C 219 175 183 231 165 293 C 147 355 138 412 138 466 C 138 511 142 560 152 612 L 295 1434 L 700 1434 L 557 612 C 551 580 549 552 549 526 C 549 394 613 328 743 328 C 813 328 869 350 909 396 C 949 442 978 514 995 612 L 1139 1434 L 1544 1434 L 1401 612 C 1362 392 1288 232 1180 130 C 1071 28 918 -23 721 -23 Z M 1368 1712 C 1368 1665 1349 1624 1313 1589 C 1276 1553 1234 1536 1187 1536 C 1139 1536 1096 1553 1059 1588 C 1021 1623 1003 1664 1003 1712 C 1003 1761 1021 1803 1058 1839 C 1094 1874 1137 1892 1187 1892 C 1236 1892 1278 1874 1314 1838 C 1350 1802 1368 1760 1368 1712 Z M 880 1712 C 880 1665 861 1624 825 1589 C 788 1553 746 1536 698 1536 C 650 1536 607 1553 571 1589 C 534 1624 516 1665 516 1712 C 516 1760 533 1802 569 1838 C 605 1874 648 1892 698 1892 C 748 1892 790 1874 826 1838 C 862 1802 880 1760 880 1712 Z" unicode="Ü" />
<glyph horiz-adv-x="1520" d="M 1645 1434 L 952 518 L 862 0 L 457 0 L 549 528 L 190 1434 L 639 1434 L 711 1217 C 757 1071 790 941 809 827 C 865 942 942 1072 1040 1217 L 1190 1434 L 1645 1434 Z M 1430 1851 L 1049 1524 L 787 1524 L 994 1851 L 1430 1851 Z" unicode="Ý" />
<glyph horiz-adv-x="1382" d="M 1358 801 C 1358 693 1334 597 1286 515 C 1238 433 1169 368 1079 322 C 989 275 888 252 778 252 L 487 252 L 442 0 L 51 0 L 303 1434 L 694 1434 L 657 1221 L 813 1221 C 989 1221 1124 1185 1218 1115 C 1311 1044 1358 939 1358 801 Z M 956 758 C 956 807 941 842 912 864 C 882 886 834 897 768 897 L 602 897 L 545 575 L 745 575 C 813 575 866 591 902 624 C 938 656 956 701 956 758 Z" unicode="Þ" />
<glyph horiz-adv-x="1223" d="M 1147 489 C 1147 337 1099 217 1004 130 C 909 43 778 0 610 0 L 498 0 L 549 289 L 588 289 C 650 289 697 308 731 347 C 765 386 782 442 782 514 C 782 559 768 593 740 615 C 712 637 670 651 614 657 L 664 936 L 684 936 C 752 936 786 985 786 1083 C 786 1115 777 1140 759 1159 C 741 1178 716 1188 684 1188 C 650 1188 625 1174 607 1146 C 589 1118 575 1074 565 1016 L 344 -248 L -51 -395 L 197 1006 C 226 1171 283 1292 368 1370 C 452 1448 566 1487 709 1487 C 845 1487 952 1457 1030 1399 C 1108 1340 1147 1259 1147 1157 C 1147 1101 1137 1049 1118 1003 C 1098 957 1072 916 1039 882 C 1005 847 968 821 926 803 C 1002 773 1058 733 1094 682 C 1129 630 1147 566 1147 489 Z" unicode="ß" />
<glyph horiz-adv-x="1135" d="M 934 0 L 586 0 L 598 78 C 516 10 434 -23 352 -23 C 256 -23 179 4 122 59 C 65 113 37 189 37 285 C 37 409 74 509 148 585 C 222 660 320 698 444 698 C 494 698 542 693 588 683 C 634 673 672 662 700 649 C 709 695 714 724 714 736 C 714 766 701 790 677 808 C 652 825 609 834 549 834 C 457 834 366 818 276 786 L 223 1030 C 332 1075 462 1098 612 1098 C 913 1098 1064 990 1064 774 C 1064 741 1060 705 1053 666 L 934 0 Z M 662 434 C 615 457 564 469 508 469 C 470 469 439 456 415 431 C 391 405 379 372 379 330 C 379 300 388 278 406 262 C 424 246 448 238 479 238 C 533 238 586 254 637 287 L 662 434 Z M 849 1219 L 587 1219 L 322 1546 L 759 1546 L 849 1219 Z" unicode="à" />
<glyph horiz-adv-x="1135" d="M 934 0 L 586 0 L 598 78 C 516 10 434 -23 352 -23 C 256 -23 179 4 122 59 C 65 113 37 189 37 285 C 37 409 74 509 148 585 C 222 660 320 698 444 698 C 494 698 542 693 588 683 C 634 673 672 662 700 649 C 709 695 714 724 714 736 C 714 766 701 790 677 808 C 652 825 609 834 549 834 C 457 834 366 818 276 786 L 223 1030 C 332 1075 462 1098 612 1098 C 913 1098 1064 990 1064 774 C 1064 741 1060 705 1053 666 L 934 0 Z M 662 434 C 615 457 564 469 508 469 C 470 469 439 456 415 431 C 391 405 379 372 379 330 C 379 300 388 278 406 262 C 424 246 448 238 479 238 C 533 238 586 254 637 287 L 662 434 Z M 1151 1546 L 770 1219 L 508 1219 L 715 1546 L 1151 1546 Z" unicode="á" />
<glyph horiz-adv-x="1135" d="M 934 0 L 586 0 L 598 78 C 516 10 434 -23 352 -23 C 256 -23 179 4 122 59 C 65 113 37 189 37 285 C 37 409 74 509 148 585 C 222 660 320 698 444 698 C 494 698 542 693 588 683 C 634 673 672 662 700 649 C 709 695 714 724 714 736 C 714 766 701 790 677 808 C 652 825 609 834 549 834 C 457 834 366 818 276 786 L 223 1030 C 332 1075 462 1098 612 1098 C 913 1098 1064 990 1064 774 C 1064 741 1060 705 1053 666 L 934 0 Z M 662 434 C 615 457 564 469 508 469 C 470 469 439 456 415 431 C 391 405 379 372 379 330 C 379 300 388 278 406 262 C 424 246 448 238 479 238 C 533 238 586 254 637 287 L 662 434 Z M 1098 1210 L 858 1210 L 710 1341 L 518 1210 L 270 1210 L 596 1537 L 887 1537 L 1098 1210 Z" unicode="â" />
<glyph horiz-adv-x="1135" d="M 934 0 L 586 0 L 598 78 C 516 10 434 -23 352 -23 C 256 -23 179 4 122 59 C 65 113 37 189 37 285 C 37 409 74 509 148 585 C 222 660 320 698 444 698 C 494 698 542 693 588 683 C 634 673 672 662 700 649 C 709 695 714 724 714 736 C 714 766 701 790 677 808 C 652 825 609 834 549 834 C 457 834 366 818 276 786 L 223 1030 C 332 1075 462 1098 612 1098 C 913 1098 1064 990 1064 774 C 1064 741 1060 705 1053 666 L 934 0 Z M 662 434 C 615 457 564 469 508 469 C 470 469 439 456 415 431 C 391 405 379 372 379 330 C 379 300 388 278 406 262 C 424 246 448 238 479 238 C 533 238 586 254 637 287 L 662 434 Z M 1177 1534 C 1161 1436 1126 1358 1072 1300 C 1018 1241 952 1212 874 1212 C 820 1212 760 1228 696 1262 C 666 1276 639 1289 616 1303 C 592 1316 572 1323 555 1323 C 532 1323 515 1314 504 1297 C 492 1280 481 1254 471 1219 L 260 1219 C 277 1315 314 1393 372 1452 C 429 1510 497 1540 575 1540 C 631 1540 689 1523 749 1491 C 777 1475 801 1461 823 1449 C 845 1436 864 1430 882 1430 C 904 1430 922 1438 934 1456 C 946 1474 956 1500 966 1534 L 1177 1534 Z" unicode="ã" />
<glyph horiz-adv-x="1135" d="M 934 0 L 586 0 L 598 78 C 516 10 434 -23 352 -23 C 256 -23 179 4 122 59 C 65 113 37 189 37 285 C 37 409 74 509 148 585 C 222 660 320 698 444 698 C 494 698 542 693 588 683 C 634 673 672 662 700 649 C 709 695 714 724 714 736 C 714 766 701 790 677 808 C 652 825 609 834 549 834 C 457 834 366 818 276 786 L 223 1030 C 332 1075 462 1098 612 1098 C 913 1098 1064 990 1064 774 C 1064 741 1060 705 1053 666 L 934 0 Z M 662 434 C 615 457 564 469 508 469 C 470 469 439 456 415 431 C 391 405 379 372 379 330 C 379 300 388 278 406 262 C 424 246 448 238 479 238 C 533 238 586 254 637 287 L 662 434 Z M 1141 1396 C 1141 1349 1122 1308 1086 1273 C 1049 1237 1007 1220 960 1220 C 912 1220 869 1237 832 1272 C 794 1307 776 1348 776 1396 C 776 1445 794 1487 831 1523 C 867 1558 910 1576 960 1576 C 1009 1576 1051 1558 1087 1522 C 1123 1486 1141 1444 1141 1396 Z M 653 1396 C 653 1349 634 1308 598 1273 C 561 1237 519 1220 471 1220 C 423 1220 380 1237 344 1273 C 307 1308 289 1349 289 1396 C 289 1444 306 1486 342 1522 C 378 1558 421 1576 471 1576 C 521 1576 563 1558 599 1522 C 635 1486 653 1444 653 1396 Z" unicode="ä" />
<glyph horiz-adv-x="1135" d="M 934 0 L 586 0 L 598 78 C 516 10 434 -23 352 -23 C 256 -23 179 4 122 59 C 65 113 37 189 37 285 C 37 409 74 509 148 585 C 222 660 320 698 444 698 C 494 698 542 693 588 683 C 634 673 672 662 700 649 C 709 695 714 724 714 736 C 714 766 701 790 677 808 C 652 825 609 834 549 834 C 457 834 366 818 276 786 L 223 1030 C 332 1075 462 1098 612 1098 C 913 1098 1064 990 1064 774 C 1064 741 1060 705 1053 666 L 934 0 Z M 662 434 C 615 457 564 469 508 469 C 470 469 439 456 415 431 C 391 405 379 372 379 330 C 379 300 388 278 406 262 C 424 246 448 238 479 238 C 533 238 586 254 637 287 L 662 434 Z M 1024 1501 C 1024 1421 995 1354 939 1300 C 882 1246 813 1219 733 1219 C 651 1219 582 1245 526 1299 C 470 1353 442 1420 442 1501 C 442 1582 470 1650 527 1704 C 584 1758 653 1786 733 1786 C 813 1786 881 1758 938 1703 C 995 1648 1024 1581 1024 1501 Z M 845 1501 C 845 1538 835 1568 815 1590 C 795 1612 767 1624 733 1624 C 697 1624 670 1612 650 1590 C 630 1568 620 1538 620 1501 C 620 1463 630 1434 650 1412 C 670 1390 697 1380 733 1380 C 767 1380 795 1390 815 1412 C 835 1434 845 1463 845 1501 Z" unicode="å" />
<glyph horiz-adv-x="1726" d="M 809 129 C 738 79 666 41 593 15 C 519 -10 436 -23 344 -23 C 246 -23 169 3 113 56 C 57 109 29 184 29 281 C 29 411 66 513 140 587 C 214 661 313 698 436 698 C 486 698 534 693 580 683 C 626 673 664 662 692 649 C 701 697 706 726 706 736 C 706 766 693 790 669 808 C 644 825 601 834 541 834 C 449 834 358 818 268 786 L 215 1030 C 324 1075 454 1098 604 1098 C 776 1098 891 1059 948 981 C 1024 1059 1118 1098 1229 1098 C 1367 1098 1473 1061 1546 987 C 1618 913 1655 805 1655 664 C 1655 620 1651 577 1645 534 C 1639 490 1632 456 1624 432 L 1004 432 L 1003 415 C 1003 366 1018 328 1050 301 C 1081 273 1124 260 1178 260 C 1227 260 1271 265 1310 275 C 1348 285 1391 301 1438 324 L 1538 80 C 1404 11 1270 -23 1135 -23 C 977 -23 869 27 809 129 Z M 1341 662 L 1341 673 C 1341 727 1330 766 1308 790 C 1286 813 1250 825 1202 825 C 1160 825 1126 811 1101 783 C 1075 755 1055 715 1040 662 L 1341 662 Z M 653 434 C 606 457 555 469 500 469 C 460 469 428 455 405 429 C 382 403 371 369 371 328 C 371 268 404 238 471 238 C 525 238 578 254 629 287 L 653 434 Z" unicode="æ" />
<glyph horiz-adv-x="1057" d="M 375 -8 C 273 15 195 65 141 141 C 86 217 59 314 59 432 C 59 557 82 671 129 773 C 175 875 241 955 326 1012 C 411 1069 509 1098 621 1098 C 729 1098 817 1076 885 1032 C 953 988 1006 919 1044 825 L 756 651 C 738 705 719 744 697 766 C 675 788 647 799 612 799 C 558 799 514 764 480 696 C 445 627 428 544 428 446 C 428 332 468 276 549 276 C 585 276 618 288 649 312 C 679 336 711 368 743 408 L 952 205 C 833 53 686 -23 512 -23 L 494 -23 L 463 -86 C 488 -74 515 -68 545 -68 C 589 -68 623 -80 649 -105 C 675 -130 688 -165 688 -209 C 688 -267 667 -312 627 -345 C 587 -378 533 -395 467 -395 C 354 -395 245 -364 141 -303 L 195 -213 C 279 -255 350 -276 410 -276 C 471 -276 502 -256 502 -217 C 502 -188 487 -174 459 -174 C 443 -174 430 -176 418 -182 C 406 -187 393 -194 379 -203 L 311 -150 L 375 -8 Z" unicode="ç" />
<glyph horiz-adv-x="1114" d="M 1044 666 C 1044 577 1033 499 1012 432 L 391 432 L 390 415 C 390 366 405 328 437 301 C 468 273 511 260 565 260 C 617 260 663 265 703 276 C 743 287 784 303 825 324 L 926 80 C 792 11 658 -23 522 -23 C 376 -23 262 18 181 102 C 99 185 59 299 59 444 C 59 566 82 678 130 778 C 177 878 243 957 328 1013 C 413 1069 509 1098 616 1098 C 755 1098 861 1060 934 985 C 1007 909 1044 803 1044 666 Z M 729 662 L 729 672 C 729 721 719 759 700 785 C 680 811 644 825 590 825 C 548 825 514 811 489 783 C 463 755 443 715 428 662 L 729 662 Z M 829 1219 L 567 1219 L 302 1546 L 739 1546 L 829 1219 Z" unicode="è" />
<glyph horiz-adv-x="1114" d="M 1044 666 C 1044 577 1033 499 1012 432 L 391 432 L 390 415 C 390 366 405 328 437 301 C 468 273 511 260 565 260 C 617 260 663 265 703 276 C 743 287 784 303 825 324 L 926 80 C 792 11 658 -23 522 -23 C 376 -23 262 18 181 102 C 99 185 59 299 59 444 C 59 566 82 678 130 778 C 177 878 243 957 328 1013 C 413 1069 509 1098 616 1098 C 755 1098 861 1060 934 985 C 1007 909 1044 803 1044 666 Z M 729 662 L 729 672 C 729 721 719 759 700 785 C 680 811 644 825 590 825 C 548 825 514 811 489 783 C 463 755 443 715 428 662 L 729 662 Z M 1172 1546 L 791 1219 L 529 1219 L 736 1546 L 1172 1546 Z" unicode="é" />
<glyph horiz-adv-x="1114" d="M 1044 666 C 1044 577 1033 499 1012 432 L 391 432 L 390 415 C 390 366 405 328 437 301 C 468 273 511 260 565 260 C 617 260 663 265 703 276 C 743 287 784 303 825 324 L 926 80 C 792 11 658 -23 522 -23 C 376 -23 262 18 181 102 C 99 185 59 299 59 444 C 59 566 82 678 130 778 C 177 878 243 957 328 1013 C 413 1069 509 1098 616 1098 C 755 1098 861 1060 934 985 C 1007 909 1044 803 1044 666 Z M 729 662 L 729 672 C 729 721 719 759 700 785 C 680 811 644 825 590 825 C 548 825 514 811 489 783 C 463 755 443 715 428 662 L 729 662 Z M 1080 1200 L 840 1200 L 692 1331 L 500 1200 L 252 1200 L 578 1527 L 869 1527 L 1080 1200 Z" unicode="ê" />
<glyph horiz-adv-x="1114" d="M 1044 666 C 1044 577 1033 499 1012 432 L 391 432 L 390 415 C 390 366 405 328 437 301 C 468 273 511 260 565 260 C 617 260 663 265 703 276 C 743 287 784 303 825 324 L 926 80 C 792 11 658 -23 522 -23 C 376 -23 262 18 181 102 C 99 185 59 299 59 444 C 59 566 82 678 130 778 C 177 878 243 957 328 1013 C 413 1069 509 1098 616 1098 C 755 1098 861 1060 934 985 C 1007 909 1044 803 1044 666 Z M 729 662 L 729 672 C 729 721 719 759 700 785 C 680 811 644 825 590 825 C 548 825 514 811 489 783 C 463 755 443 715 428 662 L 729 662 Z M 1129 1396 C 1129 1349 1110 1308 1074 1273 C 1037 1237 995 1220 948 1220 C 900 1220 857 1237 820 1272 C 782 1307 764 1348 764 1396 C 764 1445 782 1487 819 1523 C 855 1558 898 1576 948 1576 C 997 1576 1039 1558 1075 1522 C 1111 1486 1129 1444 1129 1396 Z M 641 1396 C 641 1349 622 1308 586 1273 C 549 1237 507 1220 459 1220 C 411 1220 368 1237 332 1273 C 295 1308 277 1349 277 1396 C 277 1444 294 1486 330 1522 C 366 1558 409 1576 459 1576 C 509 1576 551 1558 587 1522 C 623 1486 641 1444 641 1396 Z" unicode="ë" />
<glyph horiz-adv-x="618" d="M 397 0 L 29 0 L 219 1075 L 588 1075 L 397 0 Z M 597 1219 L 335 1219 L 70 1546 L 507 1546 L 597 1219 Z" unicode="ì" />
<glyph horiz-adv-x="618" d="M 397 0 L 29 0 L 219 1075 L 588 1075 L 397 0 Z M 913 1546 L 532 1219 L 270 1219 L 477 1546 L 913 1546 Z" unicode="í" />
<glyph horiz-adv-x="618" d="M 397 0 L 29 0 L 219 1075 L 588 1075 L 397 0 Z M 825 1189 L 585 1189 L 437 1320 L 245 1189 L -3 1189 L 323 1516 L 614 1516 L 825 1189 Z" unicode="î" />
<glyph horiz-adv-x="618" d="M 397 0 L 29 0 L 219 1075 L 588 1075 L 397 0 Z M 872 1386 C 872 1339 853 1298 817 1263 C 780 1227 738 1210 691 1210 C 643 1210 600 1227 563 1262 C 525 1297 507 1338 507 1386 C 507 1435 525 1477 562 1513 C 598 1548 641 1566 691 1566 C 740 1566 782 1548 818 1512 C 854 1476 872 1434 872 1386 Z M 384 1386 C 384 1339 365 1298 329 1263 C 292 1227 250 1210 202 1210 C 154 1210 111 1227 75 1263 C 38 1298 20 1339 20 1386 C 20 1434 37 1476 73 1512 C 109 1548 152 1566 202 1566 C 252 1566 294 1548 330 1512 C 366 1476 384 1434 384 1386 Z" unicode="ï" />
<glyph horiz-adv-x="1157" d="M 821 1350 L 942 1456 L 1067 1335 L 956 1239 C 1058 1123 1110 966 1110 768 C 1110 606 1086 466 1039 346 C 991 226 923 135 834 72 C 745 8 641 -23 522 -23 C 432 -23 352 -5 280 30 C 208 66 151 117 111 184 C 71 250 51 328 51 416 C 51 514 73 603 117 684 C 161 765 222 829 299 875 C 375 921 458 944 547 944 C 682 944 776 914 829 856 C 819 930 789 994 741 1049 L 657 977 L 532 1098 L 596 1153 C 543 1178 484 1196 420 1208 L 465 1456 C 605 1443 724 1408 821 1350 Z M 713 526 C 713 567 702 599 681 621 C 660 643 629 655 588 655 C 537 655 496 633 465 590 C 433 547 418 490 418 418 C 418 372 429 338 451 315 C 473 292 503 281 543 281 C 595 281 636 304 667 350 C 697 396 713 455 713 526 Z" unicode="ð" />
<glyph horiz-adv-x="1200" d="M 997 0 L 627 0 L 735 610 C 739 632 741 654 741 676 C 741 714 731 741 713 759 C 694 777 669 786 639 786 C 597 786 565 773 544 747 C 523 721 507 677 496 614 L 387 0 L 18 0 L 209 1075 L 578 1075 L 565 1004 C 643 1066 727 1098 815 1098 C 1021 1098 1124 993 1124 784 C 1124 744 1118 690 1108 623 L 997 0 Z M 1210 1534 C 1194 1436 1159 1358 1105 1300 C 1051 1241 985 1212 907 1212 C 853 1212 793 1228 729 1262 C 699 1276 672 1289 649 1303 C 625 1316 605 1323 588 1323 C 565 1323 548 1314 537 1297 C 525 1280 514 1254 504 1219 L 293 1219 C 310 1315 347 1393 405 1452 C 462 1510 530 1540 608 1540 C 664 1540 722 1523 782 1491 C 810 1475 834 1461 856 1449 C 878 1436 897 1430 915 1430 C 937 1430 955 1438 967 1456 C 979 1474 989 1500 999 1534 L 1210 1534 Z" unicode="ñ" />
<glyph horiz-adv-x="1157" d="M 522 -23 C 381 -23 269 18 185 100 C 101 182 59 292 59 430 C 59 556 83 671 131 773 C 179 875 248 955 336 1012 C 424 1069 523 1098 633 1098 C 775 1098 887 1056 971 973 C 1054 890 1096 781 1096 645 C 1096 520 1072 407 1024 305 C 976 203 909 122 822 64 C 734 6 634 -23 522 -23 Z M 537 276 C 594 276 640 309 676 376 C 711 442 729 527 729 631 C 729 743 692 799 618 799 C 560 799 514 765 479 699 C 443 632 426 547 426 444 C 426 332 463 276 537 276 Z M 843 1219 L 581 1219 L 316 1546 L 753 1546 L 843 1219 Z" unicode="ò" />
<glyph horiz-adv-x="1157" d="M 522 -23 C 381 -23 269 18 185 100 C 101 182 59 292 59 430 C 59 556 83 671 131 773 C 179 875 248 955 336 1012 C 424 1069 523 1098 633 1098 C 775 1098 887 1056 971 973 C 1054 890 1096 781 1096 645 C 1096 520 1072 407 1024 305 C 976 203 909 122 822 64 C 734 6 634 -23 522 -23 Z M 537 276 C 594 276 640 309 676 376 C 711 442 729 527 729 631 C 729 743 692 799 618 799 C 560 799 514 765 479 699 C 443 632 426 547 426 444 C 426 332 463 276 537 276 Z M 1172 1546 L 791 1219 L 529 1219 L 736 1546 L 1172 1546 Z" unicode="ó" />
<glyph horiz-adv-x="1157" d="M 522 -23 C 381 -23 269 18 185 100 C 101 182 59 292 59 430 C 59 556 83 671 131 773 C 179 875 248 955 336 1012 C 424 1069 523 1098 633 1098 C 775 1098 887 1056 971 973 C 1054 890 1096 781 1096 645 C 1096 520 1072 407 1024 305 C 976 203 909 122 822 64 C 734 6 634 -23 522 -23 Z M 537 276 C 594 276 640 309 676 376 C 711 442 729 527 729 631 C 729 743 692 799 618 799 C 560 799 514 765 479 699 C 443 632 426 547 426 444 C 426 332 463 276 537 276 Z M 1096 1200 L 856 1200 L 708 1331 L 516 1200 L 268 1200 L 594 1527 L 885 1527 L 1096 1200 Z" unicode="ô" />
<glyph horiz-adv-x="1157" d="M 522 -23 C 381 -23 269 18 185 100 C 101 182 59 292 59 430 C 59 556 83 671 131 773 C 179 875 248 955 336 1012 C 424 1069 523 1098 633 1098 C 775 1098 887 1056 971 973 C 1054 890 1096 781 1096 645 C 1096 520 1072 407 1024 305 C 976 203 909 122 822 64 C 734 6 634 -23 522 -23 Z M 537 276 C 594 276 640 309 676 376 C 711 442 729 527 729 631 C 729 743 692 799 618 799 C 560 799 514 765 479 699 C 443 632 426 547 426 444 C 426 332 463 276 537 276 Z M 1179 1534 C 1163 1436 1128 1358 1074 1300 C 1020 1241 954 1212 876 1212 C 822 1212 762 1228 698 1262 C 668 1276 641 1289 618 1303 C 594 1316 574 1323 557 1323 C 534 1323 517 1314 506 1297 C 494 1280 483 1254 473 1219 L 262 1219 C 279 1315 316 1393 374 1452 C 431 1510 499 1540 577 1540 C 633 1540 691 1523 751 1491 C 779 1475 803 1461 825 1449 C 847 1436 866 1430 884 1430 C 906 1430 924 1438 936 1456 C 948 1474 958 1500 968 1534 L 1179 1534 Z" unicode="õ" />
<glyph horiz-adv-x="1157" d="M 522 -23 C 381 -23 269 18 185 100 C 101 182 59 292 59 430 C 59 556 83 671 131 773 C 179 875 248 955 336 1012 C 424 1069 523 1098 633 1098 C 775 1098 887 1056 971 973 C 1054 890 1096 781 1096 645 C 1096 520 1072 407 1024 305 C 976 203 909 122 822 64 C 734 6 634 -23 522 -23 Z M 537 276 C 594 276 640 309 676 376 C 711 442 729 527 729 631 C 729 743 692 799 618 799 C 560 799 514 765 479 699 C 443 632 426 547 426 444 C 426 332 463 276 537 276 Z M 1143 1386 C 1143 1339 1124 1298 1088 1263 C 1051 1227 1009 1210 962 1210 C 914 1210 871 1227 834 1262 C 796 1297 778 1338 778 1386 C 778 1435 796 1477 833 1513 C 869 1548 912 1566 962 1566 C 1011 1566 1053 1548 1089 1512 C 1125 1476 1143 1434 1143 1386 Z M 655 1386 C 655 1339 636 1298 600 1263 C 563 1227 521 1210 473 1210 C 425 1210 382 1227 346 1263 C 309 1298 291 1339 291 1386 C 291 1434 308 1476 344 1512 C 380 1548 423 1566 473 1566 C 523 1566 565 1548 601 1512 C 637 1476 655 1434 655 1386 Z" unicode="ö" />
<glyph horiz-adv-x="1536" d="M 208 684 L 208 896 L 1328 896 L 1328 684 L 208 684 Z M 768 228 C 725 228 688 244 656 276 C 624 308 608 345 608 388 C 608 430 622 468 650 500 C 678 532 717 548 768 548 C 816 548 854 532 884 500 C 913 468 928 430 928 388 C 928 345 912 308 880 276 C 848 244 810 228 768 228 Z M 768 1028 C 725 1028 688 1044 656 1076 C 624 1108 608 1145 608 1188 C 608 1230 622 1268 650 1300 C 678 1332 717 1348 768 1348 C 816 1348 854 1332 884 1300 C 913 1268 928 1230 928 1188 C 928 1145 912 1108 880 1076 C 848 1044 810 1028 768 1028 Z" unicode="÷" />
<glyph horiz-adv-x="1157" d="M 821 1067 L 907 1178 L 1241 1178 L 1030 901 C 1074 825 1096 740 1096 645 C 1096 520 1072 407 1024 305 C 976 203 909 122 822 64 C 734 6 634 -23 522 -23 C 456 -23 395 -13 340 6 L 256 -102 L -78 -102 L 129 168 C 82 242 59 329 59 430 C 59 556 83 671 131 773 C 179 875 248 955 336 1012 C 424 1069 523 1098 633 1098 C 701 1098 764 1087 821 1067 Z M 537 276 C 594 276 640 309 676 376 C 711 442 729 527 729 631 C 729 743 692 799 618 799 C 560 799 514 765 479 699 C 443 632 426 547 426 444 C 426 332 463 276 537 276 Z" unicode="ø" />
<glyph horiz-adv-x="1200" d="M 203 1075 L 573 1075 L 465 465 C 461 441 459 419 459 399 C 459 361 468 333 487 315 C 505 297 530 289 561 289 C 604 289 636 302 657 330 C 678 357 694 401 705 461 L 813 1075 L 1182 1075 L 991 0 L 623 0 L 635 72 C 595 40 554 17 510 1 C 466 -15 424 -23 385 -23 C 179 -23 76 81 76 291 C 76 329 81 383 92 453 L 203 1075 Z M 878 1219 L 616 1219 L 351 1546 L 788 1546 L 878 1219 Z" unicode="ù" />
<glyph horiz-adv-x="1200" d="M 203 1075 L 573 1075 L 465 465 C 461 441 459 419 459 399 C 459 361 468 333 487 315 C 505 297 530 289 561 289 C 604 289 636 302 657 330 C 678 357 694 401 705 461 L 813 1075 L 1182 1075 L 991 0 L 623 0 L 635 72 C 595 40 554 17 510 1 C 466 -15 424 -23 385 -23 C 179 -23 76 81 76 291 C 76 329 81 383 92 453 L 203 1075 Z M 1209 1546 L 828 1219 L 566 1219 L 773 1546 L 1209 1546 Z" unicode="ú" />
<glyph horiz-adv-x="1200" d="M 203 1075 L 573 1075 L 465 465 C 461 441 459 419 459 399 C 459 361 468 333 487 315 C 505 297 530 289 561 289 C 604 289 636 302 657 330 C 678 357 694 401 705 461 L 813 1075 L 1182 1075 L 991 0 L 623 0 L 635 72 C 595 40 554 17 510 1 C 466 -15 424 -23 385 -23 C 179 -23 76 81 76 291 C 76 329 81 383 92 453 L 203 1075 Z M 1129 1219 L 889 1219 L 741 1350 L 549 1219 L 301 1219 L 627 1546 L 918 1546 L 1129 1219 Z" unicode="û" />
<glyph horiz-adv-x="1200" d="M 203 1075 L 573 1075 L 465 465 C 461 441 459 419 459 399 C 459 361 468 333 487 315 C 505 297 530 289 561 289 C 604 289 636 302 657 330 C 678 357 694 401 705 461 L 813 1075 L 1182 1075 L 991 0 L 623 0 L 635 72 C 595 40 554 17 510 1 C 466 -15 424 -23 385 -23 C 179 -23 76 81 76 291 C 76 329 81 383 92 453 L 203 1075 Z M 1157 1405 C 1157 1358 1138 1317 1102 1282 C 1065 1246 1023 1229 976 1229 C 928 1229 885 1246 848 1281 C 810 1316 792 1357 792 1405 C 792 1454 810 1496 847 1532 C 883 1567 926 1585 976 1585 C 1025 1585 1067 1567 1103 1531 C 1139 1495 1157 1453 1157 1405 Z M 669 1405 C 669 1358 650 1317 614 1282 C 577 1246 535 1229 487 1229 C 439 1229 396 1246 360 1282 C 323 1317 305 1358 305 1405 C 305 1453 322 1495 358 1531 C 394 1567 437 1585 487 1585 C 537 1585 579 1567 615 1531 C 651 1495 669 1453 669 1405 Z" unicode="ü" />
<glyph horiz-adv-x="1200" d="M 1264 1075 L 492 -379 L 139 -379 L 334 -45 L 125 1075 L 516 1075 C 542 753 556 572 558 530 C 560 488 562 445 563 400 L 561 309 C 575 355 598 418 630 497 C 662 575 744 768 877 1075 L 1264 1075 Z M 1241 1527 L 860 1200 L 598 1200 L 805 1527 L 1241 1527 Z" unicode="ý" />
<glyph horiz-adv-x="1163" d="M 1108 727 C 1108 581 1089 452 1052 338 C 1014 224 961 135 892 72 C 823 8 745 -23 657 -23 C 611 -23 564 -13 517 4 C 469 22 431 45 401 72 L 346 -248 L -49 -395 L 256 1346 L 651 1493 L 565 999 C 644 1065 723 1098 803 1098 C 899 1098 974 1066 1028 1004 C 1081 942 1108 849 1108 727 Z M 737 666 C 737 710 730 742 718 763 C 705 784 682 795 649 795 C 627 795 604 789 579 778 C 553 766 534 755 520 743 L 446 336 C 463 320 481 307 501 297 C 521 286 545 281 575 281 C 621 281 660 317 691 390 C 721 462 737 554 737 666 Z" unicode="þ" />
<glyph horiz-adv-x="1200" d="M 1264 1075 L 492 -379 L 139 -379 L 334 -45 L 125 1075 L 516 1075 C 542 753 556 572 558 530 C 560 488 562 445 563 400 L 561 309 C 575 355 598 418 630 497 C 662 575 744 768 877 1075 L 1264 1075 Z M 1186 1386 C 1186 1339 1167 1298 1131 1263 C 1094 1227 1052 1210 1005 1210 C 957 1210 914 1227 877 1262 C 839 1297 821 1338 821 1386 C 821 1435 839 1477 876 1513 C 912 1548 955 1566 1005 1566 C 1054 1566 1096 1548 1132 1512 C 1168 1476 1186 1434 1186 1386 Z M 698 1386 C 698 1339 679 1298 643 1263 C 606 1227 564 1210 516 1210 C 468 1210 425 1227 389 1263 C 352 1298 334 1339 334 1386 C 334 1434 351 1476 387 1512 C 423 1548 466 1566 516 1566 C 566 1566 608 1548 644 1512 C 680 1476 698 1434 698 1386 Z" unicode="ÿ" />
<glyph horiz-adv-x="1393" d="M 1010 1319 C 1010 1373 1031 1419 1073 1456 C 1115 1492 1168 1511 1233 1511 C 1297 1511 1347 1496 1384 1466 C 1421 1436 1440 1397 1440 1348 C 1440 1292 1418 1246 1375 1210 C 1332 1173 1279 1155 1217 1155 C 1153 1155 1102 1170 1065 1200 C 1028 1230 1010 1269 1010 1319 Z M 834 1204 C 803 1219 767 1227 725 1227 C 707 1227 694 1224 685 1219 C 676 1213 669 1203 663 1189 C 657 1175 649 1137 639 1075 L 795 1075 L 743 786 L 594 786 L 457 0 L 94 0 L 231 786 L 117 786 L 168 1075 L 283 1075 L 305 1200 C 323 1306 357 1380 405 1423 C 453 1465 526 1487 623 1487 C 665 1487 710 1481 758 1471 C 806 1460 844 1446 874 1430 L 834 1204 Z M 1171 0 L 803 0 L 993 1075 L 1362 1075 L 1171 0 Z" unicode="ﬁ" />
<glyph horiz-adv-x="1393" d="M 1174 0 L 805 0 L 1042 1346 L 1438 1493 L 1174 0 Z M 834 1204 C 803 1219 767 1227 725 1227 C 707 1227 694 1224 685 1219 C 676 1213 669 1203 663 1189 C 657 1175 649 1137 639 1075 L 795 1075 L 743 786 L 594 786 L 457 0 L 94 0 L 231 786 L 117 786 L 168 1075 L 283 1075 L 305 1200 C 323 1306 357 1380 405 1423 C 453 1465 526 1487 623 1487 C 665 1487 710 1481 758 1471 C 806 1460 844 1446 874 1430 L 834 1204 Z" unicode="ﬂ" />
<glyph horiz-adv-x="1206" d="M 1104 750 C 1104 664 1083 586 1043 514 C 1002 442 945 385 873 343 C 800 301 720 281 633 281 C 547 281 467 301 395 343 C 322 385 265 442 225 514 C 184 586 164 665 164 750 C 164 835 184 914 225 987 C 265 1059 322 1117 396 1159 C 469 1201 548 1223 633 1223 C 719 1223 798 1201 871 1159 C 944 1117 1001 1059 1042 987 C 1083 915 1104 836 1104 750 Z" unicode="•" />
<glyph horiz-adv-x="1024" d="M 971 1249 L 303 1249 L 344 1485 L 1012 1485 L 971 1249 Z" unicode="̄" />
<glyph horiz-adv-x="1024" d="M 1085 1546 C 1048 1433 995 1350 926 1298 C 857 1245 770 1219 666 1219 C 550 1219 460 1247 396 1305 C 331 1363 297 1443 295 1546 L 510 1546 C 522 1462 580 1421 682 1421 C 766 1421 828 1462 870 1546 L 1085 1546 Z" unicode="˘" />
<glyph horiz-adv-x="1024" d="M 860 1405 C 860 1355 840 1311 801 1274 C 762 1237 718 1219 668 1219 C 618 1219 573 1237 534 1275 C 494 1312 475 1355 475 1405 C 475 1457 494 1501 533 1539 C 571 1576 616 1595 668 1595 C 719 1595 764 1576 802 1540 C 840 1503 860 1458 860 1405 Z" unicode="˙" />
<glyph horiz-adv-x="1024" d="M 961 1501 C 961 1421 932 1354 876 1300 C 819 1246 750 1219 670 1219 C 588 1219 519 1245 463 1299 C 407 1353 379 1420 379 1501 C 379 1582 407 1650 464 1704 C 521 1758 590 1786 670 1786 C 750 1786 818 1758 875 1703 C 932 1648 961 1581 961 1501 Z M 782 1501 C 782 1538 772 1568 752 1590 C 732 1612 704 1624 670 1624 C 634 1624 607 1612 587 1590 C 567 1568 557 1538 557 1501 C 557 1463 567 1434 587 1412 C 607 1390 634 1380 670 1380 C 704 1380 732 1390 752 1412 C 772 1434 782 1463 782 1501 Z" unicode="˚" />
<glyph horiz-adv-x="3127" d="M 616 1456 C 734 1456 828 1423 898 1359 C 968 1295 1004 1208 1004 1100 C 1004 995 982 902 940 820 C 897 738 838 675 764 630 C 690 585 609 563 522 563 C 403 563 309 595 239 661 C 169 726 135 812 135 920 C 135 1023 156 1115 198 1197 C 240 1279 299 1342 374 1388 C 448 1433 529 1456 616 1456 Z M 1858 1434 L 725 0 L 412 0 L 1544 1434 L 1858 1434 Z M 2687 870 C 2805 870 2899 837 2969 773 C 3039 708 3074 622 3074 514 C 3074 409 3052 316 3010 234 C 2967 152 2908 89 2834 44 C 2760 0 2679 -23 2593 -23 C 2474 -23 2380 9 2310 75 C 2240 140 2206 226 2206 334 C 2206 438 2227 530 2269 612 C 2311 693 2369 756 2444 802 C 2519 847 2600 870 2687 870 Z M 1745 870 C 1863 870 1957 837 2027 773 C 2097 708 2132 622 2132 514 C 2132 409 2110 316 2068 234 C 2025 152 1966 89 1892 44 C 1818 0 1737 -23 1651 -23 C 1532 -23 1438 9 1368 75 C 1298 140 1264 226 1264 334 C 1264 438 1285 530 1327 612 C 1369 693 1427 756 1502 802 C 1577 847 1658 870 1745 870 Z M 600 1233 C 552 1233 513 1204 483 1148 C 453 1091 438 1013 438 913 C 438 828 471 786 539 786 C 570 786 598 799 623 825 C 647 851 666 887 680 935 C 693 983 700 1040 700 1106 C 700 1190 666 1233 600 1233 Z M 2671 647 C 2623 647 2584 618 2554 562 C 2524 505 2509 427 2509 328 C 2509 243 2542 201 2609 201 C 2640 201 2668 214 2693 240 C 2717 266 2736 303 2750 351 C 2764 399 2771 455 2771 520 C 2771 604 2737 647 2671 647 Z M 1729 647 C 1681 647 1642 618 1612 562 C 1582 505 1567 427 1567 328 C 1567 243 1600 201 1667 201 C 1698 201 1726 214 1751 240 C 1775 266 1794 303 1808 351 C 1822 399 1829 455 1829 520 C 1829 604 1795 647 1729 647 Z" unicode="‰" />
<glyph horiz-adv-x="1718" d="M 848 1241 L 625 1241 L 516 631 L 293 631 L 401 1241 L 176 1241 L 209 1434 L 881 1434 L 848 1241 Z M 1671 631 L 1462 631 C 1506 875 1532 1010 1538 1036 L 1409 825 L 1264 604 C 1194 836 1153 980 1141 1036 C 1138 1009 1134 980 1130 950 C 1125 919 1106 813 1073 631 L 866 631 L 1008 1434 L 1206 1434 C 1262 1239 1296 1120 1307 1076 C 1318 1032 1325 999 1327 977 C 1338 1001 1361 1042 1396 1100 C 1431 1158 1501 1269 1606 1434 L 1812 1434 L 1671 631 Z" unicode="™" />
<glyph horiz-adv-x="1024" d="M 641 -317 C 601 -340 556 -359 505 -373 C 454 -387 406 -395 360 -395 C 295 -395 244 -380 208 -352 C 172 -323 154 -286 154 -240 C 154 -161 212 -81 330 0 L 471 0 C 440 -39 416 -77 398 -114 C 380 -150 371 -179 371 -201 C 371 -240 399 -260 455 -260 C 510 -260 566 -250 623 -231 L 641 -317 Z" unicode="˛" />
<glyph horiz-adv-x="1664" d="M 832 1376 C 706 1376 599 1328 510 1234 C 420 1139 376 1006 376 836 C 376 673 405 538 464 432 C 522 325 609 241 724 180 L 724 0 L 88 0 L 88 196 L 536 196 C 456 225 378 295 304 406 C 229 516 192 664 192 848 C 192 1024 247 1184 358 1330 C 468 1475 626 1548 832 1548 C 1037 1548 1195 1478 1306 1338 C 1416 1198 1472 1034 1472 848 C 1472 664 1434 516 1360 406 C 1285 295 1208 225 1128 196 L 1576 196 L 1576 0 L 940 0 L 940 180 C 1054 241 1141 325 1200 432 C 1258 538 1288 673 1288 836 C 1288 974 1246 1099 1162 1210 C 1078 1320 968 1376 832 1376 Z" unicode="Ω" />
<glyph horiz-adv-x="1024" d="M 1122 1534 C 1106 1436 1071 1358 1017 1300 C 963 1241 897 1212 819 1212 C 765 1212 705 1228 641 1262 C 611 1276 584 1289 561 1303 C 537 1316 517 1323 500 1323 C 477 1323 460 1314 449 1297 C 437 1280 426 1254 416 1219 L 205 1219 C 222 1315 259 1393 317 1452 C 374 1510 442 1540 520 1540 C 576 1540 634 1523 694 1491 C 722 1475 746 1461 768 1449 C 790 1436 809 1430 827 1430 C 849 1430 867 1438 879 1456 C 891 1474 901 1500 911 1534 L 1122 1534 Z" unicode="˜" />
<glyph horiz-adv-x="1024" d="M 1223 1546 L 864 1219 L 612 1219 L 827 1546 L 1223 1546 Z M 762 1546 L 403 1219 L 152 1219 L 367 1546 L 762 1546 Z" unicode="˝" />
<glyph horiz-adv-x="618" d="M 397 0 L 29 0 L 219 1075 L 588 1075 L 397 0 Z" unicode="ı" />
<glyph horiz-adv-x="1292" d="M 1120 0 L 92 0 L 174 471 L 47 395 L 109 739 L 236 815 L 344 1434 L 735 1434 L 664 1020 L 887 1147 L 825 803 L 602 676 L 545 346 L 1182 346 L 1120 0 Z" unicode="Ł" />
<glyph horiz-adv-x="700" d="M 434 0 L 78 0 L 162 479 L 23 408 L 82 752 L 223 823 L 315 1346 L 696 1493 L 606 981 L 745 1053 L 686 709 L 547 637 L 434 0 Z" unicode="ł" />
<glyph horiz-adv-x="1024" d="M 1047 1219 L 807 1219 L 659 1350 L 467 1219 L 219 1219 L 545 1546 L 836 1546 L 1047 1219 Z" unicode="ˆ" />
<glyph horiz-adv-x="2165" d="M 1219 1309 L 1241 1434 L 2200 1434 L 2140 1100 L 1466 1100 L 1434 909 L 1827 909 L 1767 580 L 1374 580 L 1331 334 L 2019 334 L 1962 0 L 989 0 L 1006 92 C 910 15 803 -23 686 -23 C 570 -23 468 1 380 49 C 292 97 223 166 174 258 C 124 349 100 458 100 584 C 100 747 131 896 195 1030 C 259 1164 347 1269 461 1344 C 575 1418 702 1456 842 1456 C 1014 1456 1140 1407 1219 1309 Z M 819 1110 C 761 1110 708 1087 662 1042 C 616 997 580 936 554 859 C 528 781 516 698 516 610 C 516 419 587 324 731 324 C 789 324 841 346 887 391 C 933 436 969 497 995 575 C 1021 652 1034 735 1034 823 C 1034 1014 962 1110 819 1110 Z" unicode="Œ" />
<glyph horiz-adv-x="1769" d="M 846 117 C 805 70 756 35 700 12 C 644 -11 584 -23 522 -23 C 382 -23 270 18 186 101 C 102 184 61 298 61 442 C 61 567 86 681 137 783 C 188 885 257 963 343 1017 C 429 1071 525 1098 633 1098 C 701 1098 762 1085 818 1061 C 873 1036 917 1001 950 956 C 1040 1050 1148 1098 1272 1098 C 1410 1098 1515 1061 1588 987 C 1661 913 1698 807 1698 668 C 1698 628 1694 586 1688 542 C 1682 498 1675 461 1667 432 L 1047 432 L 1046 415 C 1046 366 1061 328 1093 301 C 1124 273 1167 260 1221 260 C 1270 260 1314 265 1353 275 C 1391 285 1434 301 1481 324 L 1581 80 C 1447 11 1313 -23 1178 -23 C 1030 -23 919 23 846 117 Z M 1384 662 L 1384 673 C 1384 727 1373 766 1351 790 C 1329 813 1293 825 1245 825 C 1203 825 1169 811 1144 783 C 1118 755 1098 715 1083 662 L 1384 662 Z M 537 276 C 594 276 640 309 676 376 C 711 442 729 527 729 631 C 729 743 692 799 618 799 C 560 799 514 765 479 699 C 443 632 426 547 426 444 C 426 332 463 276 537 276 Z" unicode="œ" />
<glyph horiz-adv-x="805" d="M 627 0 L 227 0 L 61 537 L 416 1075 L 815 1075 L 453 539 L 627 0 Z" unicode="‹" />
<glyph horiz-adv-x="805" d="M 743 539 L 389 0 L -10 0 L 352 537 L 178 1075 L 578 1075 L 743 539 Z" unicode="›" />
<glyph horiz-adv-x="1382" d="M 1268 473 C 1268 315 1215 192 1111 106 C 1007 20 862 -23 676 -23 C 560 -23 443 -2 325 38 C 207 78 105 133 20 203 L 268 496 C 339 439 414 395 493 365 C 571 334 647 319 721 319 C 768 319 803 327 825 343 C 847 359 858 380 858 406 C 858 431 850 451 836 467 C 822 482 799 497 767 513 C 735 528 694 543 645 559 C 483 611 370 670 304 735 C 238 799 205 883 205 985 C 205 1134 258 1250 364 1332 C 470 1414 614 1456 797 1456 C 907 1456 1018 1436 1129 1396 C 1239 1356 1327 1307 1393 1247 L 1145 954 C 1087 1003 1021 1042 948 1071 C 875 1099 806 1114 741 1114 C 699 1114 668 1106 646 1091 C 624 1075 614 1057 614 1036 C 614 1012 620 994 633 980 C 646 966 668 952 698 938 C 728 924 769 908 821 891 C 936 851 1025 812 1088 774 C 1151 736 1197 693 1225 645 C 1253 597 1268 540 1268 473 Z M 1333 1857 L 1007 1530 L 716 1530 L 505 1857 L 743 1857 L 891 1726 L 1083 1857 L 1333 1857 Z" unicode="Š" />
<glyph horiz-adv-x="1071" d="M 944 356 C 944 233 905 139 827 74 C 749 9 636 -23 489 -23 C 408 -23 329 -13 252 5 C 174 24 92 55 4 98 L 139 367 C 205 329 271 300 335 280 C 399 260 456 250 506 250 C 563 250 592 267 592 301 C 592 317 588 329 580 337 C 572 345 553 355 522 367 C 425 401 349 434 295 467 C 241 499 201 535 176 574 C 151 612 139 661 139 721 C 139 840 178 933 258 999 C 337 1065 446 1098 584 1098 C 746 1098 897 1063 1036 995 L 905 717 C 772 789 658 825 563 825 C 515 825 492 808 492 774 C 492 756 498 742 510 732 C 522 722 546 711 580 700 C 671 668 743 635 795 603 C 847 571 885 536 909 499 C 932 461 944 414 944 356 Z M 1122 1546 L 796 1219 L 505 1219 L 294 1546 L 532 1546 L 680 1415 L 872 1546 L 1122 1546 Z" unicode="š" />
<glyph horiz-adv-x="1152" d="M -8 -392 L 56 -260 C 96 -273 132 -280 164 -280 C 196 -280 222 -268 242 -246 C 262 -223 277 -178 288 -112 L 516 1224 C 553 1437 674 1544 880 1544 C 941 1544 995 1536 1042 1522 C 1088 1507 1125 1492 1152 1476 L 1088 1304 C 1008 1354 935 1380 868 1380 C 806 1380 760 1360 730 1322 C 699 1283 680 1238 672 1188 L 448 -224 C 434 -296 402 -348 350 -382 C 298 -415 240 -432 176 -432 C 136 -432 99 -428 66 -420 C 32 -412 8 -402 -8 -392 Z" unicode="∫" />
<glyph horiz-adv-x="1024" d="M 1104 1546 L 778 1219 L 487 1219 L 276 1546 L 514 1546 L 662 1415 L 854 1546 L 1104 1546 Z" unicode="ˇ" />
<glyph horiz-adv-x="1520" d="M 1645 1434 L 952 518 L 862 0 L 457 0 L 549 528 L 190 1434 L 639 1434 L 711 1217 C 757 1071 790 941 809 827 C 865 942 942 1072 1040 1217 L 1190 1434 L 1645 1434 Z M 1346 1702 C 1346 1655 1327 1614 1291 1579 C 1254 1543 1212 1526 1165 1526 C 1117 1526 1074 1543 1037 1578 C 999 1613 981 1654 981 1702 C 981 1751 999 1793 1036 1829 C 1072 1864 1115 1882 1165 1882 C 1214 1882 1256 1864 1292 1828 C 1328 1792 1346 1750 1346 1702 Z M 858 1702 C 858 1655 839 1614 803 1579 C 766 1543 724 1526 676 1526 C 628 1526 585 1543 549 1579 C 512 1614 494 1655 494 1702 C 494 1750 511 1792 547 1828 C 583 1864 626 1882 676 1882 C 726 1882 768 1864 804 1828 C 840 1792 858 1750 858 1702 Z" unicode="Ÿ" />
<glyph horiz-adv-x="1929" d="M 1784 213 C 1784 145 1761 89 1716 44 C 1671 0 1615 -23 1548 -23 C 1481 -23 1425 0 1380 43 C 1335 87 1313 144 1313 213 C 1313 279 1335 334 1379 378 C 1423 422 1479 444 1548 444 C 1616 444 1673 422 1717 378 C 1761 334 1784 279 1784 213 Z M 1141 213 C 1141 145 1118 89 1073 44 C 1028 0 972 -23 905 -23 C 838 -23 782 0 737 43 C 692 87 670 144 670 213 C 670 279 692 334 736 378 C 780 422 836 444 905 444 C 973 444 1030 422 1074 378 C 1118 334 1141 279 1141 213 Z M 498 213 C 498 145 475 89 430 44 C 385 0 329 -23 262 -23 C 195 -23 139 0 94 43 C 49 87 27 144 27 213 C 27 279 49 334 93 378 C 137 422 193 444 262 444 C 330 444 387 422 431 378 C 475 334 498 279 498 213 Z" unicode="…" />
<glyph horiz-adv-x="1446" d="M 1206 0 L 39 0 L 90 285 C 321 515 501 695 629 823 C 757 951 859 1048 934 1116 C 850 1112 709 1110 512 1110 L 276 1110 L 334 1434 L 1456 1434 L 1405 1149 C 1168 913 989 734 867 613 C 745 491 643 393 561 317 C 659 321 802 324 991 324 L 1264 324 L 1206 0 Z M 1366 1853 L 1040 1526 L 749 1526 L 538 1853 L 776 1853 L 924 1722 L 1116 1853 L 1366 1853 Z" unicode="Ž" />
<glyph horiz-adv-x="1149" d="M 938 0 L 12 0 L 57 256 L 334 512 C 398 571 481 644 585 732 L 645 784 C 511 778 421 776 373 776 L 174 776 L 225 1075 L 1126 1075 L 1081 819 C 963 707 872 621 810 562 C 748 503 644 413 498 291 C 631 296 724 299 776 299 L 991 299 L 938 0 Z M 1182 1546 L 856 1219 L 565 1219 L 354 1546 L 592 1546 L 740 1415 L 932 1546 L 1182 1546 Z" unicode="ž" />
<glyph horiz-adv-x="1536" d="M 212 236 L 212 452 L 1112 792 L 212 1128 L 212 1344 L 1352 872 L 1352 708 L 212 236 Z M 212 24 L 212 216 L 1348 216 L 1348 24 L 212 24 Z" unicode="≥" />
<glyph horiz-adv-x="879" d="M 891 1161 C 848 1184 805 1196 762 1196 C 741 1196 725 1191 713 1181 C 701 1171 694 1154 690 1128 L 682 1075 L 850 1075 L 799 786 L 637 786 L 455 -250 L 66 -395 L 274 786 L 150 786 L 201 1075 L 326 1075 L 338 1149 C 358 1263 391 1342 438 1388 C 485 1433 558 1456 657 1456 C 708 1456 759 1450 809 1440 C 859 1430 901 1416 934 1399 L 891 1161 Z" unicode="ƒ" />
<glyph horiz-adv-x="1536" d="M 76 0 L 652 1536 L 884 1536 L 1456 0 L 76 0 Z M 352 148 L 1164 148 L 752 1256 L 352 148 Z" unicode="Δ" />
<glyph horiz-adv-x="1077" d="M 1370 1434 L 217 0 L -227 0 L 926 1434 L 1370 1434 Z" unicode="⁄" />
<glyph horiz-adv-x="1664" d="M 832 1376 C 706 1376 599 1328 510 1234 C 420 1139 376 1006 376 836 C 376 673 405 538 464 432 C 522 325 609 241 724 180 L 724 0 L 88 0 L 88 196 L 536 196 C 456 225 378 295 304 406 C 229 516 192 664 192 848 C 192 1024 247 1184 358 1330 C 468 1475 626 1548 832 1548 C 1037 1548 1195 1478 1306 1338 C 1416 1198 1472 1034 1472 848 C 1472 664 1434 516 1360 406 C 1285 295 1208 225 1128 196 L 1576 196 L 1576 0 L 940 0 L 940 180 C 1054 241 1141 325 1200 432 C 1258 538 1288 673 1288 836 C 1288 974 1246 1099 1162 1210 C 1078 1320 968 1376 832 1376 Z" unicode="Ω" />
<glyph horiz-adv-x="1536" d="M 236 400 C 230 429 228 456 228 480 C 228 546 248 604 288 652 C 328 700 390 724 476 724 C 542 724 600 714 650 696 C 699 677 745 659 788 642 C 830 624 872 610 912 598 C 952 586 988 580 1020 580 C 1070 580 1106 590 1128 610 C 1149 630 1160 654 1160 684 L 1156 716 L 1300 716 C 1305 686 1308 660 1308 636 C 1308 569 1288 512 1248 464 C 1208 416 1145 392 1060 392 C 993 392 935 400 886 418 C 836 435 790 452 748 470 C 705 487 664 501 624 512 C 584 522 548 528 516 528 C 465 528 429 518 408 500 C 386 481 376 458 376 432 L 380 400 L 236 400 Z M 236 860 C 230 889 228 916 228 940 C 228 1006 248 1064 288 1112 C 328 1160 390 1184 476 1184 C 542 1184 600 1174 650 1156 C 699 1137 745 1119 788 1102 C 830 1084 872 1070 912 1058 C 952 1046 988 1040 1020 1040 C 1070 1040 1106 1050 1128 1070 C 1149 1090 1160 1114 1160 1144 L 1156 1176 L 1300 1176 C 1305 1146 1308 1120 1308 1096 C 1308 1029 1288 972 1248 924 C 1208 876 1145 852 1060 852 C 993 852 935 860 886 878 C 836 895 790 912 748 930 C 705 947 664 961 624 972 C 584 982 548 988 516 988 C 465 988 429 978 408 960 C 386 941 376 918 376 892 L 380 860 L 236 860 Z" unicode="≈" />
<glyph horiz-adv-x="1408" d="M 252 -424 C 214 -424 186 -413 168 -392 C 149 -370 140 -333 140 -280 C 140 -176 145 -49 156 100 C 166 233 172 309 172 328 L 176 356 L 176 1176 L 368 1176 L 368 320 C 368 258 395 210 450 176 C 504 141 564 124 628 124 C 716 124 792 146 858 190 C 923 234 973 297 1008 380 L 1008 1176 L 1200 1176 L 1200 308 L 1220 0 L 1056 0 L 1020 176 C 974 104 913 50 836 14 C 758 -22 670 -40 572 -40 C 537 -40 494 -31 444 -14 C 393 3 353 28 324 60 C 324 1 333 -56 352 -112 C 370 -168 380 -218 380 -264 C 380 -370 337 -424 252 -424 Z" unicode="μ" />
<glyph horiz-adv-x="1408" d="M 296 0 L 296 1028 L 12 1028 L 12 1176 L 1316 1176 L 1316 1028 L 996 1028 L 996 344 C 996 266 1011 213 1042 184 C 1072 154 1109 140 1152 140 C 1184 140 1210 140 1232 142 C 1253 143 1274 148 1296 156 L 1296 28 C 1264 12 1234 0 1206 -6 C 1178 -12 1138 -16 1088 -16 C 1002 -16 935 10 886 64 C 836 117 812 208 812 336 L 812 1028 L 484 1028 L 484 0 L 296 0 Z" unicode="π" />
<glyph horiz-adv-x="1536" d="M 212 404 L 212 604 L 1328 604 L 1328 404 L 212 404 Z M 212 976 L 212 1176 L 1328 1176 L 1328 976 L 212 976 Z M 548 188 L 372 188 L 996 1356 L 1168 1356 L 548 188 Z" unicode="≠" />
<glyph horiz-adv-x="1152" d="M 472 -48 L 68 756 L 472 1560 L 656 1560 L 1084 756 L 656 -48 L 472 -48 Z M 556 152 L 876 768 L 572 1356 L 252 740 L 556 152 Z" unicode="◊" />
<glyph horiz-adv-x="1536" d="M 1348 236 L 208 708 L 208 872 L 1348 1344 L 1348 1128 L 448 792 L 1348 452 L 1348 236 Z M 212 24 L 212 216 L 1348 216 L 1348 24 L 212 24 Z" unicode="≤" />
<glyph horiz-adv-x="1208" d="M 1126 715 L 817 715 L 655 -205 L 291 -205 L 453 715 L 143 715 L 203 1053 L 512 1053 L 580 1434 L 944 1434 L 877 1053 L 1186 1053 L 1126 715 Z" unicode="†" />
<glyph horiz-adv-x="1692" d="M 1661 725 L 1335 444 C 1316 428 1298 421 1282 421 C 1268 421 1255 426 1244 437 C 1233 447 1228 461 1228 479 C 1228 488 1235 526 1249 592 L 979 592 L 979 360 C 1043 374 1080 382 1091 382 C 1108 382 1122 376 1133 365 C 1144 353 1150 341 1150 329 C 1150 312 1142 294 1126 274 L 846 -51 L 565 274 C 549 293 542 311 542 328 C 542 341 547 353 558 365 C 569 376 583 382 601 382 C 611 382 649 374 713 360 L 713 592 L 442 592 C 456 528 464 490 464 480 C 464 462 458 447 447 437 C 435 426 423 421 410 421 C 393 421 375 428 356 444 L 31 725 L 356 1006 C 375 1021 393 1029 410 1029 C 423 1029 435 1023 447 1012 C 458 1001 464 987 464 970 C 464 959 456 922 442 858 L 713 858 L 713 1073 C 647 1059 609 1052 599 1052 C 582 1052 568 1057 558 1068 C 547 1079 542 1092 542 1106 C 542 1122 549 1139 565 1159 L 846 1485 L 1126 1159 C 1142 1139 1150 1121 1150 1105 C 1150 1091 1144 1079 1134 1068 C 1124 1057 1110 1052 1093 1052 C 1083 1052 1045 1059 979 1073 L 979 858 L 1249 858 C 1235 924 1228 962 1228 972 C 1228 988 1233 1002 1244 1013 C 1255 1023 1268 1029 1282 1029 C 1298 1029 1316 1021 1335 1006 L 1661 725 Z" unicode="" />
</font>
</defs>
</svg>
