<?xml version="1.0" standalone="yes"?><svg version="1.1" xmlns = 'http://www.w3.org/2000/svg'><defs><font id='web' horiz-adv-x="1000">
<font-face font-family="web" descent="-395" cap-height="1434" units-per-em="2048" bbox="-133,-432,3103,1892" x-height="1075" ascent="1487" />
<missing-glyph horiz-adv-x="676" d="" /><glyph horiz-adv-x="1280" d="M 476 -32 C 342 -32 239 5 166 80 C 92 154 56 248 56 360 C 56 506 108 636 214 750 C 319 863 449 920 604 920 C 668 920 734 908 802 886 C 870 863 924 840 964 816 C 972 872 976 928 976 984 C 976 1109 953 1207 908 1278 C 862 1348 800 1384 720 1384 C 634 1384 567 1374 518 1356 C 468 1337 418 1312 368 1280 L 324 1444 C 374 1473 430 1498 492 1518 C 553 1538 629 1548 720 1548 C 877 1548 992 1496 1064 1394 C 1136 1291 1172 1149 1172 968 C 1172 690 1104 454 968 260 C 832 65 668 -32 476 -32 Z M 488 128 C 716 128 868 313 944 684 C 922 705 882 726 824 748 C 765 769 706 780 648 780 C 520 780 424 738 360 654 C 296 570 264 476 264 372 C 264 300 282 241 318 196 C 354 150 410 128 488 128 Z" unicode="∂" />
<glyph horiz-adv-x="1536" d="M 76 0 L 652 1536 L 884 1536 L 1456 0 L 76 0 Z M 352 148 L 1164 148 L 752 1256 L 352 148 Z" unicode="∆" />
<glyph horiz-adv-x="1384" d="M 473 758 L 473 691 L 475 666 L 864 666 L 864 471 L 508 471 C 550 357 630 301 748 301 C 786 301 818 306 846 317 C 873 328 898 346 922 371 C 945 395 977 442 1018 510 L 1333 348 C 1207 100 1005 -23 727 -23 C 595 -23 480 7 383 67 C 286 127 212 213 161 325 C 109 437 84 567 84 717 C 84 865 110 996 163 1108 C 215 1220 290 1306 388 1366 C 486 1426 599 1456 729 1456 C 833 1456 921 1442 993 1414 C 1065 1386 1125 1344 1174 1287 C 1223 1229 1268 1145 1309 1034 L 987 909 C 961 976 937 1023 917 1051 C 897 1078 873 1098 845 1112 C 817 1126 783 1133 743 1133 C 623 1133 543 1072 504 952 L 864 952 L 864 758 L 473 758 Z" unicode="€" />
<glyph horiz-adv-x="1536" d="M 332 0 L 332 1348 L 80 1348 L 80 1524 L 1456 1524 L 1456 1348 L 1212 1348 L 1212 0 L 1004 0 L 1004 1356 L 540 1356 L 540 0 L 332 0 Z" unicode="∏" />
<glyph horiz-adv-x="1152" d="M 1084 1524 L 1084 1344 L 332 1344 L 796 784 L 304 188 L 1080 188 L 1080 0 L 40 0 L 40 172 L 560 788 L 68 1380 L 68 1524 L 1084 1524 Z" unicode="∑" />
<glyph horiz-adv-x="1536" d="M 200 692 L 200 888 L 1336 888 L 1336 692 L 200 692 Z" unicode="−" />
<glyph horiz-adv-x="1139" d="M 999 549 L 139 549 L 139 918 L 999 918 L 999 549 Z" unicode="–" />
<glyph horiz-adv-x="1343" d="M 1204 549 L 139 549 L 139 918 L 1204 918 L 1204 549 Z" unicode="—" />
<glyph horiz-adv-x="1077" d="M 1210 1434 L 311 0 L -133 0 L 766 1434 L 1210 1434 Z" unicode="∕" />
<glyph horiz-adv-x="664" d="M 532 1434 L 504 782 L 84 782 L 281 1434 L 532 1434 Z" unicode="‘" />
<glyph horiz-adv-x="664" d="M 580 1434 L 383 782 L 131 782 L 160 1434 L 580 1434 Z" unicode="’" />
<glyph horiz-adv-x="664" d="M 573 428 L 377 -223 L 125 -223 L 154 428 L 573 428 Z" unicode="‚" />
<glyph horiz-adv-x="1245" d="M 1114 1434 L 1085 782 L 666 782 L 862 1434 L 1114 1434 Z M 532 1434 L 504 782 L 84 782 L 281 1434 L 532 1434 Z" unicode="“" />
<glyph horiz-adv-x="1245" d="M 1161 1434 L 965 782 L 713 782 L 741 1434 L 1161 1434 Z M 580 1434 L 383 782 L 131 782 L 160 1434 L 580 1434 Z" unicode="”" />
<glyph horiz-adv-x="1245" d="M 1155 428 L 958 -223 L 707 -223 L 735 428 L 1155 428 Z M 573 428 L 377 -223 L 125 -223 L 154 428 L 573 428 Z" unicode="„" />
<glyph horiz-adv-x="676" d="" unicode=" " />
<glyph horiz-adv-x="717" d="M 561 922 L 494 512 L 223 512 L 156 922 L 156 1434 L 561 1434 L 561 922 Z M 571 190 C 571 128 550 77 510 37 C 469 -2 418 -23 358 -23 C 298 -23 247 -2 206 37 C 165 77 145 128 145 190 C 145 250 165 299 205 339 C 245 379 296 399 358 399 C 420 399 471 379 511 339 C 551 299 571 250 571 190 Z" unicode="!" />
<glyph horiz-adv-x="1270" d="M 1153 1434 L 1073 764 L 797 764 L 717 1434 L 1153 1434 Z M 553 1434 L 473 764 L 197 764 L 117 1434 L 553 1434 Z" unicode="&#x22;" />
<glyph horiz-adv-x="1638" d="M 1536 250 L 1321 250 L 1321 0 L 948 0 L 948 250 L 690 250 L 690 0 L 317 0 L 317 250 L 102 250 L 102 563 L 317 563 L 317 870 L 102 870 L 102 1184 L 317 1184 L 317 1434 L 690 1434 L 690 1184 L 948 1184 L 948 1434 L 1321 1434 L 1321 1184 L 1536 1184 L 1536 870 L 1321 870 L 1321 563 L 1536 563 L 1536 250 Z M 971 537 L 971 897 L 668 897 L 668 537 L 971 537 Z" unicode="#" />
<glyph horiz-adv-x="1354" d="M 1266 440 C 1266 320 1233 224 1168 151 C 1103 78 1007 30 879 6 L 879 -205 L 494 -205 L 494 2 C 336 27 194 80 70 162 L 262 463 C 320 422 390 388 471 360 C 551 332 622 319 682 319 C 750 319 798 325 826 339 C 854 352 868 376 868 412 C 868 439 850 462 816 481 C 782 500 718 521 625 543 C 484 575 379 610 311 648 C 242 686 192 733 160 789 C 128 845 113 917 113 1004 C 113 1112 146 1203 213 1277 C 280 1351 374 1401 494 1427 L 494 1638 L 879 1638 L 879 1430 C 1015 1408 1138 1358 1249 1280 L 1057 979 C 924 1069 791 1114 657 1114 C 606 1114 569 1107 545 1093 C 521 1079 510 1056 510 1026 C 510 1000 525 978 557 962 C 589 945 651 926 745 905 C 939 859 1075 801 1151 732 C 1227 662 1266 565 1266 440 Z" unicode="$" />
<glyph horiz-adv-x="2212" d="M 909 1012 C 909 872 870 762 793 682 C 716 602 613 563 483 563 C 353 563 250 602 174 681 C 98 760 61 869 61 1008 C 61 1146 99 1256 176 1336 C 253 1416 357 1456 487 1456 C 617 1456 720 1416 796 1338 C 871 1259 909 1150 909 1012 Z M 1702 1434 L 823 0 L 510 0 L 1389 1434 L 1702 1434 Z M 2150 426 C 2150 286 2111 176 2034 96 C 1957 16 1854 -23 1724 -23 C 1593 -23 1490 16 1415 96 C 1340 176 1303 284 1303 422 C 1303 560 1341 669 1417 749 C 1493 829 1597 870 1729 870 C 1860 870 1963 830 2038 751 C 2112 671 2150 563 2150 426 Z M 608 1008 C 608 1088 598 1146 580 1181 C 561 1215 529 1233 485 1233 C 439 1233 407 1216 389 1184 C 371 1152 362 1094 362 1012 C 362 930 371 871 391 837 C 410 803 442 786 487 786 C 531 786 562 802 580 835 C 598 867 608 925 608 1008 Z M 1849 422 C 1849 502 1839 560 1821 595 C 1802 629 1770 647 1726 647 C 1681 647 1649 631 1631 599 C 1613 567 1604 509 1604 426 C 1604 344 1613 286 1633 252 C 1652 218 1684 201 1729 201 C 1773 201 1804 217 1822 250 C 1840 283 1849 340 1849 422 Z" unicode="%" />
<glyph horiz-adv-x="1479" d="M 1483 0 L 1034 0 L 932 117 C 800 23 651 -23 485 -23 C 347 -23 240 10 165 78 C 90 146 53 241 53 365 C 53 443 78 517 129 588 C 180 658 254 721 352 776 L 340 791 C 254 886 211 979 211 1071 C 211 1192 255 1286 344 1354 C 432 1422 553 1456 705 1456 C 795 1456 878 1445 953 1425 C 1028 1404 1105 1371 1184 1325 L 1022 1030 C 968 1060 917 1083 867 1100 C 817 1117 761 1126 700 1126 C 668 1126 643 1120 626 1108 C 608 1096 600 1082 600 1065 C 600 1045 603 1028 611 1014 C 618 999 630 983 647 965 L 954 608 C 992 670 1034 746 1081 834 L 1380 678 C 1299 542 1229 436 1171 358 L 1483 0 Z M 735 340 L 535 567 C 463 518 428 467 428 414 C 428 371 441 340 467 321 C 493 302 532 293 584 293 C 638 293 688 308 735 340 Z" unicode="&#x26;" />
<glyph horiz-adv-x="702" d="M 575 1434 L 496 764 L 207 764 L 127 1434 L 575 1434 Z" unicode="'" />
<glyph horiz-adv-x="881" d="M 766 -68 L 502 -225 C 368 -74 271 70 210 208 C 149 346 119 484 119 621 C 119 763 149 903 209 1042 C 269 1181 367 1327 502 1479 L 766 1321 C 681 1191 622 1074 589 970 C 555 866 539 753 539 631 C 539 505 555 389 588 285 C 621 181 680 63 766 -68 Z" unicode="(" />
<glyph horiz-adv-x="881" d="M 762 633 C 762 491 731 350 671 211 C 611 72 513 -73 379 -225 L 115 -68 C 202 68 262 187 294 289 C 326 391 342 502 342 623 C 342 746 326 859 294 962 C 262 1065 202 1185 115 1321 L 379 1479 C 512 1328 609 1183 670 1045 C 731 907 762 769 762 633 Z" unicode=")" />
<glyph horiz-adv-x="1126" d="M 1065 813 L 920 565 L 647 788 L 705 442 L 422 442 L 477 793 L 205 571 L 61 815 L 410 938 L 61 1063 L 205 1311 L 477 1085 L 422 1434 L 705 1434 L 647 1087 L 920 1313 L 1065 1067 L 711 940 L 1065 813 Z" unicode="*" />
<glyph horiz-adv-x="1323" d="M 1210 528 L 848 528 L 848 150 L 475 150 L 475 528 L 113 528 L 113 881 L 475 881 L 475 1260 L 848 1260 L 848 881 L 1210 881 L 1210 528 Z" unicode="+" />
<glyph horiz-adv-x="643" d="M 565 428 L 369 -254 L 117 -254 L 145 428 L 565 428 Z" unicode="," />
<glyph horiz-adv-x="991" d="M 852 541 L 139 541 L 139 926 L 852 926 L 852 541 Z" unicode="-" />
<glyph horiz-adv-x="643" d="M 557 213 C 557 144 534 87 489 43 C 444 0 388 -23 322 -23 C 254 -23 198 0 153 44 C 108 88 86 145 86 213 C 86 279 108 334 152 378 C 196 422 252 444 322 444 C 390 444 447 422 491 378 C 535 334 557 279 557 213 Z" unicode="." />
<glyph horiz-adv-x="1044" d="M 1077 1618 L 356 -184 L -33 -184 L 688 1618 L 1077 1618 Z" unicode="/" />
<glyph horiz-adv-x="1466" d="M 1382 719 C 1382 569 1355 438 1301 326 C 1247 214 1170 127 1072 67 C 973 7 859 -23 731 -23 C 602 -23 489 6 391 66 C 293 125 217 210 164 322 C 110 433 84 564 84 715 C 84 864 111 995 165 1108 C 219 1220 296 1306 395 1366 C 493 1426 607 1456 735 1456 C 863 1456 977 1426 1075 1367 C 1173 1307 1249 1222 1302 1111 C 1355 999 1382 869 1382 719 Z M 975 715 C 975 847 953 946 911 1013 C 868 1080 808 1114 731 1114 C 654 1114 595 1081 554 1015 C 512 949 492 851 492 719 C 492 587 513 487 556 420 C 598 352 658 319 735 319 C 812 319 871 352 913 418 C 954 484 975 583 975 715 Z" unicode="0" />
<glyph horiz-adv-x="862" d="M 713 0 L 324 0 L 324 987 L 82 987 L 82 1239 C 174 1244 241 1261 285 1290 C 329 1318 361 1366 381 1434 L 713 1434 L 713 0 Z" unicode="1" />
<glyph horiz-adv-x="1434" d="M 1280 0 L 109 0 C 112 144 136 271 180 381 C 224 491 287 585 371 665 C 454 744 566 815 707 877 C 757 899 794 917 818 931 C 841 945 857 958 867 971 C 876 984 881 1002 881 1024 C 881 1056 868 1080 844 1097 C 820 1113 779 1122 721 1122 C 582 1122 440 1073 295 977 L 113 1270 C 217 1336 318 1383 417 1412 C 515 1441 619 1456 727 1456 C 905 1456 1040 1421 1132 1352 C 1224 1282 1270 1183 1270 1053 C 1270 980 1259 920 1237 873 C 1215 825 1180 782 1132 743 C 1084 703 1016 663 930 623 C 811 567 720 517 657 471 C 593 425 552 376 532 324 L 1280 324 L 1280 0 Z" unicode="2" />
<glyph horiz-adv-x="1403" d="M 1311 455 C 1311 297 1257 178 1151 98 C 1044 17 888 -23 682 -23 C 559 -23 447 -3 345 35 C 243 74 154 128 78 197 L 283 455 C 412 355 548 305 690 305 C 773 305 833 316 870 340 C 907 364 926 401 926 451 C 926 501 910 536 879 557 C 847 577 795 588 723 588 L 516 588 L 516 897 L 700 897 C 764 897 808 905 831 923 C 854 941 866 972 866 1018 C 866 1056 850 1085 820 1105 C 789 1125 738 1135 668 1135 C 598 1135 534 1124 478 1103 C 422 1082 366 1052 311 1012 L 123 1270 C 209 1335 296 1382 386 1412 C 476 1441 573 1456 678 1456 C 871 1456 1015 1421 1109 1353 C 1203 1284 1251 1181 1251 1044 C 1251 982 1236 929 1207 883 C 1177 837 1129 797 1061 764 C 1140 744 1201 708 1245 654 C 1289 600 1311 533 1311 455 Z" unicode="3" />
<glyph horiz-adv-x="1518" d="M 1434 246 L 1249 246 L 1249 0 L 893 0 L 893 256 L 84 256 L 84 547 L 856 1434 L 1249 1434 L 1249 582 L 1434 582 L 1434 246 Z M 899 1032 C 858 972 803 900 735 818 C 666 736 618 680 592 651 C 565 622 540 597 518 575 C 580 579 670 582 786 582 L 893 582 L 893 723 C 893 879 895 982 899 1032 Z" unicode="4" />
<glyph horiz-adv-x="1456" d="M 1350 500 C 1350 334 1294 206 1182 114 C 1070 22 911 -23 705 -23 C 597 -23 494 -9 395 17 C 295 44 194 89 92 152 L 254 449 C 326 405 402 371 484 345 C 565 319 642 307 715 307 C 799 307 862 321 904 351 C 946 381 967 427 967 489 C 967 545 950 587 917 615 C 883 643 836 657 774 657 C 723 657 678 651 639 640 C 599 628 556 607 510 575 L 170 690 L 219 1434 L 1264 1434 L 1264 1110 L 541 1110 L 528 911 C 613 953 716 975 838 975 C 1000 975 1126 933 1216 851 C 1305 769 1350 652 1350 500 Z" unicode="5" />
<glyph horiz-adv-x="1425" d="M 1346 494 C 1346 334 1288 207 1173 115 C 1058 23 898 -23 692 -23 C 502 -23 353 28 245 132 C 136 236 82 382 82 571 C 82 698 107 818 159 931 C 210 1043 281 1138 372 1216 C 463 1293 574 1352 705 1394 C 835 1435 984 1456 1151 1456 L 1151 1130 C 985 1130 846 1107 734 1063 C 622 1019 534 949 471 854 C 524 884 580 905 640 918 C 700 931 766 938 840 938 C 999 938 1123 899 1212 822 C 1301 744 1346 635 1346 494 Z M 963 467 C 963 523 941 566 899 598 C 856 629 797 645 721 645 C 632 645 566 629 524 597 C 482 565 461 521 461 465 C 461 409 482 366 525 336 C 567 306 630 291 713 291 C 789 291 850 306 895 337 C 940 367 963 411 963 467 Z" unicode="6" />
<glyph horiz-adv-x="1417" d="M 1286 1147 C 1159 1031 1060 919 988 811 C 916 703 865 587 833 464 C 801 341 786 186 786 0 L 397 0 C 398 238 432 446 500 625 C 567 804 671 966 813 1110 L 100 1110 L 100 1434 L 1286 1434 L 1286 1147 Z" unicode="7" />
<glyph horiz-adv-x="1495" d="M 1401 446 C 1401 300 1341 186 1223 102 C 1105 18 945 -23 745 -23 C 545 -23 386 18 269 102 C 152 186 94 300 94 446 C 94 516 113 579 152 635 C 191 691 246 734 317 762 C 263 794 223 833 196 879 C 169 925 156 976 156 1030 C 156 1162 209 1266 317 1342 C 425 1418 569 1456 750 1456 C 930 1456 1073 1418 1179 1342 C 1285 1266 1339 1162 1339 1030 C 1339 920 1285 832 1178 766 C 1249 736 1304 693 1343 636 C 1381 578 1401 515 1401 446 Z M 958 1024 C 958 1067 939 1102 903 1128 C 866 1154 813 1167 745 1167 C 677 1167 626 1154 590 1128 C 554 1102 537 1068 537 1024 C 537 980 555 947 593 923 C 630 899 682 887 750 887 C 814 887 865 898 902 921 C 939 944 958 978 958 1024 Z M 1020 451 C 1020 503 995 545 945 575 C 895 605 829 621 745 621 C 661 621 595 606 547 576 C 499 546 475 505 475 451 C 475 398 499 356 549 325 C 598 294 665 279 750 279 C 835 279 901 294 949 325 C 996 356 1020 398 1020 451 Z" unicode="8" />
<glyph horiz-adv-x="1425" d="M 1343 862 C 1343 686 1297 530 1206 392 C 1115 254 991 150 833 81 C 675 11 489 -23 274 -23 L 274 303 C 441 303 580 325 692 370 C 804 415 891 485 954 580 C 900 549 844 527 785 515 C 725 502 659 496 586 496 C 426 496 302 534 213 612 C 124 689 80 798 80 940 C 80 1101 138 1227 254 1319 C 370 1410 529 1456 733 1456 C 923 1456 1072 1404 1180 1300 C 1288 1196 1343 1050 1343 862 Z M 965 969 C 965 1024 943 1067 899 1097 C 855 1127 793 1143 713 1143 C 635 1143 574 1127 530 1096 C 485 1064 463 1021 463 967 C 463 911 484 867 526 835 C 568 803 628 788 705 788 C 793 788 859 804 901 836 C 943 868 965 912 965 969 Z" unicode="9" />
<glyph horiz-adv-x="643" d="M 551 872 C 551 806 529 752 485 708 C 441 664 387 643 322 643 C 256 643 201 664 157 708 C 113 752 92 806 92 872 C 92 936 113 990 157 1033 C 200 1076 255 1098 322 1098 C 387 1098 441 1076 485 1034 C 529 991 551 937 551 872 Z M 551 207 C 551 142 529 87 486 43 C 442 0 388 -23 322 -23 C 255 -23 200 -1 157 43 C 113 87 92 141 92 207 C 92 271 113 325 156 368 C 199 410 254 432 322 432 C 388 432 443 410 486 368 C 529 325 551 271 551 207 Z" unicode=":" />
<glyph horiz-adv-x="643" d="M 551 872 C 551 806 529 752 485 708 C 441 664 387 643 322 643 C 256 643 201 664 157 707 C 113 750 92 805 92 872 C 92 938 113 992 155 1034 C 197 1076 253 1098 322 1098 C 388 1098 443 1076 486 1034 C 529 991 551 937 551 872 Z M 532 418 L 340 -248 L 96 -248 L 123 418 L 532 418 Z" unicode=";" />
<glyph horiz-adv-x="1055" d="M 930 -23 L 117 582 L 117 852 L 930 1456 L 930 977 L 530 721 L 930 465 L 930 -23 Z" unicode="&#x3C;" />
<glyph horiz-adv-x="1323" d="M 1159 799 L 164 799 L 164 1171 L 1159 1171 L 1159 799 Z M 1159 238 L 164 238 L 164 610 L 1159 610 L 1159 238 Z" unicode="=" />
<glyph horiz-adv-x="1055" d="M 938 582 L 125 -23 L 125 457 L 524 713 L 125 969 L 125 1456 L 938 852 L 938 582 Z" unicode="&#x3E;" />
<glyph horiz-adv-x="1233" d="M 1169 1063 C 1169 985 1150 921 1112 870 C 1074 818 1008 770 915 725 C 857 697 816 667 791 634 C 766 600 754 560 754 512 L 387 512 C 387 608 407 684 447 742 C 487 799 556 851 653 897 C 695 917 727 936 748 954 C 769 972 780 995 780 1024 C 780 1089 727 1122 621 1122 C 492 1122 360 1077 225 987 L 43 1280 C 225 1397 419 1456 627 1456 C 800 1456 934 1422 1028 1355 C 1122 1287 1169 1190 1169 1063 Z M 780 190 C 780 128 759 77 719 37 C 678 -2 627 -23 567 -23 C 507 -23 456 -2 415 37 C 374 77 354 128 354 190 C 354 250 374 299 414 339 C 454 379 505 399 567 399 C 629 399 680 379 720 339 C 760 299 780 250 780 190 Z" unicode="?" />
<glyph horiz-adv-x="1712" d="M 1595 737 C 1595 454 1494 313 1294 313 C 1196 313 1119 346 1063 414 C 1015 382 966 358 916 342 C 866 325 809 317 745 317 C 665 317 602 341 558 390 C 514 438 492 504 492 588 C 492 669 517 732 568 777 C 618 821 687 844 774 844 C 853 844 918 831 969 805 L 969 860 C 969 894 958 917 936 931 C 914 945 882 952 838 952 C 761 952 684 934 606 899 L 539 1063 C 640 1111 753 1135 877 1135 C 981 1135 1059 1110 1112 1061 C 1165 1012 1192 940 1192 844 L 1192 588 C 1192 544 1200 511 1217 488 C 1234 464 1263 453 1305 453 C 1357 453 1393 476 1413 523 C 1433 569 1444 641 1444 739 C 1444 845 1418 942 1368 1030 C 1317 1118 1246 1186 1156 1236 C 1065 1286 965 1311 856 1311 C 743 1311 642 1285 552 1235 C 462 1185 393 1114 343 1023 C 293 932 268 831 268 719 C 268 604 292 501 342 411 C 392 320 462 249 552 199 C 642 148 743 123 856 123 C 954 123 1041 141 1116 178 L 1174 45 C 1066 0 960 -23 856 -23 C 718 -23 593 9 479 75 C 365 140 276 230 212 344 C 148 458 117 582 117 717 C 117 853 149 978 215 1092 C 280 1206 369 1295 482 1359 C 594 1423 719 1456 856 1456 C 991 1456 1115 1424 1228 1361 C 1340 1297 1430 1210 1496 1099 C 1562 987 1595 867 1595 737 Z M 969 535 L 969 657 C 926 676 877 686 823 686 C 786 686 758 677 738 661 C 718 645 709 622 709 592 C 709 564 718 541 736 523 C 754 505 783 496 823 496 C 843 496 867 499 896 507 C 924 515 949 524 969 535 Z" unicode="@" />
<glyph horiz-adv-x="1561" d="M 1501 0 L 1071 0 L 993 252 L 563 252 L 485 0 L 59 0 L 580 1434 L 981 1434 L 1501 0 Z M 897 567 C 831 796 792 947 778 1020 C 770 984 762 946 752 907 C 742 867 711 754 659 567 L 897 567 Z" unicode="A" />
<glyph horiz-adv-x="1468" d="M 1372 463 C 1372 313 1326 198 1235 119 C 1143 39 1010 0 834 0 L 145 0 L 145 1434 L 838 1434 C 1006 1434 1131 1403 1214 1343 C 1297 1282 1339 1188 1339 1061 C 1339 997 1326 944 1301 901 C 1276 858 1231 818 1167 780 C 1303 720 1372 615 1372 463 Z M 950 1008 C 950 1082 908 1120 825 1120 L 526 1120 L 526 895 L 825 895 C 908 895 950 932 950 1008 Z M 983 455 C 983 497 971 530 948 555 C 924 579 889 592 842 592 L 526 592 L 526 313 L 840 313 C 888 313 924 326 948 353 C 971 379 983 413 983 455 Z" unicode="B" />
<glyph horiz-adv-x="1405" d="M 1335 348 C 1269 219 1187 125 1089 66 C 991 6 874 -23 739 -23 C 605 -23 489 7 391 68 C 292 128 216 215 164 327 C 112 439 86 569 86 717 C 86 865 113 994 167 1106 C 221 1218 297 1304 397 1365 C 496 1425 611 1456 741 1456 C 847 1456 937 1441 1011 1413 C 1085 1385 1147 1342 1197 1284 C 1247 1226 1291 1142 1331 1034 L 971 893 C 939 976 906 1033 872 1064 C 838 1094 793 1110 739 1110 C 663 1110 604 1076 563 1008 C 522 940 502 843 502 717 C 502 593 522 496 564 427 C 605 358 665 324 743 324 C 795 324 839 337 875 364 C 911 390 952 444 999 526 L 1335 348 Z" unicode="C" />
<glyph horiz-adv-x="1479" d="M 1384 725 C 1384 473 1323 289 1201 173 C 1079 57 882 0 610 0 L 145 0 L 145 1434 L 647 1434 C 903 1434 1089 1376 1207 1260 C 1325 1144 1384 966 1384 725 Z M 977 719 C 977 855 951 952 901 1009 C 850 1065 765 1094 645 1094 L 547 1094 L 547 340 L 633 340 C 761 340 850 368 901 425 C 951 482 977 580 977 719 Z" unicode="D" />
<glyph horiz-adv-x="1366" d="M 1257 0 L 145 0 L 145 1434 L 1243 1434 L 1243 1100 L 539 1100 L 539 909 L 963 909 L 963 580 L 539 580 L 539 334 L 1257 334 L 1257 0 Z" unicode="E" />
<glyph horiz-adv-x="1348" d="M 1280 1096 L 541 1096 L 541 897 L 989 897 L 989 561 L 541 561 L 541 0 L 145 0 L 145 1434 L 1280 1434 L 1280 1096 Z" unicode="F" />
<glyph horiz-adv-x="1477" d="M 1389 612 C 1389 408 1334 252 1225 142 C 1115 32 956 -23 748 -23 C 614 -23 498 6 398 66 C 298 125 221 211 167 323 C 113 435 86 567 86 717 C 86 864 112 993 166 1105 C 219 1217 296 1303 398 1364 C 499 1425 618 1456 754 1456 C 864 1456 956 1443 1030 1417 C 1104 1391 1167 1350 1217 1296 C 1267 1241 1312 1161 1354 1055 L 993 913 C 963 987 930 1039 894 1067 C 857 1095 810 1110 752 1110 C 585 1110 502 979 502 717 C 502 577 524 475 569 410 C 613 345 683 313 778 313 C 850 313 906 327 945 357 C 984 386 1008 430 1018 489 L 758 489 L 758 786 L 1389 786 L 1389 612 Z" unicode="G" />
<glyph horiz-adv-x="1548" d="M 1403 0 L 997 0 L 997 565 L 551 565 L 551 0 L 145 0 L 145 1434 L 551 1434 L 551 911 L 997 911 L 997 1434 L 1403 1434 L 1403 0 Z" unicode="H" />
<glyph horiz-adv-x="717" d="M 561 0 L 156 0 L 156 1434 L 561 1434 L 561 0 Z" unicode="I" />
<glyph horiz-adv-x="1413" d="M 1274 584 C 1274 388 1222 238 1119 134 C 1016 29 867 -23 672 -23 C 500 -23 364 17 262 97 C 160 177 89 302 47 473 L 436 575 C 463 482 495 418 531 382 C 567 346 616 328 678 328 C 742 328 789 348 821 389 C 852 429 868 484 868 553 L 868 1434 L 1274 1434 L 1274 584 Z" unicode="J" />
<glyph horiz-adv-x="1503" d="M 1468 0 L 997 0 L 698 610 L 551 432 L 551 0 L 145 0 L 145 1434 L 551 1434 L 551 1266 C 551 1134 549 1016 545 911 C 564 943 598 992 647 1059 C 696 1126 792 1251 936 1434 L 1419 1434 L 987 928 L 1468 0 Z" unicode="K" />
<glyph horiz-adv-x="1260" d="M 1182 0 L 145 0 L 145 1434 L 547 1434 L 547 346 L 1182 346 L 1182 0 Z" unicode="L" />
<glyph horiz-adv-x="1729" d="M 1583 0 L 1210 0 L 1210 342 C 1210 495 1213 622 1219 723 C 1202 681 1179 626 1149 558 C 1119 490 1024 287 864 -49 C 766 155 690 316 636 432 C 582 548 540 645 510 723 C 515 633 518 506 518 342 L 518 0 L 145 0 L 145 1434 L 510 1434 L 686 1051 C 792 815 852 671 866 618 C 894 709 954 853 1047 1051 L 1223 1434 L 1583 1434 L 1583 0 Z" unicode="M" />
<glyph horiz-adv-x="1548" d="M 1403 0 L 1079 0 L 737 473 C 705 515 665 575 615 651 C 565 727 531 779 514 809 C 522 761 526 637 526 438 L 526 0 L 145 0 L 145 1434 L 496 1434 L 811 1010 C 839 972 880 913 933 835 C 985 756 1019 702 1034 672 C 1026 720 1022 843 1022 1042 L 1022 1434 L 1403 1434 L 1403 0 Z" unicode="N" />
<glyph horiz-adv-x="1499" d="M 1413 719 C 1413 567 1385 436 1331 324 C 1277 212 1199 126 1098 66 C 997 6 880 -23 748 -23 C 614 -23 498 6 398 65 C 298 123 221 208 167 320 C 113 432 86 563 86 715 C 86 866 113 998 167 1110 C 221 1222 299 1307 401 1367 C 502 1426 619 1456 752 1456 C 885 1456 1002 1426 1102 1368 C 1202 1309 1278 1224 1332 1113 C 1386 1001 1413 870 1413 719 Z M 1001 715 C 1001 845 978 943 934 1010 C 890 1076 828 1110 748 1110 C 667 1110 605 1077 562 1012 C 519 946 498 849 498 719 C 498 589 520 490 564 424 C 608 357 671 324 752 324 C 832 324 893 356 936 422 C 979 487 1001 585 1001 715 Z" unicode="O" />
<glyph horiz-adv-x="1391" d="M 1321 958 C 1321 629 1125 465 735 465 L 537 465 L 537 0 L 145 0 L 145 1434 L 762 1434 C 1134 1434 1321 1275 1321 958 Z M 926 952 C 926 1057 868 1110 752 1110 L 537 1110 L 537 788 L 745 788 C 809 788 856 801 884 829 C 912 857 926 898 926 952 Z" unicode="P" />
<glyph horiz-adv-x="1499" d="M 1413 719 C 1413 512 1351 339 1229 199 L 1346 47 L 1077 -129 L 973 18 C 899 -9 824 -23 748 -23 C 614 -23 498 6 398 65 C 298 123 221 208 167 320 C 113 432 86 563 86 715 C 86 866 113 998 167 1110 C 221 1222 299 1307 401 1367 C 502 1426 619 1456 752 1456 C 885 1456 1002 1426 1102 1368 C 1202 1309 1278 1224 1332 1113 C 1386 1001 1413 870 1413 719 Z M 1018 715 C 1018 837 994 933 946 1004 C 898 1074 832 1110 748 1110 C 667 1110 605 1077 562 1012 C 519 946 498 849 498 719 C 498 583 519 479 563 409 C 606 338 669 303 752 303 L 770 303 L 647 465 L 911 637 L 999 510 C 1011 563 1018 631 1018 715 Z" unicode="Q" />
<glyph horiz-adv-x="1466" d="M 1374 0 L 930 0 L 696 483 L 537 483 L 537 0 L 145 0 L 145 1434 L 786 1434 C 974 1434 1114 1394 1207 1315 C 1299 1236 1346 1120 1346 967 C 1346 766 1259 626 1087 547 L 1374 0 Z M 950 956 C 950 1008 934 1046 904 1072 C 874 1097 831 1110 776 1110 L 537 1110 L 537 797 L 770 797 C 834 797 880 810 908 838 C 936 865 950 904 950 956 Z" unicode="R" />
<glyph horiz-adv-x="1391" d="M 1286 440 C 1286 290 1234 175 1132 96 C 1030 16 884 -23 694 -23 C 588 -23 481 -7 374 23 C 267 54 172 97 90 152 L 283 463 C 342 421 412 387 492 360 C 572 332 642 319 702 319 C 772 319 820 326 848 340 C 875 354 889 378 889 412 C 889 439 871 462 837 481 C 803 500 739 521 645 543 C 504 575 399 610 331 648 C 262 686 212 733 180 789 C 148 845 133 917 133 1004 C 133 1093 156 1172 202 1241 C 248 1310 315 1363 401 1400 C 487 1437 586 1456 698 1456 C 810 1456 912 1443 1005 1417 C 1097 1391 1186 1348 1270 1290 L 1077 979 C 944 1069 811 1114 678 1114 C 626 1114 589 1107 565 1093 C 541 1079 530 1056 530 1026 C 530 1000 545 978 577 962 C 608 946 671 927 766 905 C 959 859 1094 801 1171 732 C 1247 662 1286 565 1286 440 Z" unicode="S" />
<glyph horiz-adv-x="1372" d="M 1286 1087 L 885 1087 L 885 0 L 487 0 L 487 1087 L 86 1087 L 86 1434 L 1286 1434 L 1286 1087 Z" unicode="T" />
<glyph horiz-adv-x="1532" d="M 1395 612 C 1395 408 1340 252 1231 142 C 1122 32 966 -23 762 -23 C 558 -23 403 31 297 141 C 190 250 137 407 137 612 L 137 1434 L 543 1434 L 543 612 C 543 524 561 454 597 404 C 633 353 690 328 768 328 C 915 328 989 422 989 612 L 989 1434 L 1395 1434 L 1395 612 Z" unicode="U" />
<glyph horiz-adv-x="1507" d="M 1448 1434 L 954 0 L 553 0 L 59 1434 L 506 1434 L 610 1049 C 641 933 671 814 700 693 C 728 571 747 488 756 442 C 768 506 789 602 820 731 C 851 860 913 1094 1006 1434 L 1448 1434 Z" unicode="V" />
<glyph horiz-adv-x="1896" d="M 1819 1434 L 1477 0 L 1110 0 L 1044 311 C 1026 393 1006 497 985 625 C 963 753 950 846 946 905 C 941 845 928 754 907 630 C 886 506 866 399 848 311 L 782 0 L 420 0 L 78 1434 L 487 1434 C 535 1135 567 932 582 826 C 597 720 607 635 612 571 C 617 629 629 712 648 820 C 666 928 706 1133 768 1434 L 1133 1434 C 1197 1116 1238 908 1254 812 C 1270 716 1281 635 1288 571 C 1294 640 1305 727 1319 833 C 1333 939 1365 1139 1413 1434 L 1819 1434 Z" unicode="W" />
<glyph horiz-adv-x="1499" d="M 1440 0 L 979 0 L 883 166 C 820 274 774 362 745 430 C 733 401 718 370 700 336 C 682 302 619 190 510 0 L 59 0 L 528 725 L 76 1434 L 537 1434 C 601 1320 651 1232 687 1168 C 723 1104 745 1059 754 1032 C 769 1067 788 1106 812 1149 C 835 1191 889 1286 973 1434 L 1423 1434 L 971 733 L 1440 0 Z" unicode="X" />
<glyph horiz-adv-x="1528" d="M 1495 1434 L 965 535 L 965 0 L 563 0 L 563 528 L 33 1434 L 492 1434 C 600 1219 670 1078 700 1010 C 730 942 752 887 766 846 C 774 870 785 901 800 937 C 815 973 833 1015 855 1063 C 877 1111 938 1234 1040 1434 L 1495 1434 Z" unicode="Y" />
<glyph horiz-adv-x="1454" d="M 1311 0 L 135 0 L 135 285 L 555 797 C 647 905 741 1012 838 1116 C 754 1112 612 1110 412 1110 L 176 1110 L 176 1434 L 1307 1434 L 1307 1149 L 887 637 C 811 545 716 438 604 317 C 702 321 844 324 1030 324 L 1311 324 L 1311 0 Z" unicode="Z" />
<glyph horiz-adv-x="948" d="M 786 -225 L 162 -225 L 162 1434 L 786 1434 L 786 1133 L 532 1133 L 532 76 L 786 76 L 786 -225 Z" unicode="[" />
<glyph horiz-adv-x="1044" d="M 1077 -184 L 688 -184 L -33 1618 L 356 1618 L 1077 -184 Z" unicode="\" />
<glyph horiz-adv-x="948" d="M 786 -225 L 162 -225 L 162 76 L 416 76 L 416 1133 L 162 1133 L 162 1434 L 786 1434 L 786 -225 Z" unicode="]" />
<glyph horiz-adv-x="1270" d="M 1219 741 L 834 741 L 633 1116 L 432 741 L 51 741 L 471 1434 L 799 1434 L 1219 741 Z" unicode="^" />
<glyph horiz-adv-x="1024" d="M 1024 -406 L 0 -406 L 0 -125 L 1024 -125 L 1024 -406 Z" unicode="_" />
<glyph horiz-adv-x="1024" d="M 770 1219 L 508 1219 L 186 1546 L 623 1546 L 770 1219 Z" unicode="`" />
<glyph horiz-adv-x="1143" d="M 1036 0 L 688 0 L 688 72 C 606 8 518 -23 426 -23 C 316 -23 231 9 170 75 C 108 141 78 232 78 348 C 78 458 112 543 181 605 C 249 667 344 698 465 698 C 546 698 620 683 688 653 L 688 707 C 688 754 675 787 650 806 C 624 824 587 834 537 834 C 479 834 427 828 383 816 C 338 804 290 784 238 756 L 141 999 C 277 1065 431 1098 604 1098 C 746 1098 853 1064 926 998 C 999 931 1036 831 1036 698 L 1036 0 Z M 688 291 L 688 438 C 642 458 589 469 530 469 C 454 469 416 430 416 354 C 416 320 425 293 443 271 C 461 249 490 238 530 238 C 561 238 591 243 619 253 C 647 263 670 276 688 291 Z" unicode="a" />
<glyph horiz-adv-x="1171" d="M 1096 541 C 1096 354 1064 213 1001 119 C 937 24 845 -23 723 -23 C 683 -23 645 -15 607 -1 C 569 12 528 37 483 72 L 483 0 L 115 0 L 115 1346 L 483 1493 L 483 999 C 530 1036 573 1062 611 1076 C 649 1090 691 1098 737 1098 C 851 1098 940 1049 1002 953 C 1064 857 1096 719 1096 541 Z M 731 528 C 731 622 722 690 706 732 C 689 774 658 795 614 795 C 570 795 527 777 483 743 L 483 332 C 502 316 522 304 542 295 C 562 285 587 281 616 281 C 660 281 690 300 706 340 C 722 379 731 442 731 528 Z" unicode="b" />
<glyph horiz-adv-x="1065" d="M 1008 233 C 944 140 880 74 815 35 C 750 -3 670 -23 575 -23 C 414 -23 290 26 203 125 C 115 224 72 363 72 541 C 72 717 117 853 207 951 C 297 1049 422 1098 584 1098 C 674 1098 752 1078 818 1040 C 884 1001 943 938 997 852 L 743 659 C 713 714 687 751 664 770 C 640 789 612 799 578 799 C 483 799 436 711 436 535 C 436 362 486 276 588 276 C 623 276 654 286 682 308 C 710 330 740 366 774 416 L 1008 233 Z" unicode="c" />
<glyph horiz-adv-x="1171" d="M 1057 0 L 686 0 L 686 76 C 640 38 598 12 558 -1 C 518 -15 476 -23 432 -23 C 318 -23 230 25 168 121 C 106 217 76 355 76 535 C 76 719 107 859 169 955 C 231 1050 324 1098 446 1098 C 485 1098 523 1091 561 1077 C 599 1063 640 1038 686 1004 L 686 1346 L 1057 1493 L 1057 0 Z M 686 332 L 686 743 C 667 758 648 770 628 780 C 608 790 583 795 555 795 C 511 795 481 776 464 739 C 446 701 438 637 438 547 C 438 450 446 381 464 341 C 482 301 513 281 557 281 C 601 281 644 298 686 332 Z" unicode="d" />
<glyph horiz-adv-x="1114" d="M 1042 504 L 1042 464 L 1040 432 L 410 432 C 416 372 435 328 468 301 C 500 273 542 260 592 260 C 639 260 683 265 725 277 C 767 288 815 308 870 336 L 1012 100 C 870 18 724 -23 573 -23 C 417 -23 294 27 205 128 C 116 229 72 365 72 537 C 72 711 115 848 203 948 C 291 1048 411 1098 563 1098 C 717 1098 836 1046 918 944 C 1000 842 1042 695 1042 504 Z M 717 662 C 706 723 688 765 663 789 C 638 813 601 825 553 825 C 469 825 422 770 410 662 L 717 662 Z" unicode="e" />
<glyph horiz-adv-x="784" d="M 725 1204 C 693 1219 657 1227 618 1227 C 590 1227 570 1221 560 1211 C 550 1201 545 1183 545 1159 L 545 1075 L 711 1075 L 711 786 L 551 786 L 551 0 L 188 0 L 188 786 L 74 786 L 74 1075 L 188 1075 L 188 1180 C 188 1289 212 1367 261 1415 C 309 1463 386 1487 492 1487 C 590 1487 668 1472 725 1442 L 725 1204 Z" unicode="f" />
<glyph horiz-adv-x="1171" d="M 1057 162 C 1057 44 1038 -52 1002 -126 C 965 -200 907 -259 829 -301 C 750 -343 639 -374 496 -395 L 360 -182 C 455 -166 524 -150 567 -133 C 610 -116 641 -94 659 -68 C 677 -41 686 -2 686 49 L 686 86 C 636 48 592 22 554 8 C 516 -5 475 -12 432 -12 C 315 -12 226 35 166 129 C 106 223 76 359 76 535 C 76 719 107 859 169 955 C 231 1050 324 1098 446 1098 C 485 1098 523 1091 561 1077 C 599 1063 640 1038 686 1004 L 686 1075 L 1057 1075 L 1057 162 Z M 686 332 L 686 743 C 667 758 648 770 628 780 C 608 790 583 795 555 795 C 511 795 481 776 464 739 C 446 701 438 637 438 547 C 438 450 446 381 464 341 C 482 301 513 281 557 281 C 601 281 644 298 686 332 Z" unicode="g" />
<glyph horiz-adv-x="1208" d="M 1102 0 L 731 0 L 731 610 C 731 672 721 717 702 745 C 682 772 651 786 608 786 C 563 786 531 772 512 745 C 492 717 483 674 483 614 L 483 0 L 115 0 L 115 1346 L 483 1493 L 483 1004 C 527 1037 570 1061 612 1076 C 654 1090 702 1098 754 1098 C 871 1098 958 1059 1016 983 C 1073 907 1102 798 1102 657 L 1102 0 Z" unicode="h" />
<glyph horiz-adv-x="618" d="M 524 1335 C 524 1280 504 1236 466 1203 C 427 1169 375 1153 309 1153 C 245 1153 193 1170 155 1204 C 117 1238 98 1281 98 1335 C 98 1386 117 1428 156 1462 C 195 1496 246 1513 309 1513 C 372 1513 424 1496 464 1464 C 504 1431 524 1388 524 1335 Z M 494 0 L 125 0 L 125 1075 L 494 1075 L 494 0 Z" unicode="i" />
<glyph horiz-adv-x="618" d="M 524 1335 C 524 1280 504 1236 466 1203 C 427 1169 375 1153 309 1153 C 245 1153 193 1170 155 1204 C 117 1238 98 1281 98 1335 C 98 1386 117 1428 156 1462 C 195 1496 246 1513 309 1513 C 372 1513 424 1496 464 1464 C 504 1431 524 1388 524 1335 Z M 494 102 C 494 -57 458 -174 386 -250 C 314 -326 188 -374 10 -395 L -113 -141 C -22 -129 40 -107 74 -75 C 108 -43 125 8 125 82 L 125 1075 L 494 1075 L 494 102 Z" unicode="j" />
<glyph horiz-adv-x="1176" d="M 1139 0 L 741 0 L 580 449 L 483 326 L 483 0 L 115 0 L 115 1346 L 483 1493 L 483 1055 C 483 951 481 850 477 750 C 505 802 583 911 711 1075 L 1130 1075 L 852 752 L 1139 0 Z" unicode="k" />
<glyph horiz-adv-x="618" d="M 494 0 L 125 0 L 125 1346 L 494 1493 L 494 0 Z" unicode="l" />
<glyph horiz-adv-x="1802" d="M 1696 0 L 1325 0 L 1325 610 C 1325 672 1316 717 1298 745 C 1280 772 1250 786 1208 786 C 1164 786 1134 772 1116 744 C 1098 716 1090 672 1090 614 L 1090 0 L 721 0 L 721 610 C 721 673 711 718 693 745 C 674 772 644 786 602 786 C 558 786 528 772 510 744 C 492 716 483 673 483 614 L 483 0 L 115 0 L 115 1075 L 483 1075 L 483 1004 C 559 1066 645 1098 739 1098 C 805 1098 862 1088 910 1068 C 958 1048 1000 1017 1036 977 C 1088 1020 1139 1051 1188 1070 C 1237 1088 1291 1098 1350 1098 C 1580 1098 1696 951 1696 657 L 1696 0 Z" unicode="m" />
<glyph horiz-adv-x="1208" d="M 1102 0 L 731 0 L 731 610 C 731 672 721 717 702 745 C 682 772 651 786 608 786 C 563 786 531 772 512 745 C 492 717 483 674 483 614 L 483 0 L 115 0 L 115 1075 L 483 1075 L 483 1004 C 527 1037 570 1061 612 1076 C 654 1090 702 1098 754 1098 C 871 1098 958 1059 1016 983 C 1073 907 1102 798 1102 657 L 1102 0 Z" unicode="n" />
<glyph horiz-adv-x="1165" d="M 1094 539 C 1094 362 1048 224 956 125 C 864 26 740 -23 582 -23 C 423 -23 298 26 208 126 C 117 226 72 363 72 539 C 72 655 92 756 134 840 C 175 924 234 988 312 1032 C 389 1076 479 1098 582 1098 C 740 1098 864 1049 956 951 C 1048 853 1094 715 1094 539 Z M 727 539 C 727 630 714 696 690 737 C 666 778 630 799 582 799 C 533 799 496 778 472 737 C 448 696 436 630 436 539 C 436 363 484 276 582 276 C 678 276 727 363 727 539 Z" unicode="o" />
<glyph horiz-adv-x="1171" d="M 1096 541 C 1096 354 1064 213 1001 119 C 937 24 845 -23 723 -23 C 683 -23 645 -15 607 -1 C 569 12 528 37 483 72 L 483 -248 L 115 -395 L 115 1075 L 483 1075 L 483 999 C 530 1036 573 1062 611 1076 C 649 1090 691 1098 737 1098 C 851 1098 940 1049 1002 953 C 1064 857 1096 719 1096 541 Z M 731 528 C 731 622 722 690 706 732 C 689 774 658 795 614 795 C 570 795 527 777 483 743 L 483 332 C 502 316 522 304 542 295 C 562 285 587 281 616 281 C 660 281 690 300 706 340 C 722 379 731 442 731 528 Z" unicode="p" />
<glyph horiz-adv-x="1171" d="M 1057 -248 L 686 -395 L 686 76 C 640 38 598 12 558 -1 C 518 -15 476 -23 432 -23 C 318 -23 230 25 168 121 C 106 217 76 355 76 535 C 76 719 107 859 169 955 C 231 1050 324 1098 446 1098 C 485 1098 523 1091 561 1077 C 599 1063 640 1038 686 1004 L 686 1075 L 1057 1075 L 1057 -248 Z M 686 332 L 686 743 C 667 758 648 770 628 780 C 608 790 583 795 555 795 C 511 795 481 776 464 739 C 446 701 438 637 438 547 C 438 450 446 381 464 341 C 482 301 513 281 557 281 C 601 281 644 298 686 332 Z" unicode="q" />
<glyph horiz-adv-x="918" d="M 887 1053 L 801 670 C 745 730 688 760 629 760 C 579 760 543 746 519 719 C 495 691 483 647 483 586 L 483 0 L 115 0 L 115 1075 L 483 1075 L 483 997 C 551 1064 628 1098 713 1098 C 781 1098 839 1083 887 1053 Z" unicode="r" />
<glyph horiz-adv-x="1071" d="M 981 340 C 981 221 942 131 866 69 C 790 7 680 -23 537 -23 C 387 -23 237 6 88 66 L 174 344 C 238 316 303 293 371 276 C 438 258 496 250 545 250 C 581 250 606 254 621 262 C 635 270 643 282 643 299 C 643 317 637 330 626 340 C 614 349 591 358 557 367 C 425 401 331 434 273 465 C 215 495 173 532 148 574 C 123 616 111 673 111 745 C 111 859 148 947 224 1007 C 299 1067 407 1098 549 1098 C 621 1098 687 1092 749 1080 C 810 1068 881 1048 963 1020 L 881 735 C 744 795 630 825 539 825 C 503 825 479 821 467 814 C 455 806 449 794 449 778 C 449 760 455 746 468 738 C 481 729 510 718 555 705 C 678 671 767 639 823 609 C 879 579 919 543 944 501 C 968 459 981 405 981 340 Z" unicode="s" />
<glyph horiz-adv-x="922" d="M 821 348 L 774 35 C 694 -3 605 -23 508 -23 C 410 -23 338 4 292 58 C 246 112 223 199 223 319 L 223 786 L 59 786 L 59 1075 L 223 1075 L 223 1348 L 582 1493 L 582 1075 L 815 1075 L 815 786 L 582 786 L 582 397 C 582 358 588 331 602 315 C 616 299 640 291 674 291 C 698 291 722 295 744 305 C 766 314 792 328 821 348 Z" unicode="t" />
<glyph horiz-adv-x="1208" d="M 1094 0 L 723 0 L 723 72 C 681 38 639 14 597 0 C 554 -15 507 -23 455 -23 C 337 -23 249 15 192 91 C 134 167 106 276 106 418 L 106 1075 L 477 1075 L 477 465 C 477 403 486 359 505 331 C 524 303 556 289 600 289 C 643 289 674 302 694 330 C 713 357 723 401 723 461 L 723 1075 L 1094 1075 L 1094 0 Z" unicode="u" />
<glyph horiz-adv-x="1169" d="M 1139 1075 L 766 0 L 403 0 L 31 1075 L 422 1075 L 518 680 C 550 559 572 452 584 358 C 590 404 599 458 613 519 C 627 580 672 765 750 1075 L 1139 1075 Z" unicode="v" />
<glyph horiz-adv-x="1518" d="M 1483 1075 L 1180 0 L 881 0 C 841 191 811 343 791 455 C 771 567 759 634 756 657 L 741 574 C 730 512 717 443 703 365 C 688 287 663 165 629 0 L 338 0 L 35 1075 L 391 1075 L 422 915 C 436 841 455 723 479 561 L 492 477 C 529 694 557 842 575 920 L 610 1075 L 913 1075 C 961 846 1000 647 1030 477 C 1041 560 1074 759 1130 1075 L 1483 1075 Z" unicode="w" />
<glyph horiz-adv-x="1176" d="M 1147 0 L 745 0 C 659 159 604 267 580 324 C 540 236 484 128 412 0 L 31 0 L 397 561 L 72 1075 L 473 1075 L 513 996 C 553 916 581 853 596 809 C 602 825 609 843 617 861 C 625 879 660 951 723 1075 L 1106 1075 L 776 578 L 1147 0 Z" unicode="x" />
<glyph horiz-adv-x="1208" d="M 1178 1075 L 657 -379 L 305 -379 L 440 -45 L 31 1075 L 422 1075 L 524 692 C 566 531 594 403 606 309 C 621 409 649 538 690 696 L 791 1075 L 1178 1075 Z" unicode="y" />
<glyph horiz-adv-x="1157" d="M 1040 0 L 106 0 L 106 256 L 342 512 C 402 578 490 668 606 784 C 472 778 380 776 330 776 L 131 776 L 131 1075 L 1040 1075 L 1040 819 C 850 613 739 492 706 458 C 672 423 617 367 541 291 C 674 296 766 299 817 299 L 1040 299 L 1040 0 Z" unicode="z" />
<glyph horiz-adv-x="1044" d="M 934 -225 C 714 -225 551 -189 445 -119 C 339 -49 287 58 287 203 L 287 356 C 287 387 276 412 256 430 C 236 448 206 457 166 457 L 96 457 L 96 764 L 166 764 C 206 764 236 772 256 790 C 276 807 287 832 287 864 L 287 1016 C 287 1160 340 1268 446 1338 C 552 1408 714 1444 934 1444 L 934 1206 C 844 1196 781 1173 746 1139 C 711 1105 694 1045 694 961 L 694 911 C 694 845 686 793 672 754 C 657 715 635 685 605 664 C 575 643 518 625 436 610 C 518 595 575 577 605 556 C 635 534 658 504 672 464 C 686 424 694 372 694 307 L 694 258 C 694 198 701 152 716 121 C 730 90 755 66 789 49 C 823 31 871 19 934 12 L 934 -225 Z" unicode="{" />
<glyph horiz-adv-x="664" d="M 514 -379 L 150 -379 L 150 1638 L 514 1638 L 514 -379 Z" unicode="|" />
<glyph horiz-adv-x="1044" d="M 948 455 L 879 455 C 798 455 758 421 758 354 L 758 203 C 758 58 704 -49 598 -119 C 492 -189 329 -225 111 -225 L 111 12 C 203 23 265 46 299 80 C 333 114 350 174 350 258 L 350 307 C 350 373 357 425 372 464 C 386 503 408 533 438 554 C 468 575 524 593 608 608 C 525 622 468 640 438 662 C 408 683 385 713 371 753 C 357 793 350 845 350 911 L 350 961 C 350 1045 332 1104 298 1139 C 264 1173 201 1196 111 1206 L 111 1444 C 329 1444 491 1409 598 1339 C 704 1269 758 1161 758 1016 L 758 862 C 758 795 798 762 879 762 L 948 762 L 948 455 Z" unicode="}" />
<glyph horiz-adv-x="1192" d="M 1100 895 C 1044 761 992 667 944 615 C 895 563 838 537 774 537 C 751 537 732 538 717 541 C 701 544 686 549 671 556 C 656 562 629 578 590 602 C 540 632 505 651 487 660 C 468 669 452 674 440 674 C 418 674 400 664 385 646 C 369 628 346 588 315 526 L 92 625 C 147 759 199 852 248 904 C 296 956 353 983 418 983 C 439 983 457 981 473 978 C 488 975 503 971 517 965 C 531 959 559 943 602 918 C 650 888 684 868 704 859 C 723 850 739 846 752 846 C 771 846 787 852 800 866 C 813 880 839 922 877 993 L 1100 895 Z" unicode="~" />
<glyph horiz-adv-x="1217" d="M 1104 176 L 784 176 L 784 -205 L 432 -205 L 432 176 L 113 176 L 113 494 L 432 494 L 432 735 L 113 735 L 113 1053 L 432 1053 L 432 1434 L 784 1434 L 784 1053 L 1104 1053 L 1104 735 L 784 735 L 784 494 L 1104 494 L 1104 176 Z" unicode="‡" />
<glyph horiz-adv-x="1712" d="M 1595 717 C 1595 582 1563 458 1501 346 C 1439 233 1350 143 1236 77 C 1122 10 995 -23 856 -23 C 720 -23 595 9 482 73 C 368 137 279 226 214 340 C 149 454 117 579 117 717 C 117 854 149 979 214 1093 C 278 1206 367 1295 481 1359 C 594 1423 719 1456 856 1456 C 993 1456 1118 1423 1232 1359 C 1345 1294 1434 1205 1498 1092 C 1562 978 1595 853 1595 717 Z M 1444 717 C 1444 831 1419 933 1369 1023 C 1319 1113 1248 1184 1158 1235 C 1067 1285 966 1311 856 1311 C 744 1311 643 1285 553 1235 C 462 1184 392 1113 342 1023 C 292 932 268 830 268 717 C 268 602 293 499 343 409 C 393 318 463 248 553 198 C 643 148 744 123 856 123 C 968 123 1069 148 1159 198 C 1249 248 1319 318 1369 409 C 1419 499 1444 602 1444 717 Z M 1235 852 C 1235 667 1125 575 907 575 L 797 575 L 797 315 L 578 315 L 578 1118 L 924 1118 C 1131 1118 1235 1029 1235 852 Z M 1014 848 C 1014 906 982 936 918 936 L 797 936 L 797 756 L 913 756 C 980 756 1014 786 1014 848 Z" unicode="℗" />
<glyph horiz-adv-x="643" d="M 557 752 C 557 683 534 626 490 582 C 445 538 389 516 322 516 C 253 516 196 538 152 583 C 108 627 86 684 86 752 C 86 818 108 873 152 917 C 196 961 252 983 322 983 C 390 983 447 961 491 917 C 535 873 557 818 557 752 Z" unicode="∙" />
<glyph horiz-adv-x="1536" d="M 468 1216 C 566 1216 646 1188 706 1134 C 766 1079 813 981 848 840 C 853 720 877 642 920 608 C 962 573 1013 556 1072 556 C 1128 556 1176 579 1218 626 C 1259 672 1280 736 1280 816 C 1280 882 1264 940 1234 988 C 1203 1036 1152 1060 1080 1060 C 1008 1060 954 1029 920 968 C 885 906 857 834 836 752 C 809 648 760 562 688 496 C 616 429 533 396 440 396 C 336 396 252 433 190 508 C 127 582 96 682 96 808 C 96 925 133 1022 208 1100 C 282 1177 369 1216 468 1216 Z M 1072 396 C 973 396 896 424 840 482 C 784 539 741 633 712 764 C 685 870 652 944 614 986 C 575 1027 528 1048 472 1048 C 408 1048 356 1026 316 982 C 276 938 256 874 256 792 C 256 709 271 648 302 610 C 332 571 381 552 448 552 C 509 552 562 576 608 624 C 653 672 689 752 716 864 C 748 984 796 1072 860 1130 C 924 1187 1004 1216 1100 1216 C 1198 1216 1280 1181 1346 1112 C 1411 1042 1444 945 1444 820 C 1444 700 1409 599 1340 518 C 1270 436 1181 396 1072 396 Z" unicode="∞" />
<glyph horiz-adv-x="1446" d="M 1372 1434 L 834 0 L 455 0 L 78 696 L 467 696 C 559 499 614 365 631 293 C 640 359 667 460 711 596 L 977 1434 L 1372 1434 Z" unicode="√" />
<glyph horiz-adv-x="338" d="" unicode=" " />
<glyph horiz-adv-x="717" d="M 571 1243 C 571 1183 551 1133 511 1093 C 471 1053 420 1034 358 1034 C 296 1034 245 1053 205 1093 C 165 1133 145 1183 145 1243 C 145 1304 165 1355 206 1395 C 246 1435 297 1456 358 1456 C 418 1456 468 1435 509 1395 C 550 1355 571 1304 571 1243 Z M 561 0 L 156 0 L 156 512 L 223 922 L 494 922 L 561 512 L 561 0 Z" unicode="¡" />
<glyph horiz-adv-x="1065" d="M 1008 424 C 964 360 921 310 878 272 C 835 234 787 206 735 190 L 735 -23 L 379 -23 L 379 199 C 281 233 205 296 152 386 C 98 476 72 591 72 731 C 72 864 98 976 151 1067 C 203 1157 279 1220 379 1255 L 379 1456 L 735 1456 L 735 1268 C 793 1249 842 1220 884 1182 C 925 1143 963 1096 997 1042 L 743 850 C 712 906 685 944 662 962 C 638 980 610 989 578 989 C 483 989 436 901 436 725 C 436 553 486 467 588 467 C 624 467 656 478 685 501 C 713 523 743 558 774 606 L 1008 424 Z" unicode="¢" />
<glyph horiz-adv-x="1421" d="M 1329 1298 L 1161 1010 C 1095 1054 1030 1085 967 1104 C 904 1123 838 1133 768 1133 C 710 1133 669 1122 644 1102 C 618 1081 606 1055 606 1024 C 606 993 616 962 637 930 C 665 884 686 843 700 807 L 1014 807 L 1014 530 L 719 530 C 702 443 666 367 612 303 L 1296 303 L 1296 0 L 166 0 L 166 240 C 222 280 264 322 294 367 C 324 412 344 466 354 530 L 166 530 L 166 807 L 322 807 L 279 887 C 237 958 217 1026 217 1090 C 217 1208 265 1298 362 1361 C 458 1424 595 1456 772 1456 C 984 1456 1170 1403 1329 1298 Z" unicode="£" />
<glyph horiz-adv-x="1152" d="M 1056 392 L 940 284 L 740 500 C 692 468 636 452 572 452 C 510 452 456 468 408 500 L 208 284 L 92 392 L 300 608 C 281 634 268 660 262 686 C 255 711 252 742 252 780 C 252 848 268 906 300 952 L 92 1168 L 208 1276 L 408 1060 C 456 1092 510 1108 572 1108 C 636 1108 692 1092 740 1060 L 944 1276 L 1060 1156 L 852 952 C 870 925 883 898 890 872 C 896 845 900 814 900 780 C 900 716 882 658 848 608 L 1056 392 Z M 748 780 C 748 833 731 876 698 910 C 664 943 622 960 572 960 C 521 960 480 943 448 910 C 416 876 400 833 400 780 C 400 726 416 684 450 652 C 483 620 524 604 572 604 C 625 604 668 620 700 652 C 732 684 748 726 748 780 Z" unicode="¤" />
<glyph horiz-adv-x="1487" d="M 1454 1434 L 934 524 L 934 489 L 1262 489 L 1262 193 L 934 193 L 934 0 L 553 0 L 553 193 L 225 193 L 225 489 L 553 489 L 553 518 L 33 1434 L 492 1434 C 592 1221 655 1081 682 1015 C 709 949 730 892 745 846 C 758 889 778 943 804 1007 C 830 1071 895 1213 999 1434 L 1454 1434 Z" unicode="¥" />
<glyph horiz-adv-x="640" d="M 216 788 L 216 1636 L 424 1636 L 424 788 L 216 788 Z M 216 -412 L 216 440 L 424 440 L 424 -412 L 216 -412 Z" unicode="¦" />
<glyph horiz-adv-x="1479" d="M 1366 535 C 1366 465 1349 402 1315 344 C 1281 286 1229 233 1157 184 C 1179 141 1190 86 1190 18 C 1190 -90 1150 -176 1070 -240 C 990 -304 877 -336 731 -336 C 645 -336 557 -324 468 -301 C 379 -277 306 -247 250 -211 L 371 68 C 425 36 484 11 550 -9 C 616 -29 682 -39 750 -39 C 789 -39 815 -34 828 -26 C 841 -18 848 -7 848 6 C 848 29 836 48 813 62 C 790 76 746 95 680 117 C 498 175 372 224 302 262 C 232 300 183 342 155 389 C 127 435 113 501 113 586 C 113 655 129 718 162 775 C 195 832 247 886 319 936 C 299 979 289 1034 289 1102 C 289 1210 329 1296 409 1360 C 489 1424 602 1456 748 1456 C 834 1456 921 1444 1009 1421 C 1097 1397 1171 1367 1229 1331 L 1108 1053 C 982 1123 855 1159 729 1159 C 693 1159 668 1155 653 1149 C 638 1142 631 1130 631 1114 C 631 1096 636 1082 647 1072 C 658 1061 676 1050 701 1039 C 726 1028 759 1016 799 1004 C 973 947 1096 899 1170 861 C 1243 822 1294 779 1323 732 C 1351 685 1366 619 1366 535 Z M 1004 504 C 1004 532 996 554 981 570 C 965 586 938 602 900 619 C 862 636 806 656 733 680 C 653 704 592 728 549 750 C 524 731 505 711 493 691 C 481 670 475 645 475 616 C 475 588 482 565 498 549 C 514 533 541 516 579 499 C 617 482 673 462 745 440 C 817 418 879 395 930 371 C 954 389 973 409 985 429 C 997 449 1004 474 1004 504 Z" unicode="§" />
<glyph horiz-adv-x="1024" d="M 938 1405 C 938 1358 919 1317 883 1282 C 846 1246 804 1229 758 1229 C 709 1229 666 1246 629 1281 C 591 1316 573 1357 573 1405 C 573 1454 591 1496 628 1532 C 664 1567 708 1585 758 1585 C 806 1585 848 1567 884 1531 C 920 1495 938 1453 938 1405 Z M 451 1405 C 451 1358 432 1317 396 1282 C 359 1246 316 1229 268 1229 C 220 1229 177 1246 141 1282 C 104 1317 86 1358 86 1405 C 86 1453 103 1495 139 1531 C 175 1567 218 1585 268 1585 C 318 1585 361 1567 397 1531 C 433 1495 451 1453 451 1405 Z" unicode="¨" />
<glyph horiz-adv-x="1712" d="M 1595 717 C 1595 582 1563 458 1501 346 C 1439 233 1350 143 1236 77 C 1122 10 995 -23 856 -23 C 720 -23 595 9 482 73 C 368 137 279 226 214 340 C 149 454 117 579 117 717 C 117 854 149 979 214 1093 C 278 1206 367 1295 481 1359 C 594 1423 719 1456 856 1456 C 993 1456 1118 1423 1232 1359 C 1345 1294 1434 1205 1498 1092 C 1562 978 1595 853 1595 717 Z M 1444 717 C 1444 831 1419 933 1369 1023 C 1319 1113 1248 1184 1158 1235 C 1067 1285 966 1311 856 1311 C 744 1311 643 1285 553 1235 C 462 1184 392 1113 342 1023 C 292 932 268 830 268 717 C 268 602 293 499 343 409 C 393 318 463 248 553 198 C 643 148 744 123 856 123 C 968 123 1069 148 1159 198 C 1249 248 1319 318 1369 409 C 1419 499 1444 602 1444 717 Z M 1192 518 C 1152 444 1105 391 1051 359 C 997 327 932 311 858 311 C 743 311 653 348 589 423 C 524 498 492 599 492 725 C 492 850 525 950 592 1026 C 659 1101 748 1139 858 1139 C 946 1139 1015 1121 1066 1087 C 1116 1052 1158 991 1190 903 L 987 823 C 967 874 947 907 929 923 C 911 938 887 946 858 946 C 815 946 782 927 759 889 C 736 851 725 797 725 725 C 725 654 737 600 761 562 C 785 524 818 506 860 506 C 889 506 914 513 934 527 C 954 541 978 572 1004 618 L 1192 518 Z" unicode="©" />
<glyph horiz-adv-x="1024" d="M 887 565 L 604 565 L 604 625 C 537 574 467 549 393 549 C 305 549 236 575 186 627 C 136 679 111 752 111 848 C 111 937 138 1007 194 1057 C 250 1107 326 1133 424 1133 C 486 1133 546 1120 604 1096 L 604 1139 C 604 1177 593 1203 573 1218 C 553 1233 522 1241 481 1241 C 432 1241 389 1235 352 1225 C 315 1215 278 1199 240 1178 L 162 1376 C 274 1429 399 1456 537 1456 C 651 1456 737 1428 797 1374 C 857 1320 887 1239 887 1133 L 887 565 Z M 604 801 L 604 922 C 567 938 525 946 477 946 C 415 946 385 915 385 854 C 385 790 415 758 477 758 C 501 758 525 762 549 771 C 572 779 590 789 604 801 Z" unicode="ª" />
<glyph horiz-adv-x="1421" d="M 1337 0 L 938 0 L 678 537 L 938 1075 L 1337 1075 L 1069 539 L 1337 0 Z M 721 0 L 322 0 L 61 537 L 322 1075 L 721 1075 L 453 539 L 721 0 Z" unicode="«" />
<glyph horiz-adv-x="1536" d="M 1116 352 L 1116 728 L 212 728 L 212 920 L 1296 920 L 1296 352 L 1116 352 Z" unicode="¬" />
<glyph horiz-adv-x="991" d="M 852 541 L 139 541 L 139 926 L 852 926 L 852 541 Z" unicode="­" />
<glyph horiz-adv-x="1712" d="M 1595 717 C 1595 582 1563 458 1501 346 C 1439 233 1350 143 1236 77 C 1122 10 995 -23 856 -23 C 720 -23 595 9 482 73 C 368 137 279 226 214 340 C 149 454 117 579 117 717 C 117 854 149 979 214 1093 C 278 1206 367 1295 481 1359 C 594 1423 719 1456 856 1456 C 993 1456 1118 1423 1232 1359 C 1345 1294 1434 1205 1498 1092 C 1562 978 1595 853 1595 717 Z M 1444 717 C 1444 831 1419 933 1369 1023 C 1319 1113 1248 1184 1158 1235 C 1067 1285 966 1311 856 1311 C 744 1311 643 1285 553 1235 C 462 1184 392 1113 342 1023 C 292 932 268 830 268 717 C 268 602 293 499 343 409 C 393 318 463 248 553 198 C 643 148 744 123 856 123 C 968 123 1069 148 1159 198 C 1249 248 1319 318 1369 409 C 1419 499 1444 602 1444 717 Z M 1235 334 L 987 334 L 856 604 L 766 604 L 766 334 L 547 334 L 547 1137 L 907 1137 C 1116 1137 1221 1049 1221 874 C 1221 763 1172 685 1075 639 L 1235 334 Z M 999 868 C 999 925 966 954 901 954 L 766 954 L 766 780 L 897 780 C 934 780 960 787 976 802 C 991 817 999 839 999 868 Z" unicode="®" />
<glyph horiz-adv-x="1024" d="M 846 1249 L 178 1249 L 178 1485 L 846 1485 L 846 1249 Z" unicode="¯" />
<glyph horiz-adv-x="1077" d="M 985 1012 C 985 928 965 852 927 783 C 888 714 834 660 766 621 C 697 582 621 563 539 563 C 456 563 380 582 311 622 C 241 661 187 715 149 784 C 111 852 92 928 92 1012 C 92 1094 111 1169 150 1237 C 188 1305 242 1358 312 1397 C 381 1436 457 1456 539 1456 C 621 1456 696 1436 765 1398 C 834 1359 888 1305 927 1237 C 965 1169 985 1094 985 1012 Z M 723 1012 C 723 1071 706 1118 672 1154 C 638 1190 594 1208 539 1208 C 483 1208 438 1189 404 1153 C 370 1117 354 1070 354 1012 C 354 952 370 903 404 866 C 438 829 483 811 539 811 C 595 811 639 829 673 866 C 706 902 723 951 723 1012 Z" unicode="°" />
<glyph horiz-adv-x="1536" d="M 672 352 L 672 764 L 200 764 L 200 936 L 672 936 L 672 1352 L 864 1352 L 864 936 L 1340 936 L 1340 764 L 864 764 L 864 352 L 672 352 Z M 204 24 L 204 216 L 1336 216 L 1336 24 L 204 24 Z" unicode="±" />
<glyph horiz-adv-x="896" d="M 56 628 L 56 768 L 400 1108 C 448 1153 485 1194 512 1230 C 538 1266 552 1306 552 1352 C 552 1386 536 1414 506 1436 C 475 1457 440 1468 400 1468 C 328 1468 252 1428 172 1348 L 64 1456 C 104 1498 156 1536 220 1570 C 284 1603 353 1620 428 1620 C 521 1620 598 1593 658 1540 C 718 1486 748 1421 748 1344 C 748 1272 718 1202 658 1134 C 598 1066 542 1013 492 976 L 268 788 L 776 788 L 776 628 L 56 628 Z" unicode="²" />
<glyph horiz-adv-x="896" d="M 48 732 L 152 864 C 230 805 320 776 424 776 C 490 776 540 790 572 818 C 604 846 620 882 620 928 C 620 978 597 1016 552 1040 C 506 1064 450 1076 384 1076 L 312 1076 L 312 1204 L 372 1204 C 438 1204 491 1216 530 1242 C 568 1267 588 1298 588 1336 C 588 1378 570 1409 536 1428 C 501 1446 460 1456 412 1456 C 358 1456 312 1447 272 1430 C 232 1412 200 1397 176 1384 L 88 1516 C 196 1585 316 1620 448 1620 C 546 1620 625 1598 684 1556 C 742 1513 772 1453 772 1376 C 772 1254 697 1178 548 1148 C 625 1140 688 1117 738 1080 C 787 1042 812 984 812 904 C 812 810 774 738 700 688 C 625 637 536 612 432 612 C 274 612 146 652 48 732 Z" unicode="³" />
<glyph horiz-adv-x="1024" d="M 838 1546 L 516 1219 L 254 1219 L 401 1546 L 838 1546 Z" unicode="´" />
<glyph horiz-adv-x="1408" d="M 252 -424 C 214 -424 186 -413 168 -392 C 149 -370 140 -333 140 -280 C 140 -176 145 -49 156 100 C 166 233 172 309 172 328 L 176 356 L 176 1176 L 368 1176 L 368 320 C 368 258 395 210 450 176 C 504 141 564 124 628 124 C 716 124 792 146 858 190 C 923 234 973 297 1008 380 L 1008 1176 L 1200 1176 L 1200 308 L 1220 0 L 1056 0 L 1020 176 C 974 104 913 50 836 14 C 758 -22 670 -40 572 -40 C 537 -40 494 -31 444 -14 C 393 3 353 28 324 60 C 324 1 333 -56 352 -112 C 370 -168 380 -218 380 -264 C 380 -370 337 -424 252 -424 Z" unicode="µ" />
<glyph horiz-adv-x="1483" d="M 1321 -379 L 1036 -379 L 1036 1194 L 915 1194 L 915 -379 L 631 -379 L 631 535 L 541 535 C 451 535 371 553 300 591 C 228 629 173 682 134 750 C 95 818 76 896 76 985 C 76 1073 95 1151 135 1219 C 175 1287 230 1340 302 1378 C 374 1415 453 1434 541 1434 L 1321 1434 L 1321 -379 Z" unicode="¶" />
<glyph horiz-adv-x="643" d="M 557 752 C 557 683 534 626 490 582 C 445 538 389 516 322 516 C 253 516 196 538 152 583 C 108 627 86 684 86 752 C 86 818 108 873 152 917 C 196 961 252 983 322 983 C 390 983 447 961 491 917 C 535 873 557 818 557 752 Z" unicode="·" />
<glyph horiz-adv-x="1024" d="M 758 -217 C 758 -273 738 -316 700 -348 C 661 -379 604 -395 530 -395 C 431 -395 331 -370 229 -322 L 268 -227 C 339 -259 408 -276 475 -276 C 537 -276 569 -257 569 -221 C 569 -205 564 -194 556 -186 C 548 -178 537 -174 524 -174 C 500 -174 475 -183 449 -203 L 371 -150 L 412 0 L 537 0 L 512 -86 C 534 -74 563 -68 598 -68 C 649 -68 688 -81 716 -108 C 744 -135 758 -171 758 -217 Z" unicode="¸" />
<glyph horiz-adv-x="768" d="M 324 628 L 324 1424 L 144 1384 L 144 1528 L 392 1636 L 508 1636 L 508 628 L 324 628 Z" unicode="¹" />
<glyph horiz-adv-x="1028" d="M 928 1004 C 928 862 891 751 818 670 C 744 589 643 549 514 549 C 385 549 284 589 210 670 C 136 750 100 862 100 1004 C 100 1145 136 1256 210 1336 C 283 1416 384 1456 514 1456 C 643 1456 744 1416 818 1336 C 891 1256 928 1145 928 1004 Z M 633 1004 C 633 1078 623 1131 603 1164 C 583 1197 553 1214 514 1214 C 474 1214 445 1197 425 1164 C 405 1131 395 1078 395 1004 C 395 862 434 791 514 791 C 593 791 633 862 633 1004 Z" unicode="º" />
<glyph horiz-adv-x="1421" d="M 1360 539 L 1100 0 L 700 0 L 969 537 L 700 1075 L 1100 1075 L 1360 539 Z M 743 539 L 483 0 L 84 0 L 352 537 L 84 1075 L 483 1075 L 743 539 Z" unicode="»" />
<glyph horiz-adv-x="1920" d="M 368 0 L 1340 1524 L 1520 1524 L 548 0 L 368 0 Z M 292 628 L 292 1424 L 112 1384 L 112 1528 L 360 1636 L 476 1636 L 476 628 L 292 628 Z M 1540 0 L 1540 220 L 1060 220 L 1060 360 L 1512 980 L 1724 980 L 1724 376 L 1844 376 L 1844 220 L 1724 220 L 1724 0 L 1540 0 Z M 1260 368 L 1540 368 L 1540 768 L 1260 368 Z" unicode="¼" />
<glyph horiz-adv-x="1920" d="M 276 0 L 1248 1524 L 1428 1524 L 456 0 L 276 0 Z M 268 628 L 268 1424 L 88 1384 L 88 1528 L 336 1636 L 452 1636 L 452 628 L 268 628 Z M 1136 0 L 1136 140 L 1480 480 C 1528 525 1565 566 1592 602 C 1618 638 1632 678 1632 724 C 1632 758 1616 786 1586 808 C 1555 829 1520 840 1480 840 C 1408 840 1332 800 1252 720 L 1144 828 C 1184 870 1236 908 1300 942 C 1364 975 1433 992 1508 992 C 1601 992 1678 965 1738 912 C 1798 858 1828 793 1828 716 C 1828 644 1798 574 1738 506 C 1678 438 1622 385 1572 348 L 1348 160 L 1856 160 L 1856 0 L 1136 0 Z" unicode="½" />
<glyph horiz-adv-x="1920" d="M 440 0 L 1412 1524 L 1592 1524 L 620 0 L 440 0 Z M 48 732 L 152 864 C 230 805 320 776 424 776 C 490 776 540 790 572 818 C 604 846 620 882 620 928 C 620 978 597 1016 552 1040 C 506 1064 450 1076 384 1076 L 312 1076 L 312 1204 L 372 1204 C 438 1204 491 1216 530 1242 C 568 1267 588 1298 588 1336 C 588 1378 570 1409 536 1428 C 501 1446 460 1456 412 1456 C 358 1456 312 1447 272 1430 C 232 1412 200 1397 176 1384 L 88 1516 C 196 1585 316 1620 448 1620 C 546 1620 625 1598 684 1556 C 742 1513 772 1453 772 1376 C 772 1254 697 1178 548 1148 C 625 1140 688 1117 738 1080 C 787 1042 812 984 812 904 C 812 810 774 738 700 688 C 625 637 536 612 432 612 C 274 612 146 652 48 732 Z M 1564 0 L 1564 220 L 1084 220 L 1084 360 L 1536 980 L 1748 980 L 1748 376 L 1868 376 L 1868 220 L 1748 220 L 1748 0 L 1564 0 Z M 1284 368 L 1564 368 L 1564 768 L 1284 368 Z" unicode="¾" />
<glyph horiz-adv-x="1233" d="M 879 1243 C 879 1183 859 1133 819 1093 C 779 1053 728 1034 666 1034 C 604 1034 553 1053 513 1093 C 473 1133 453 1183 453 1243 C 453 1304 473 1355 514 1395 C 554 1435 605 1456 666 1456 C 726 1456 776 1435 817 1395 C 858 1355 879 1304 879 1243 Z M 1190 154 C 1104 99 1014 56 919 24 C 824 -7 720 -23 606 -23 C 431 -23 297 11 203 80 C 109 148 63 245 63 371 C 63 448 82 512 120 564 C 158 615 224 663 317 709 C 375 737 416 767 441 800 C 466 832 479 873 479 922 L 846 922 C 846 828 826 753 787 695 C 747 637 678 584 580 537 C 532 515 499 495 481 477 C 462 459 453 436 453 410 C 453 344 506 311 612 311 C 741 311 873 356 1008 446 L 1190 154 Z" unicode="¿" />
<glyph horiz-adv-x="1561" d="M 1501 0 L 1071 0 L 993 252 L 563 252 L 485 0 L 59 0 L 580 1434 L 981 1434 L 1501 0 Z M 897 567 C 831 796 792 947 778 1020 C 770 984 762 946 752 907 C 742 867 711 754 659 567 L 897 567 Z M 930 1526 L 668 1526 L 346 1853 L 783 1853 L 930 1526 Z" unicode="À" />
<glyph horiz-adv-x="1561" d="M 1501 0 L 1071 0 L 993 252 L 563 252 L 485 0 L 59 0 L 580 1434 L 981 1434 L 1501 0 Z M 897 567 C 831 796 792 947 778 1020 C 770 984 762 946 752 907 C 742 867 711 754 659 567 L 897 567 Z M 1213 1853 L 891 1526 L 629 1526 L 776 1853 L 1213 1853 Z" unicode="Á" />
<glyph horiz-adv-x="1561" d="M 1501 0 L 1071 0 L 993 252 L 563 252 L 485 0 L 59 0 L 580 1434 L 981 1434 L 1501 0 Z M 897 567 C 831 796 792 947 778 1020 C 770 984 762 946 752 907 C 742 867 711 754 659 567 L 897 567 Z M 1194 1563 L 948 1563 L 778 1694 L 608 1563 L 366 1563 L 635 1890 L 925 1890 L 1194 1563 Z" unicode="Â" />
<glyph horiz-adv-x="1561" d="M 1501 0 L 1071 0 L 993 252 L 563 252 L 485 0 L 59 0 L 580 1434 L 981 1434 L 1501 0 Z M 897 567 C 831 796 792 947 778 1020 C 770 984 762 946 752 907 C 742 867 711 754 659 567 L 897 567 Z M 1212 1841 C 1212 1746 1187 1669 1138 1609 C 1089 1549 1024 1519 944 1519 C 910 1519 880 1522 854 1529 C 827 1536 796 1550 762 1571 C 732 1588 707 1602 688 1613 C 669 1624 652 1630 637 1630 C 614 1630 597 1621 586 1605 C 574 1588 566 1562 561 1526 L 350 1526 C 350 1620 374 1697 423 1757 C 472 1817 537 1847 618 1847 C 653 1847 685 1843 713 1835 C 741 1827 771 1814 801 1796 C 831 1778 855 1764 874 1753 C 892 1742 909 1737 925 1737 C 948 1737 965 1745 977 1763 C 989 1781 997 1807 1001 1841 L 1212 1841 Z" unicode="Ã" />
<glyph horiz-adv-x="1561" d="M 1501 0 L 1071 0 L 993 252 L 563 252 L 485 0 L 59 0 L 580 1434 L 981 1434 L 1501 0 Z M 897 567 C 831 796 792 947 778 1020 C 770 984 762 946 752 907 C 742 867 711 754 659 567 L 897 567 Z M 1208 1712 C 1208 1665 1189 1624 1153 1589 C 1116 1553 1074 1536 1028 1536 C 979 1536 936 1553 899 1588 C 861 1623 843 1664 843 1712 C 843 1761 861 1803 898 1839 C 934 1874 978 1892 1028 1892 C 1076 1892 1118 1874 1154 1838 C 1190 1802 1208 1760 1208 1712 Z M 721 1712 C 721 1665 702 1624 666 1589 C 629 1553 586 1536 538 1536 C 490 1536 447 1553 411 1589 C 374 1624 356 1665 356 1712 C 356 1760 373 1802 409 1838 C 445 1874 488 1892 538 1892 C 588 1892 631 1874 667 1838 C 703 1802 721 1760 721 1712 Z" unicode="Ä" />
<glyph horiz-adv-x="1561" d="M 1501 0 L 1071 0 L 993 252 L 563 252 L 485 0 L 59 0 L 547 1346 C 508 1398 489 1455 489 1518 C 489 1598 517 1665 573 1720 C 629 1774 698 1802 780 1802 C 862 1802 931 1774 987 1720 C 1043 1665 1071 1598 1071 1518 C 1071 1451 1052 1394 1014 1346 L 1501 0 Z M 893 1518 C 893 1554 883 1584 863 1606 C 843 1628 815 1640 780 1640 C 745 1640 718 1628 698 1606 C 678 1584 668 1554 668 1518 C 668 1480 678 1451 698 1429 C 718 1407 745 1397 780 1397 C 815 1397 843 1407 863 1429 C 883 1451 893 1480 893 1518 Z M 897 567 C 831 796 792 947 778 1020 C 770 984 762 946 752 907 C 742 867 711 754 659 567 L 897 567 Z" unicode="Å" />
<glyph horiz-adv-x="2193" d="M 2085 0 L 1049 0 L 1049 156 L 553 156 L 457 0 L 29 0 L 991 1434 L 2071 1434 L 2071 1100 L 1407 1100 L 1407 909 L 1790 909 L 1790 580 L 1407 580 L 1407 334 L 2085 334 L 2085 0 Z M 1053 1008 C 1037 972 1014 927 984 871 C 953 815 871 677 739 455 L 1049 455 L 1049 690 L 1053 1008 Z" unicode="Æ" />
<glyph horiz-adv-x="1405" d="M 1335 348 C 1271 224 1192 132 1098 72 C 1004 12 894 -19 768 -23 L 750 -86 C 772 -74 801 -68 836 -68 C 887 -68 926 -81 954 -108 C 981 -135 995 -171 995 -217 C 995 -273 975 -316 937 -348 C 898 -379 842 -395 768 -395 C 669 -395 569 -370 467 -322 L 506 -227 C 577 -259 646 -276 713 -276 C 775 -276 807 -257 807 -221 C 807 -205 802 -194 794 -186 C 786 -178 775 -174 762 -174 C 739 -174 714 -183 686 -203 L 608 -150 L 645 -16 C 471 4 335 79 235 211 C 135 342 86 511 86 717 C 86 865 113 994 167 1106 C 221 1218 297 1304 397 1365 C 496 1425 611 1456 741 1456 C 847 1456 937 1441 1011 1413 C 1085 1385 1147 1342 1197 1284 C 1247 1226 1291 1142 1331 1034 L 971 893 C 939 976 906 1033 872 1064 C 838 1094 793 1110 739 1110 C 663 1110 604 1076 563 1008 C 522 940 502 843 502 717 C 502 593 522 496 564 427 C 605 358 665 324 743 324 C 795 324 839 337 875 364 C 911 390 952 444 999 526 L 1335 348 Z" unicode="Ç" />
<glyph horiz-adv-x="1366" d="M 1257 0 L 145 0 L 145 1434 L 1243 1434 L 1243 1100 L 539 1100 L 539 909 L 963 909 L 963 580 L 539 580 L 539 334 L 1257 334 L 1257 0 Z M 858 1526 L 596 1526 L 274 1853 L 711 1853 L 858 1526 Z" unicode="È" />
<glyph horiz-adv-x="1366" d="M 1257 0 L 145 0 L 145 1434 L 1243 1434 L 1243 1100 L 539 1100 L 539 909 L 963 909 L 963 580 L 539 580 L 539 334 L 1257 334 L 1257 0 Z M 1104 1853 L 782 1526 L 520 1526 L 667 1853 L 1104 1853 Z" unicode="É" />
<glyph horiz-adv-x="1366" d="M 1257 0 L 145 0 L 145 1434 L 1243 1434 L 1243 1100 L 539 1100 L 539 909 L 963 909 L 963 580 L 539 580 L 539 334 L 1257 334 L 1257 0 Z M 1114 1526 L 868 1526 L 698 1657 L 528 1526 L 286 1526 L 555 1853 L 845 1853 L 1114 1526 Z" unicode="Ê" />
<glyph horiz-adv-x="1366" d="M 1257 0 L 145 0 L 145 1434 L 1243 1434 L 1243 1100 L 539 1100 L 539 909 L 963 909 L 963 580 L 539 580 L 539 334 L 1257 334 L 1257 0 Z M 1124 1712 C 1124 1665 1105 1624 1069 1589 C 1032 1553 990 1536 944 1536 C 895 1536 852 1553 815 1588 C 777 1623 759 1664 759 1712 C 759 1761 777 1803 814 1839 C 850 1874 894 1892 944 1892 C 992 1892 1034 1874 1070 1838 C 1106 1802 1124 1760 1124 1712 Z M 637 1712 C 637 1665 618 1624 582 1589 C 545 1553 502 1536 454 1536 C 406 1536 363 1553 327 1589 C 290 1624 272 1665 272 1712 C 272 1760 289 1802 325 1838 C 361 1874 404 1892 454 1892 C 504 1892 547 1874 583 1838 C 619 1802 637 1760 637 1712 Z" unicode="Ë" />
<glyph horiz-adv-x="717" d="M 561 0 L 156 0 L 156 1434 L 561 1434 L 561 0 Z M 509 1526 L 247 1526 L -75 1853 L 362 1853 L 509 1526 Z" unicode="Ì" />
<glyph horiz-adv-x="717" d="M 561 0 L 156 0 L 156 1434 L 561 1434 L 561 0 Z M 802 1853 L 480 1526 L 218 1526 L 365 1853 L 802 1853 Z" unicode="Í" />
<glyph horiz-adv-x="717" d="M 561 0 L 156 0 L 156 1434 L 561 1434 L 561 0 Z M 773 1495 L 527 1495 L 357 1626 L 187 1495 L -55 1495 L 214 1822 L 504 1822 L 773 1495 Z" unicode="Î" />
<glyph horiz-adv-x="717" d="M 561 0 L 156 0 L 156 1434 L 561 1434 L 561 0 Z M 785 1686 C 785 1639 766 1598 730 1563 C 693 1527 651 1510 605 1510 C 556 1510 513 1527 476 1562 C 438 1597 420 1638 420 1686 C 420 1735 438 1777 475 1813 C 511 1848 555 1866 605 1866 C 653 1866 695 1848 731 1812 C 767 1776 785 1734 785 1686 Z M 298 1686 C 298 1639 279 1598 243 1563 C 206 1527 163 1510 115 1510 C 67 1510 24 1527 -12 1563 C -48 1598 -67 1639 -67 1686 C -67 1734 -49 1776 -13 1812 C 22 1848 65 1866 115 1866 C 165 1866 208 1848 244 1812 C 280 1776 298 1734 298 1686 Z" unicode="Ï" />
<glyph horiz-adv-x="1520" d="M 1425 725 C 1425 473 1364 289 1242 173 C 1120 57 923 0 651 0 L 186 0 L 186 584 L 61 584 L 61 891 L 186 891 L 186 1434 L 688 1434 C 944 1434 1130 1376 1248 1260 C 1366 1144 1425 966 1425 725 Z M 1018 719 C 1018 855 992 952 942 1009 C 891 1065 806 1094 686 1094 L 567 1094 L 567 891 L 748 891 L 748 584 L 567 584 L 567 340 L 674 340 C 802 340 891 368 942 425 C 992 482 1018 580 1018 719 Z" unicode="Ð" />
<glyph horiz-adv-x="1548" d="M 1403 0 L 1079 0 L 737 473 C 705 515 665 575 615 651 C 565 727 531 779 514 809 C 522 761 526 637 526 438 L 526 0 L 145 0 L 145 1434 L 496 1434 L 811 1010 C 839 972 880 913 933 835 C 985 756 1019 702 1034 672 C 1026 720 1022 843 1022 1042 L 1022 1434 L 1403 1434 L 1403 0 Z M 1212 1835 C 1212 1740 1187 1663 1138 1603 C 1089 1543 1024 1513 944 1513 C 910 1513 880 1516 854 1523 C 827 1530 796 1544 762 1565 C 732 1582 707 1596 688 1607 C 669 1618 652 1624 637 1624 C 614 1624 597 1615 586 1599 C 574 1582 566 1556 561 1520 L 350 1520 C 350 1614 374 1691 423 1751 C 472 1811 537 1841 618 1841 C 653 1841 685 1837 713 1829 C 741 1821 771 1808 801 1790 C 831 1772 855 1758 874 1747 C 892 1736 909 1731 925 1731 C 948 1731 965 1739 977 1757 C 989 1775 997 1801 1001 1835 L 1212 1835 Z" unicode="Ñ" />
<glyph horiz-adv-x="1499" d="M 1413 719 C 1413 567 1385 436 1331 324 C 1277 212 1199 126 1098 66 C 997 6 880 -23 748 -23 C 614 -23 498 6 398 65 C 298 123 221 208 167 320 C 113 432 86 563 86 715 C 86 866 113 998 167 1110 C 221 1222 299 1307 401 1367 C 502 1426 619 1456 752 1456 C 885 1456 1002 1426 1102 1368 C 1202 1309 1278 1224 1332 1113 C 1386 1001 1413 870 1413 719 Z M 1001 715 C 1001 845 978 943 934 1010 C 890 1076 828 1110 748 1110 C 667 1110 605 1077 562 1012 C 519 946 498 849 498 719 C 498 589 520 490 564 424 C 608 357 671 324 752 324 C 832 324 893 356 936 422 C 979 487 1001 585 1001 715 Z M 885 1526 L 623 1526 L 301 1853 L 738 1853 L 885 1526 Z" unicode="Ò" />
<glyph horiz-adv-x="1499" d="M 1413 719 C 1413 567 1385 436 1331 324 C 1277 212 1199 126 1098 66 C 997 6 880 -23 748 -23 C 614 -23 498 6 398 65 C 298 123 221 208 167 320 C 113 432 86 563 86 715 C 86 866 113 998 167 1110 C 221 1222 299 1307 401 1367 C 502 1426 619 1456 752 1456 C 885 1456 1002 1426 1102 1368 C 1202 1309 1278 1224 1332 1113 C 1386 1001 1413 870 1413 719 Z M 1001 715 C 1001 845 978 943 934 1010 C 890 1076 828 1110 748 1110 C 667 1110 605 1077 562 1012 C 519 946 498 849 498 719 C 498 589 520 490 564 424 C 608 357 671 324 752 324 C 832 324 893 356 936 422 C 979 487 1001 585 1001 715 Z M 1178 1853 L 856 1526 L 594 1526 L 741 1853 L 1178 1853 Z" unicode="Ó" />
<glyph horiz-adv-x="1499" d="M 1413 719 C 1413 567 1385 436 1331 324 C 1277 212 1199 126 1098 66 C 997 6 880 -23 748 -23 C 614 -23 498 6 398 65 C 298 123 221 208 167 320 C 113 432 86 563 86 715 C 86 866 113 998 167 1110 C 221 1222 299 1307 401 1367 C 502 1426 619 1456 752 1456 C 885 1456 1002 1426 1102 1368 C 1202 1309 1278 1224 1332 1113 C 1386 1001 1413 870 1413 719 Z M 1001 715 C 1001 845 978 943 934 1010 C 890 1076 828 1110 748 1110 C 667 1110 605 1077 562 1012 C 519 946 498 849 498 719 C 498 589 520 490 564 424 C 608 357 671 324 752 324 C 832 324 893 356 936 422 C 979 487 1001 585 1001 715 Z M 1164 1516 L 918 1516 L 748 1647 L 578 1516 L 336 1516 L 605 1843 L 895 1843 L 1164 1516 Z" unicode="Ô" />
<glyph horiz-adv-x="1499" d="M 1413 719 C 1413 567 1385 436 1331 324 C 1277 212 1199 126 1098 66 C 997 6 880 -23 748 -23 C 614 -23 498 6 398 65 C 298 123 221 208 167 320 C 113 432 86 563 86 715 C 86 866 113 998 167 1110 C 221 1222 299 1307 401 1367 C 502 1426 619 1456 752 1456 C 885 1456 1002 1426 1102 1368 C 1202 1309 1278 1224 1332 1113 C 1386 1001 1413 870 1413 719 Z M 1001 715 C 1001 845 978 943 934 1010 C 890 1076 828 1110 748 1110 C 667 1110 605 1077 562 1012 C 519 946 498 849 498 719 C 498 589 520 490 564 424 C 608 357 671 324 752 324 C 832 324 893 356 936 422 C 979 487 1001 585 1001 715 Z M 1169 1841 C 1169 1746 1144 1669 1095 1609 C 1046 1549 981 1519 901 1519 C 867 1519 837 1522 811 1529 C 784 1536 753 1550 719 1571 C 689 1588 664 1602 645 1613 C 626 1624 609 1630 594 1630 C 571 1630 554 1621 543 1605 C 531 1588 523 1562 518 1526 L 307 1526 C 307 1620 331 1697 380 1757 C 429 1817 494 1847 575 1847 C 610 1847 642 1843 670 1835 C 698 1827 728 1814 758 1796 C 788 1778 812 1764 831 1753 C 849 1742 866 1737 882 1737 C 905 1737 922 1745 934 1763 C 946 1781 954 1807 958 1841 L 1169 1841 Z" unicode="Õ" />
<glyph horiz-adv-x="1499" d="M 1413 719 C 1413 567 1385 436 1331 324 C 1277 212 1199 126 1098 66 C 997 6 880 -23 748 -23 C 614 -23 498 6 398 65 C 298 123 221 208 167 320 C 113 432 86 563 86 715 C 86 866 113 998 167 1110 C 221 1222 299 1307 401 1367 C 502 1426 619 1456 752 1456 C 885 1456 1002 1426 1102 1368 C 1202 1309 1278 1224 1332 1113 C 1386 1001 1413 870 1413 719 Z M 1001 715 C 1001 845 978 943 934 1010 C 890 1076 828 1110 748 1110 C 667 1110 605 1077 562 1012 C 519 946 498 849 498 719 C 498 589 520 490 564 424 C 608 357 671 324 752 324 C 832 324 893 356 936 422 C 979 487 1001 585 1001 715 Z M 1176 1712 C 1176 1665 1157 1624 1121 1589 C 1084 1553 1042 1536 996 1536 C 947 1536 904 1553 867 1588 C 829 1623 811 1664 811 1712 C 811 1761 829 1803 866 1839 C 902 1874 946 1892 996 1892 C 1044 1892 1086 1874 1122 1838 C 1158 1802 1176 1760 1176 1712 Z M 689 1712 C 689 1665 670 1624 634 1589 C 597 1553 554 1536 506 1536 C 458 1536 415 1553 379 1589 C 342 1624 324 1665 324 1712 C 324 1760 341 1802 377 1838 C 413 1874 456 1892 506 1892 C 556 1892 599 1874 635 1838 C 671 1802 689 1760 689 1712 Z" unicode="Ö" />
<glyph horiz-adv-x="1536" d="M 472 376 L 352 492 L 648 792 L 352 1088 L 480 1212 L 768 912 L 1068 1204 L 1184 1088 L 892 792 L 1184 492 L 1068 376 L 768 668 L 472 376 Z" unicode="×" />
<glyph horiz-adv-x="1499" d="M 1444 1536 L 1262 1229 C 1362 1099 1413 929 1413 719 C 1413 567 1385 436 1331 324 C 1277 212 1199 126 1098 66 C 997 6 880 -23 748 -23 C 676 -23 607 -13 539 6 L 475 -102 L 49 -102 L 233 211 C 135 336 86 504 86 715 C 86 866 113 998 167 1110 C 221 1222 299 1307 401 1367 C 502 1426 619 1456 752 1456 C 827 1456 894 1447 954 1430 L 1018 1536 L 1444 1536 Z M 1001 715 C 1001 845 978 943 934 1010 C 890 1076 828 1110 748 1110 C 667 1110 605 1077 562 1012 C 519 946 498 849 498 719 C 498 589 520 490 564 424 C 608 357 671 324 752 324 C 832 324 893 356 936 422 C 979 487 1001 585 1001 715 Z" unicode="Ø" />
<glyph horiz-adv-x="1532" d="M 1395 612 C 1395 408 1340 252 1231 142 C 1122 32 966 -23 762 -23 C 558 -23 403 31 297 141 C 190 250 137 407 137 612 L 137 1434 L 543 1434 L 543 612 C 543 524 561 454 597 404 C 633 353 690 328 768 328 C 915 328 989 422 989 612 L 989 1434 L 1395 1434 L 1395 612 Z M 917 1495 L 655 1495 L 333 1822 L 770 1822 L 917 1495 Z" unicode="Ù" />
<glyph horiz-adv-x="1532" d="M 1395 612 C 1395 408 1340 252 1231 142 C 1122 32 966 -23 762 -23 C 558 -23 403 31 297 141 C 190 250 137 407 137 612 L 137 1434 L 543 1434 L 543 612 C 543 524 561 454 597 404 C 633 353 690 328 768 328 C 915 328 989 422 989 612 L 989 1434 L 1395 1434 L 1395 612 Z M 1200 1822 L 878 1495 L 616 1495 L 763 1822 L 1200 1822 Z" unicode="Ú" />
<glyph horiz-adv-x="1532" d="M 1395 612 C 1395 408 1340 252 1231 142 C 1122 32 966 -23 762 -23 C 558 -23 403 31 297 141 C 190 250 137 407 137 612 L 137 1434 L 543 1434 L 543 612 C 543 524 561 454 597 404 C 633 353 690 328 768 328 C 915 328 989 422 989 612 L 989 1434 L 1395 1434 L 1395 612 Z M 1180 1526 L 934 1526 L 764 1657 L 594 1526 L 352 1526 L 621 1853 L 911 1853 L 1180 1526 Z" unicode="Û" />
<glyph horiz-adv-x="1532" d="M 1395 612 C 1395 408 1340 252 1231 142 C 1122 32 966 -23 762 -23 C 558 -23 403 31 297 141 C 190 250 137 407 137 612 L 137 1434 L 543 1434 L 543 612 C 543 524 561 454 597 404 C 633 353 690 328 768 328 C 915 328 989 422 989 612 L 989 1434 L 1395 1434 L 1395 612 Z M 1192 1712 C 1192 1665 1173 1624 1137 1589 C 1100 1553 1058 1536 1012 1536 C 963 1536 920 1553 883 1588 C 845 1623 827 1664 827 1712 C 827 1761 845 1803 882 1839 C 918 1874 962 1892 1012 1892 C 1060 1892 1102 1874 1138 1838 C 1174 1802 1192 1760 1192 1712 Z M 705 1712 C 705 1665 686 1624 650 1589 C 613 1553 570 1536 522 1536 C 474 1536 431 1553 395 1589 C 358 1624 340 1665 340 1712 C 340 1760 357 1802 393 1838 C 429 1874 472 1892 522 1892 C 572 1892 615 1874 651 1838 C 687 1802 705 1760 705 1712 Z" unicode="Ü" />
<glyph horiz-adv-x="1528" d="M 1495 1434 L 965 535 L 965 0 L 563 0 L 563 528 L 33 1434 L 492 1434 C 600 1219 670 1078 700 1010 C 730 942 752 887 766 846 C 774 870 785 901 800 937 C 815 973 833 1015 855 1063 C 877 1111 938 1234 1040 1434 L 1495 1434 Z M 1211 1849 L 889 1522 L 627 1522 L 774 1849 L 1211 1849 Z" unicode="Ý" />
<glyph horiz-adv-x="1391" d="M 1321 745 C 1321 416 1125 252 735 252 L 537 252 L 537 0 L 145 0 L 145 1434 L 537 1434 L 537 1221 L 762 1221 C 1134 1221 1321 1062 1321 745 Z M 926 739 C 926 844 868 897 752 897 L 537 897 L 537 575 L 745 575 C 809 575 856 588 884 616 C 912 644 926 685 926 739 Z" unicode="Þ" />
<glyph horiz-adv-x="1231" d="M 1159 479 C 1159 159 981 0 625 0 L 594 0 L 594 289 L 625 289 C 739 289 797 350 797 473 C 797 540 780 587 747 615 C 714 643 667 657 606 657 L 594 657 L 594 936 L 606 936 C 641 936 666 945 680 965 C 694 984 702 1011 702 1047 C 702 1096 693 1132 676 1154 C 658 1176 630 1188 590 1188 C 550 1188 523 1174 507 1146 C 491 1118 483 1074 483 1016 L 483 -248 L 115 -395 L 115 1006 C 115 1161 155 1280 236 1363 C 317 1445 435 1487 590 1487 C 732 1487 844 1453 926 1387 C 1008 1320 1049 1227 1049 1108 C 1049 1045 1036 991 1011 945 C 985 899 941 859 877 823 C 966 803 1035 764 1085 704 C 1134 644 1159 569 1159 479 Z" unicode="ß" />
<glyph horiz-adv-x="1143" d="M 1036 0 L 688 0 L 688 72 C 606 8 518 -23 426 -23 C 316 -23 231 9 170 75 C 108 141 78 232 78 348 C 78 458 112 543 181 605 C 249 667 344 698 465 698 C 546 698 620 683 688 653 L 688 707 C 688 754 675 787 650 806 C 624 824 587 834 537 834 C 479 834 427 828 383 816 C 338 804 290 784 238 756 L 141 999 C 277 1065 431 1098 604 1098 C 746 1098 853 1064 926 998 C 999 931 1036 831 1036 698 L 1036 0 Z M 688 291 L 688 438 C 642 458 589 469 530 469 C 454 469 416 430 416 354 C 416 320 425 293 443 271 C 461 249 490 238 530 238 C 561 238 591 243 619 253 C 647 263 670 276 688 291 Z M 772 1219 L 510 1219 L 188 1546 L 625 1546 L 772 1219 Z" unicode="à" />
<glyph horiz-adv-x="1143" d="M 1036 0 L 688 0 L 688 72 C 606 8 518 -23 426 -23 C 316 -23 231 9 170 75 C 108 141 78 232 78 348 C 78 458 112 543 181 605 C 249 667 344 698 465 698 C 546 698 620 683 688 653 L 688 707 C 688 754 675 787 650 806 C 624 824 587 834 537 834 C 479 834 427 828 383 816 C 338 804 290 784 238 756 L 141 999 C 277 1065 431 1098 604 1098 C 746 1098 853 1064 926 998 C 999 931 1036 831 1036 698 L 1036 0 Z M 688 291 L 688 438 C 642 458 589 469 530 469 C 454 469 416 430 416 354 C 416 320 425 293 443 271 C 461 249 490 238 530 238 C 561 238 591 243 619 253 C 647 263 670 276 688 291 Z M 973 1546 L 651 1219 L 389 1219 L 536 1546 L 973 1546 Z" unicode="á" />
<glyph horiz-adv-x="1143" d="M 1036 0 L 688 0 L 688 72 C 606 8 518 -23 426 -23 C 316 -23 231 9 170 75 C 108 141 78 232 78 348 C 78 458 112 543 181 605 C 249 667 344 698 465 698 C 546 698 620 683 688 653 L 688 707 C 688 754 675 787 650 806 C 624 824 587 834 537 834 C 479 834 427 828 383 816 C 338 804 290 784 238 756 L 141 999 C 277 1065 431 1098 604 1098 C 746 1098 853 1064 926 998 C 999 931 1036 831 1036 698 L 1036 0 Z M 688 291 L 688 438 C 642 458 589 469 530 469 C 454 469 416 430 416 354 C 416 320 425 293 443 271 C 461 249 490 238 530 238 C 561 238 591 243 619 253 C 647 263 670 276 688 291 Z M 987 1210 L 741 1210 L 571 1341 L 401 1210 L 159 1210 L 428 1537 L 718 1537 L 987 1210 Z" unicode="â" />
<glyph horiz-adv-x="1143" d="M 1036 0 L 688 0 L 688 72 C 606 8 518 -23 426 -23 C 316 -23 231 9 170 75 C 108 141 78 232 78 348 C 78 458 112 543 181 605 C 249 667 344 698 465 698 C 546 698 620 683 688 653 L 688 707 C 688 754 675 787 650 806 C 624 824 587 834 537 834 C 479 834 427 828 383 816 C 338 804 290 784 238 756 L 141 999 C 277 1065 431 1098 604 1098 C 746 1098 853 1064 926 998 C 999 931 1036 831 1036 698 L 1036 0 Z M 688 291 L 688 438 C 642 458 589 469 530 469 C 454 469 416 430 416 354 C 416 320 425 293 443 271 C 461 249 490 238 530 238 C 561 238 591 243 619 253 C 647 263 670 276 688 291 Z M 1012 1534 C 1012 1439 987 1362 938 1302 C 889 1242 824 1212 744 1212 C 710 1212 680 1215 654 1222 C 627 1229 596 1243 562 1264 C 532 1281 507 1295 488 1306 C 469 1317 452 1323 437 1323 C 414 1323 397 1314 386 1298 C 374 1281 366 1255 361 1219 L 150 1219 C 150 1313 174 1390 223 1450 C 272 1510 337 1540 418 1540 C 453 1540 485 1536 513 1528 C 541 1520 571 1507 601 1489 C 631 1471 655 1457 674 1446 C 692 1435 709 1430 725 1430 C 748 1430 765 1438 777 1456 C 789 1474 797 1500 801 1534 L 1012 1534 Z" unicode="ã" />
<glyph horiz-adv-x="1143" d="M 1036 0 L 688 0 L 688 72 C 606 8 518 -23 426 -23 C 316 -23 231 9 170 75 C 108 141 78 232 78 348 C 78 458 112 543 181 605 C 249 667 344 698 465 698 C 546 698 620 683 688 653 L 688 707 C 688 754 675 787 650 806 C 624 824 587 834 537 834 C 479 834 427 828 383 816 C 338 804 290 784 238 756 L 141 999 C 277 1065 431 1098 604 1098 C 746 1098 853 1064 926 998 C 999 931 1036 831 1036 698 L 1036 0 Z M 688 291 L 688 438 C 642 458 589 469 530 469 C 454 469 416 430 416 354 C 416 320 425 293 443 271 C 461 249 490 238 530 238 C 561 238 591 243 619 253 C 647 263 670 276 688 291 Z M 995 1396 C 995 1349 976 1308 940 1273 C 903 1237 861 1220 815 1220 C 766 1220 723 1237 686 1272 C 648 1307 630 1348 630 1396 C 630 1445 648 1487 685 1523 C 721 1558 765 1576 815 1576 C 863 1576 905 1558 941 1522 C 977 1486 995 1444 995 1396 Z M 508 1396 C 508 1349 489 1308 453 1273 C 416 1237 373 1220 325 1220 C 277 1220 234 1237 198 1273 C 161 1308 143 1349 143 1396 C 143 1444 160 1486 196 1522 C 232 1558 275 1576 325 1576 C 375 1576 418 1558 454 1522 C 490 1486 508 1444 508 1396 Z" unicode="ä" />
<glyph horiz-adv-x="1143" d="M 1036 0 L 688 0 L 688 72 C 606 8 518 -23 426 -23 C 316 -23 231 9 170 75 C 108 141 78 232 78 348 C 78 458 112 543 181 605 C 249 667 344 698 465 698 C 546 698 620 683 688 653 L 688 707 C 688 754 675 787 650 806 C 624 824 587 834 537 834 C 479 834 427 828 383 816 C 338 804 290 784 238 756 L 141 999 C 277 1065 431 1098 604 1098 C 746 1098 853 1064 926 998 C 999 931 1036 831 1036 698 L 1036 0 Z M 688 291 L 688 438 C 642 458 589 469 530 469 C 454 469 416 430 416 354 C 416 320 425 293 443 271 C 461 249 490 238 530 238 C 561 238 591 243 619 253 C 647 263 670 276 688 291 Z M 866 1501 C 866 1420 837 1353 781 1299 C 725 1245 656 1219 575 1219 C 493 1219 424 1245 368 1299 C 312 1353 284 1420 284 1501 C 284 1582 312 1650 369 1704 C 426 1758 495 1786 575 1786 C 655 1786 723 1759 780 1705 C 837 1651 866 1583 866 1501 Z M 688 1501 C 688 1538 678 1568 658 1590 C 638 1612 610 1624 575 1624 C 539 1624 512 1612 492 1590 C 472 1568 462 1538 462 1501 C 462 1463 472 1434 492 1412 C 512 1390 539 1380 575 1380 C 610 1380 638 1390 658 1412 C 678 1434 688 1463 688 1501 Z" unicode="å" />
<glyph horiz-adv-x="1735" d="M 1663 504 L 1663 464 L 1661 432 L 1030 432 C 1036 372 1055 328 1088 301 C 1120 273 1162 260 1212 260 C 1262 260 1309 266 1353 278 C 1396 290 1442 310 1491 336 L 1632 100 C 1490 18 1344 -23 1194 -23 C 1044 -23 933 28 862 131 C 762 28 630 -23 467 -23 C 207 -23 78 100 78 348 C 78 458 112 543 181 605 C 249 667 344 698 465 698 C 546 698 620 683 688 653 L 688 707 C 688 754 675 787 650 806 C 624 824 587 834 537 834 C 479 834 427 828 383 816 C 338 804 290 784 238 756 L 141 999 C 277 1065 428 1098 594 1098 C 738 1098 837 1054 893 967 C 963 1054 1064 1098 1194 1098 C 1343 1098 1458 1046 1540 943 C 1622 839 1663 693 1663 504 Z M 1337 662 C 1326 724 1308 767 1282 790 C 1256 813 1220 825 1174 825 C 1090 825 1042 770 1030 662 L 1337 662 Z M 688 291 L 688 438 C 642 458 589 469 530 469 C 454 469 416 430 416 354 C 416 320 425 293 443 271 C 461 249 490 238 530 238 C 561 238 591 243 619 253 C 647 263 670 276 688 291 Z" unicode="æ" />
<glyph horiz-adv-x="1065" d="M 1008 233 C 949 144 888 80 824 40 C 760 0 682 -20 590 -23 L 571 -86 C 595 -74 623 -68 657 -68 C 709 -68 748 -81 776 -108 C 803 -135 817 -171 817 -217 C 817 -273 797 -316 759 -348 C 720 -379 664 -395 590 -395 C 491 -395 391 -370 289 -322 L 328 -227 C 399 -259 468 -276 535 -276 C 597 -276 629 -257 629 -221 C 629 -205 624 -194 616 -186 C 608 -178 597 -174 584 -174 C 560 -174 534 -183 508 -203 L 430 -150 L 467 -14 C 339 7 242 65 174 161 C 106 257 72 383 72 541 C 72 717 117 853 207 951 C 297 1049 422 1098 584 1098 C 674 1098 752 1078 818 1040 C 884 1001 943 938 997 852 L 743 659 C 713 714 687 751 664 770 C 640 789 612 799 578 799 C 483 799 436 711 436 535 C 436 362 486 276 588 276 C 623 276 654 286 682 308 C 710 330 740 366 774 416 L 1008 233 Z" unicode="ç" />
<glyph horiz-adv-x="1114" d="M 1042 504 L 1042 464 L 1040 432 L 410 432 C 416 372 435 328 468 301 C 500 273 542 260 592 260 C 639 260 683 265 725 277 C 767 288 815 308 870 336 L 1012 100 C 870 18 724 -23 573 -23 C 417 -23 294 27 205 128 C 116 229 72 365 72 537 C 72 711 115 848 203 948 C 291 1048 411 1098 563 1098 C 717 1098 836 1046 918 944 C 1000 842 1042 695 1042 504 Z M 717 662 C 706 723 688 765 663 789 C 638 813 601 825 553 825 C 469 825 422 770 410 662 L 717 662 Z M 722 1219 L 460 1219 L 138 1546 L 575 1546 L 722 1219 Z" unicode="è" />
<glyph horiz-adv-x="1114" d="M 1042 504 L 1042 464 L 1040 432 L 410 432 C 416 372 435 328 468 301 C 500 273 542 260 592 260 C 639 260 683 265 725 277 C 767 288 815 308 870 336 L 1012 100 C 870 18 724 -23 573 -23 C 417 -23 294 27 205 128 C 116 229 72 365 72 537 C 72 711 115 848 203 948 C 291 1048 411 1098 563 1098 C 717 1098 836 1046 918 944 C 1000 842 1042 695 1042 504 Z M 717 662 C 706 723 688 765 663 789 C 638 813 601 825 553 825 C 469 825 422 770 410 662 L 717 662 Z M 994 1546 L 672 1219 L 410 1219 L 557 1546 L 994 1546 Z" unicode="é" />
<glyph horiz-adv-x="1114" d="M 1042 504 L 1042 464 L 1040 432 L 410 432 C 416 372 435 328 468 301 C 500 273 542 260 592 260 C 639 260 683 265 725 277 C 767 288 815 308 870 336 L 1012 100 C 870 18 724 -23 573 -23 C 417 -23 294 27 205 128 C 116 229 72 365 72 537 C 72 711 115 848 203 948 C 291 1048 411 1098 563 1098 C 717 1098 836 1046 918 944 C 1000 842 1042 695 1042 504 Z M 717 662 C 706 723 688 765 663 789 C 638 813 601 825 553 825 C 469 825 422 770 410 662 L 717 662 Z M 979 1200 L 733 1200 L 563 1331 L 393 1200 L 151 1200 L 420 1527 L 710 1527 L 979 1200 Z" unicode="ê" />
<glyph horiz-adv-x="1114" d="M 1042 504 L 1042 464 L 1040 432 L 410 432 C 416 372 435 328 468 301 C 500 273 542 260 592 260 C 639 260 683 265 725 277 C 767 288 815 308 870 336 L 1012 100 C 870 18 724 -23 573 -23 C 417 -23 294 27 205 128 C 116 229 72 365 72 537 C 72 711 115 848 203 948 C 291 1048 411 1098 563 1098 C 717 1098 836 1046 918 944 C 1000 842 1042 695 1042 504 Z M 717 662 C 706 723 688 765 663 789 C 638 813 601 825 553 825 C 469 825 422 770 410 662 L 717 662 Z M 993 1396 C 993 1349 974 1308 938 1273 C 901 1237 859 1220 813 1220 C 764 1220 721 1237 684 1272 C 646 1307 628 1348 628 1396 C 628 1445 646 1487 683 1523 C 719 1558 763 1576 813 1576 C 861 1576 903 1558 939 1522 C 975 1486 993 1444 993 1396 Z M 506 1396 C 506 1349 487 1308 451 1273 C 414 1237 371 1220 323 1220 C 275 1220 232 1237 196 1273 C 159 1308 141 1349 141 1396 C 141 1444 158 1486 194 1522 C 230 1558 273 1576 323 1576 C 373 1576 416 1558 452 1522 C 488 1486 506 1444 506 1396 Z" unicode="ë" />
<glyph horiz-adv-x="618" d="M 494 0 L 125 0 L 125 1075 L 494 1075 L 494 0 Z M 478 1219 L 216 1219 L -106 1546 L 331 1546 L 478 1219 Z" unicode="ì" />
<glyph horiz-adv-x="618" d="M 494 0 L 125 0 L 125 1075 L 494 1075 L 494 0 Z M 735 1546 L 413 1219 L 151 1219 L 298 1546 L 735 1546 Z" unicode="í" />
<glyph horiz-adv-x="618" d="M 494 0 L 125 0 L 125 1075 L 494 1075 L 494 0 Z M 724 1189 L 478 1189 L 308 1320 L 138 1189 L -104 1189 L 165 1516 L 455 1516 L 724 1189 Z" unicode="î" />
<glyph horiz-adv-x="618" d="M 494 0 L 125 0 L 125 1075 L 494 1075 L 494 0 Z M 736 1386 C 736 1339 717 1298 681 1263 C 644 1227 602 1210 556 1210 C 507 1210 464 1227 427 1262 C 389 1297 371 1338 371 1386 C 371 1435 389 1477 426 1513 C 462 1548 506 1566 556 1566 C 604 1566 646 1548 682 1512 C 718 1476 736 1434 736 1386 Z M 249 1386 C 249 1339 230 1298 194 1263 C 157 1227 114 1210 66 1210 C 18 1210 -24 1227 -61 1263 C -97 1298 -116 1339 -116 1386 C -116 1434 -98 1476 -62 1512 C -26 1548 16 1566 66 1566 C 116 1566 159 1548 195 1512 C 231 1476 249 1434 249 1386 Z" unicode="ï" />
<glyph horiz-adv-x="1165" d="M 1094 547 C 1094 426 1073 323 1031 238 C 989 152 930 87 854 43 C 777 0 686 -23 582 -23 C 487 -23 400 -2 322 38 C 243 78 182 136 138 210 C 94 284 72 370 72 467 C 72 555 90 634 126 706 C 162 778 214 835 282 879 C 350 922 422 944 500 944 C 566 944 621 937 665 923 C 709 909 747 887 780 856 C 764 934 725 1003 662 1063 L 580 977 L 432 1098 L 498 1165 C 440 1189 374 1204 301 1208 L 301 1456 C 451 1456 581 1426 692 1368 L 778 1456 L 926 1335 L 848 1255 C 929 1176 990 1077 1032 957 C 1073 837 1094 700 1094 547 Z M 727 467 C 727 527 714 574 690 606 C 666 638 630 655 582 655 C 534 655 498 639 473 607 C 448 575 436 528 436 467 C 436 402 449 354 476 323 C 503 291 538 276 582 276 C 625 276 660 291 687 323 C 713 354 727 402 727 467 Z" unicode="ð" />
<glyph horiz-adv-x="1208" d="M 1102 0 L 731 0 L 731 610 C 731 672 721 717 702 745 C 682 772 651 786 608 786 C 563 786 531 772 512 745 C 492 717 483 674 483 614 L 483 0 L 115 0 L 115 1075 L 483 1075 L 483 1004 C 527 1037 570 1061 612 1076 C 654 1090 702 1098 754 1098 C 871 1098 958 1059 1016 983 C 1073 907 1102 798 1102 657 L 1102 0 Z M 1055 1534 C 1055 1439 1030 1362 981 1302 C 932 1242 867 1212 787 1212 C 753 1212 723 1215 697 1222 C 670 1229 639 1243 605 1264 C 575 1281 550 1295 531 1306 C 512 1317 495 1323 480 1323 C 457 1323 440 1314 429 1298 C 417 1281 409 1255 404 1219 L 193 1219 C 193 1313 217 1390 266 1450 C 315 1510 380 1540 461 1540 C 496 1540 528 1536 556 1528 C 584 1520 614 1507 644 1489 C 674 1471 698 1457 717 1446 C 735 1435 752 1430 768 1430 C 791 1430 808 1438 820 1456 C 832 1474 840 1500 844 1534 L 1055 1534 Z" unicode="ñ" />
<glyph horiz-adv-x="1165" d="M 1094 539 C 1094 362 1048 224 956 125 C 864 26 740 -23 582 -23 C 423 -23 298 26 208 126 C 117 226 72 363 72 539 C 72 655 92 756 134 840 C 175 924 234 988 312 1032 C 389 1076 479 1098 582 1098 C 740 1098 864 1049 956 951 C 1048 853 1094 715 1094 539 Z M 727 539 C 727 630 714 696 690 737 C 666 778 630 799 582 799 C 533 799 496 778 472 737 C 448 696 436 630 436 539 C 436 363 484 276 582 276 C 678 276 727 363 727 539 Z M 724 1219 L 462 1219 L 140 1546 L 577 1546 L 724 1219 Z" unicode="ò" />
<glyph horiz-adv-x="1165" d="M 1094 539 C 1094 362 1048 224 956 125 C 864 26 740 -23 582 -23 C 423 -23 298 26 208 126 C 117 226 72 363 72 539 C 72 655 92 756 134 840 C 175 924 234 988 312 1032 C 389 1076 479 1098 582 1098 C 740 1098 864 1049 956 951 C 1048 853 1094 715 1094 539 Z M 727 539 C 727 630 714 696 690 737 C 666 778 630 799 582 799 C 533 799 496 778 472 737 C 448 696 436 630 436 539 C 436 363 484 276 582 276 C 678 276 727 363 727 539 Z M 1016 1546 L 694 1219 L 432 1219 L 579 1546 L 1016 1546 Z" unicode="ó" />
<glyph horiz-adv-x="1165" d="M 1094 539 C 1094 362 1048 224 956 125 C 864 26 740 -23 582 -23 C 423 -23 298 26 208 126 C 117 226 72 363 72 539 C 72 655 92 756 134 840 C 175 924 234 988 312 1032 C 389 1076 479 1098 582 1098 C 740 1098 864 1049 956 951 C 1048 853 1094 715 1094 539 Z M 727 539 C 727 630 714 696 690 737 C 666 778 630 799 582 799 C 533 799 496 778 472 737 C 448 696 436 630 436 539 C 436 363 484 276 582 276 C 678 276 727 363 727 539 Z M 996 1200 L 750 1200 L 580 1331 L 410 1200 L 168 1200 L 437 1527 L 727 1527 L 996 1200 Z" unicode="ô" />
<glyph horiz-adv-x="1165" d="M 1094 539 C 1094 362 1048 224 956 125 C 864 26 740 -23 582 -23 C 423 -23 298 26 208 126 C 117 226 72 363 72 539 C 72 655 92 756 134 840 C 175 924 234 988 312 1032 C 389 1076 479 1098 582 1098 C 740 1098 864 1049 956 951 C 1048 853 1094 715 1094 539 Z M 727 539 C 727 630 714 696 690 737 C 666 778 630 799 582 799 C 533 799 496 778 472 737 C 448 696 436 630 436 539 C 436 363 484 276 582 276 C 678 276 727 363 727 539 Z M 1014 1534 C 1014 1439 989 1362 940 1302 C 891 1242 826 1212 746 1212 C 712 1212 682 1215 656 1222 C 629 1229 598 1243 564 1264 C 534 1281 509 1295 490 1306 C 471 1317 454 1323 439 1323 C 416 1323 399 1314 388 1298 C 376 1281 368 1255 363 1219 L 152 1219 C 152 1313 176 1390 225 1450 C 274 1510 339 1540 420 1540 C 455 1540 487 1536 515 1528 C 543 1520 573 1507 603 1489 C 633 1471 657 1457 676 1446 C 694 1435 711 1430 727 1430 C 750 1430 767 1438 779 1456 C 791 1474 799 1500 803 1534 L 1014 1534 Z" unicode="õ" />
<glyph horiz-adv-x="1165" d="M 1094 539 C 1094 362 1048 224 956 125 C 864 26 740 -23 582 -23 C 423 -23 298 26 208 126 C 117 226 72 363 72 539 C 72 655 92 756 134 840 C 175 924 234 988 312 1032 C 389 1076 479 1098 582 1098 C 740 1098 864 1049 956 951 C 1048 853 1094 715 1094 539 Z M 727 539 C 727 630 714 696 690 737 C 666 778 630 799 582 799 C 533 799 496 778 472 737 C 448 696 436 630 436 539 C 436 363 484 276 582 276 C 678 276 727 363 727 539 Z M 1008 1386 C 1008 1339 989 1298 953 1263 C 916 1227 874 1210 828 1210 C 779 1210 736 1227 699 1262 C 661 1297 643 1338 643 1386 C 643 1435 661 1477 698 1513 C 734 1548 778 1566 828 1566 C 876 1566 918 1548 954 1512 C 990 1476 1008 1434 1008 1386 Z M 521 1386 C 521 1339 502 1298 466 1263 C 429 1227 386 1210 338 1210 C 290 1210 247 1227 211 1263 C 174 1298 156 1339 156 1386 C 156 1434 173 1476 209 1512 C 245 1548 288 1566 338 1566 C 388 1566 431 1548 467 1512 C 503 1476 521 1434 521 1386 Z" unicode="ö" />
<glyph horiz-adv-x="1536" d="M 208 684 L 208 896 L 1328 896 L 1328 684 L 208 684 Z M 768 228 C 725 228 688 244 656 276 C 624 308 608 345 608 388 C 608 430 622 468 650 500 C 678 532 717 548 768 548 C 816 548 854 532 884 500 C 913 468 928 430 928 388 C 928 345 912 308 880 276 C 848 244 810 228 768 228 Z M 768 1028 C 725 1028 688 1044 656 1076 C 624 1108 608 1145 608 1188 C 608 1230 622 1268 650 1300 C 678 1332 717 1348 768 1348 C 816 1348 854 1332 884 1300 C 913 1268 928 1230 928 1188 C 928 1145 912 1108 880 1076 C 848 1044 810 1028 768 1028 Z" unicode="÷" />
<glyph horiz-adv-x="1165" d="M 1126 1178 L 977 926 C 1055 830 1094 701 1094 539 C 1094 362 1048 224 956 125 C 864 26 740 -23 582 -23 C 524 -23 472 -16 426 -2 L 367 -102 L 33 -102 L 184 154 C 109 252 72 380 72 539 C 72 655 92 756 134 840 C 175 924 234 988 312 1032 C 389 1076 479 1098 582 1098 C 636 1098 687 1091 733 1079 L 793 1178 L 1126 1178 Z M 727 539 C 727 630 714 696 690 737 C 666 778 630 799 582 799 C 533 799 496 778 472 737 C 448 696 436 630 436 539 C 436 363 484 276 582 276 C 678 276 727 363 727 539 Z" unicode="ø" />
<glyph horiz-adv-x="1208" d="M 1094 0 L 723 0 L 723 72 C 681 38 639 14 597 0 C 554 -15 507 -23 455 -23 C 337 -23 249 15 192 91 C 134 167 106 276 106 418 L 106 1075 L 477 1075 L 477 465 C 477 403 486 359 505 331 C 524 303 556 289 600 289 C 643 289 674 302 694 330 C 713 357 723 401 723 461 L 723 1075 L 1094 1075 L 1094 0 Z M 759 1219 L 497 1219 L 175 1546 L 612 1546 L 759 1219 Z" unicode="ù" />
<glyph horiz-adv-x="1208" d="M 1094 0 L 723 0 L 723 72 C 681 38 639 14 597 0 C 554 -15 507 -23 455 -23 C 337 -23 249 15 192 91 C 134 167 106 276 106 418 L 106 1075 L 477 1075 L 477 465 C 477 403 486 359 505 331 C 524 303 556 289 600 289 C 643 289 674 302 694 330 C 713 357 723 401 723 461 L 723 1075 L 1094 1075 L 1094 0 Z M 1031 1546 L 709 1219 L 447 1219 L 594 1546 L 1031 1546 Z" unicode="ú" />
<glyph horiz-adv-x="1208" d="M 1094 0 L 723 0 L 723 72 C 681 38 639 14 597 0 C 554 -15 507 -23 455 -23 C 337 -23 249 15 192 91 C 134 167 106 276 106 418 L 106 1075 L 477 1075 L 477 465 C 477 403 486 359 505 331 C 524 303 556 289 600 289 C 643 289 674 302 694 330 C 713 357 723 401 723 461 L 723 1075 L 1094 1075 L 1094 0 Z M 1020 1219 L 774 1219 L 604 1350 L 434 1219 L 192 1219 L 461 1546 L 751 1546 L 1020 1219 Z" unicode="û" />
<glyph horiz-adv-x="1208" d="M 1094 0 L 723 0 L 723 72 C 681 38 639 14 597 0 C 554 -15 507 -23 455 -23 C 337 -23 249 15 192 91 C 134 167 106 276 106 418 L 106 1075 L 477 1075 L 477 465 C 477 403 486 359 505 331 C 524 303 556 289 600 289 C 643 289 674 302 694 330 C 713 357 723 401 723 461 L 723 1075 L 1094 1075 L 1094 0 Z M 1032 1405 C 1032 1358 1013 1317 977 1282 C 940 1246 898 1229 852 1229 C 803 1229 760 1246 723 1281 C 685 1316 667 1357 667 1405 C 667 1454 685 1496 722 1532 C 758 1567 802 1585 852 1585 C 900 1585 942 1567 978 1531 C 1014 1495 1032 1453 1032 1405 Z M 545 1405 C 545 1358 526 1317 490 1282 C 453 1246 410 1229 362 1229 C 314 1229 271 1246 235 1282 C 198 1317 180 1358 180 1405 C 180 1453 197 1495 233 1531 C 269 1567 312 1585 362 1585 C 412 1585 455 1567 491 1531 C 527 1495 545 1453 545 1405 Z" unicode="ü" />
<glyph horiz-adv-x="1208" d="M 1178 1075 L 657 -379 L 305 -379 L 440 -45 L 31 1075 L 422 1075 L 524 692 C 566 531 594 403 606 309 C 621 409 649 538 690 696 L 791 1075 L 1178 1075 Z M 1063 1527 L 741 1200 L 479 1200 L 626 1527 L 1063 1527 Z" unicode="ý" />
<glyph horiz-adv-x="1171" d="M 1096 541 C 1096 354 1064 213 1001 119 C 937 24 845 -23 723 -23 C 683 -23 645 -15 607 -1 C 569 12 528 37 483 72 L 483 -248 L 115 -395 L 115 1346 L 483 1493 L 483 999 C 530 1036 573 1062 611 1076 C 649 1090 691 1098 737 1098 C 851 1098 940 1049 1002 953 C 1064 857 1096 719 1096 541 Z M 731 528 C 731 622 722 690 706 732 C 689 774 658 795 614 795 C 570 795 527 777 483 743 L 483 332 C 502 316 522 304 542 295 C 562 285 587 281 616 281 C 660 281 690 300 706 340 C 722 379 731 442 731 528 Z" unicode="þ" />
<glyph horiz-adv-x="1208" d="M 1178 1075 L 657 -379 L 305 -379 L 440 -45 L 31 1075 L 422 1075 L 524 692 C 566 531 594 403 606 309 C 621 409 649 538 690 696 L 791 1075 L 1178 1075 Z M 1030 1386 C 1030 1339 1011 1298 975 1263 C 938 1227 896 1210 850 1210 C 801 1210 758 1227 721 1262 C 683 1297 665 1338 665 1386 C 665 1435 683 1477 720 1513 C 756 1548 800 1566 850 1566 C 898 1566 940 1548 976 1512 C 1012 1476 1030 1434 1030 1386 Z M 543 1386 C 543 1339 524 1298 488 1263 C 451 1227 408 1210 360 1210 C 312 1210 269 1227 233 1263 C 196 1298 178 1339 178 1386 C 178 1434 195 1476 231 1512 C 267 1548 310 1566 360 1566 C 410 1566 453 1548 489 1512 C 525 1476 543 1434 543 1386 Z" unicode="ÿ" />
<glyph horiz-adv-x="1393" d="M 1298 1335 C 1298 1280 1278 1236 1240 1203 C 1201 1169 1149 1153 1083 1153 C 1020 1153 969 1169 930 1203 C 891 1237 872 1281 872 1335 C 872 1387 892 1430 932 1463 C 972 1496 1023 1513 1083 1513 C 1146 1513 1198 1496 1238 1464 C 1278 1431 1298 1388 1298 1335 Z M 725 1204 C 693 1219 657 1227 618 1227 C 590 1227 570 1221 560 1211 C 550 1201 545 1183 545 1159 L 545 1075 L 711 1075 L 711 786 L 551 786 L 551 0 L 188 0 L 188 786 L 74 786 L 74 1075 L 188 1075 L 188 1180 C 188 1289 212 1367 261 1415 C 309 1463 386 1487 492 1487 C 590 1487 668 1472 725 1442 L 725 1204 Z M 1268 0 L 899 0 L 899 1075 L 1268 1075 L 1268 0 Z" unicode="ﬁ" />
<glyph horiz-adv-x="1393" d="M 1268 0 L 899 0 L 899 1346 L 1268 1493 L 1268 0 Z M 725 1204 C 693 1219 657 1227 618 1227 C 590 1227 570 1221 560 1211 C 550 1201 545 1183 545 1159 L 545 1075 L 711 1075 L 711 786 L 551 786 L 551 0 L 188 0 L 188 786 L 74 786 L 74 1075 L 188 1075 L 188 1180 C 188 1289 212 1367 261 1415 C 309 1463 386 1487 492 1487 C 590 1487 668 1472 725 1442 L 725 1204 Z" unicode="ﬂ" />
<glyph horiz-adv-x="1206" d="M 1073 750 C 1073 664 1052 586 1012 514 C 971 442 914 385 842 343 C 769 301 689 281 602 281 C 516 281 436 301 364 343 C 291 385 234 442 194 514 C 153 586 133 665 133 750 C 133 835 153 914 194 987 C 234 1059 291 1117 365 1159 C 438 1201 517 1223 602 1223 C 688 1223 767 1201 840 1159 C 913 1117 970 1059 1011 987 C 1052 915 1073 836 1073 750 Z" unicode="•" />
<glyph horiz-adv-x="1024" d="M 846 1249 L 178 1249 L 178 1485 L 846 1485 L 846 1249 Z" unicode="̄" />
<glyph horiz-adv-x="1024" d="M 907 1546 C 884 1433 840 1350 775 1298 C 710 1245 622 1219 510 1219 C 400 1219 312 1245 248 1298 C 184 1350 140 1433 117 1546 L 332 1546 C 357 1462 418 1421 514 1421 C 607 1421 666 1462 692 1546 L 907 1546 Z" unicode="˘" />
<glyph horiz-adv-x="1024" d="M 705 1405 C 705 1356 685 1313 646 1275 C 607 1237 562 1219 512 1219 C 462 1219 418 1237 378 1275 C 338 1312 319 1355 319 1405 C 319 1457 338 1502 378 1539 C 417 1576 462 1595 512 1595 C 564 1595 609 1576 647 1538 C 685 1500 705 1456 705 1405 Z" unicode="˙" />
<glyph horiz-adv-x="1024" d="M 803 1501 C 803 1420 774 1353 718 1299 C 662 1245 593 1219 512 1219 C 430 1219 361 1245 305 1299 C 249 1353 221 1420 221 1501 C 221 1582 249 1650 306 1704 C 363 1758 432 1786 512 1786 C 592 1786 660 1759 717 1705 C 774 1651 803 1583 803 1501 Z M 625 1501 C 625 1538 615 1568 595 1590 C 575 1612 547 1624 512 1624 C 476 1624 449 1612 429 1590 C 409 1568 399 1538 399 1501 C 399 1463 409 1434 429 1412 C 449 1390 476 1380 512 1380 C 547 1380 575 1390 595 1412 C 615 1434 625 1463 625 1501 Z" unicode="˚" />
<glyph horiz-adv-x="3144" d="M 909 1012 C 909 872 870 762 793 682 C 716 602 613 563 483 563 C 353 563 250 602 174 681 C 98 760 61 869 61 1008 C 61 1146 99 1256 176 1336 C 253 1416 357 1456 487 1456 C 617 1456 720 1416 796 1338 C 871 1259 909 1150 909 1012 Z M 1702 1434 L 823 0 L 510 0 L 1389 1434 L 1702 1434 Z M 3103 426 C 3103 286 3064 176 2987 96 C 2909 16 2806 -23 2677 -23 C 2547 -23 2444 16 2368 95 C 2292 174 2255 283 2255 422 C 2255 560 2293 669 2369 749 C 2445 829 2549 870 2681 870 C 2811 870 2914 830 2990 752 C 3065 673 3103 564 3103 426 Z M 2150 426 C 2150 286 2111 176 2034 96 C 1957 16 1854 -23 1724 -23 C 1593 -23 1490 16 1415 96 C 1340 176 1303 284 1303 422 C 1303 560 1341 669 1417 749 C 1493 829 1597 870 1729 870 C 1860 870 1963 830 2038 751 C 2112 671 2150 563 2150 426 Z M 608 1008 C 608 1088 598 1146 580 1181 C 561 1215 529 1233 485 1233 C 439 1233 407 1216 389 1184 C 371 1152 362 1094 362 1012 C 362 930 371 871 391 837 C 410 803 442 786 487 786 C 531 786 562 802 580 835 C 598 867 608 925 608 1008 Z M 2802 422 C 2802 502 2792 560 2774 595 C 2755 629 2723 647 2679 647 C 2633 647 2601 630 2583 598 C 2565 566 2556 508 2556 426 C 2556 344 2565 286 2585 252 C 2604 218 2636 201 2681 201 C 2725 201 2756 217 2774 249 C 2792 281 2802 339 2802 422 Z M 1849 422 C 1849 502 1839 560 1821 595 C 1802 629 1770 647 1726 647 C 1681 647 1649 631 1631 599 C 1613 567 1604 509 1604 426 C 1604 344 1613 286 1633 252 C 1652 218 1684 201 1729 201 C 1773 201 1804 217 1822 250 C 1840 283 1849 340 1849 422 Z" unicode="‰" />
<glyph horiz-adv-x="1718" d="M 721 1241 L 498 1241 L 498 631 L 274 631 L 274 1241 L 49 1241 L 49 1434 L 721 1434 L 721 1241 Z M 1653 631 L 1444 631 L 1444 823 C 1444 924 1445 995 1448 1036 L 1356 825 L 1249 604 C 1140 834 1074 978 1051 1036 C 1053 995 1055 924 1055 823 L 1055 631 L 848 631 L 848 1434 L 1051 1434 C 1151 1214 1208 1089 1222 1057 C 1235 1025 1245 998 1251 977 C 1257 998 1267 1027 1283 1065 C 1298 1102 1354 1225 1450 1434 L 1653 1434 L 1653 631 Z" unicode="™" />
<glyph horiz-adv-x="1024" d="M 791 -303 C 701 -364 604 -395 502 -395 C 438 -395 388 -379 350 -349 C 312 -319 293 -281 293 -236 C 293 -199 305 -160 330 -119 C 355 -77 390 -38 436 0 L 561 0 C 539 -45 524 -82 516 -111 C 508 -139 504 -168 504 -197 C 504 -214 511 -229 525 -241 C 539 -253 558 -260 582 -260 C 632 -260 690 -245 756 -217 L 791 -303 Z" unicode="˛" />
<glyph horiz-adv-x="1664" d="M 832 1376 C 706 1376 599 1328 510 1234 C 420 1139 376 1006 376 836 C 376 673 405 538 464 432 C 522 325 609 241 724 180 L 724 0 L 88 0 L 88 196 L 536 196 C 456 225 378 295 304 406 C 229 516 192 664 192 848 C 192 1024 247 1184 358 1330 C 468 1475 626 1548 832 1548 C 1037 1548 1195 1478 1306 1338 C 1416 1198 1472 1034 1472 848 C 1472 664 1434 516 1360 406 C 1285 295 1208 225 1128 196 L 1576 196 L 1576 0 L 940 0 L 940 180 C 1054 241 1141 325 1200 432 C 1258 538 1288 673 1288 836 C 1288 974 1246 1099 1162 1210 C 1078 1320 968 1376 832 1376 Z" unicode="Ω" />
<glyph horiz-adv-x="1024" d="M 946 1534 C 946 1439 921 1362 872 1302 C 823 1242 758 1212 678 1212 C 644 1212 614 1215 588 1222 C 561 1229 530 1243 496 1264 C 466 1281 441 1295 422 1306 C 403 1317 386 1323 371 1323 C 348 1323 331 1314 320 1298 C 308 1281 300 1255 295 1219 L 84 1219 C 84 1313 108 1390 157 1450 C 206 1510 271 1540 352 1540 C 387 1540 419 1536 447 1528 C 475 1520 505 1507 535 1489 C 565 1471 589 1457 608 1446 C 626 1435 643 1430 659 1430 C 682 1430 699 1438 711 1456 C 723 1474 731 1500 735 1534 L 946 1534 Z" unicode="˜" />
<glyph horiz-adv-x="1024" d="M 1044 1546 L 743 1219 L 492 1219 L 649 1546 L 1044 1546 Z M 584 1546 L 283 1219 L 31 1219 L 188 1546 L 584 1546 Z" unicode="˝" />
<glyph horiz-adv-x="618" d="M 494 0 L 125 0 L 125 1075 L 494 1075 L 494 0 Z" unicode="ı" />
<glyph horiz-adv-x="1300" d="M 1223 0 L 186 0 L 186 471 L 72 395 L 72 739 L 186 815 L 186 1434 L 578 1434 L 578 1020 L 778 1147 L 778 803 L 578 676 L 578 346 L 1223 346 L 1223 0 Z" unicode="Ł" />
<glyph horiz-adv-x="700" d="M 655 709 L 528 637 L 528 0 L 172 0 L 172 479 L 45 408 L 45 752 L 172 823 L 172 1346 L 528 1493 L 528 981 L 655 1053 L 655 709 Z" unicode="ł" />
<glyph horiz-adv-x="1024" d="M 926 1219 L 680 1219 L 510 1350 L 340 1219 L 98 1219 L 367 1546 L 657 1546 L 926 1219 Z" unicode="ˆ" />
<glyph horiz-adv-x="2177" d="M 2068 0 L 1090 0 L 1090 133 C 1052 81 1001 42 938 16 C 874 -10 804 -23 727 -23 C 600 -23 488 7 391 67 C 293 127 218 213 165 325 C 112 437 86 567 86 715 C 86 863 113 994 167 1107 C 221 1219 298 1306 396 1366 C 494 1426 606 1456 731 1456 C 895 1456 1014 1404 1090 1300 L 1090 1434 L 2054 1434 L 2054 1100 L 1370 1100 L 1370 909 L 1774 909 L 1774 580 L 1370 580 L 1370 334 L 2068 334 L 2068 0 Z M 1001 715 C 1001 845 978 943 934 1010 C 890 1076 828 1110 748 1110 C 667 1110 605 1077 562 1012 C 519 946 498 849 498 719 C 498 589 520 490 564 424 C 608 357 671 324 752 324 C 832 324 893 356 936 422 C 979 487 1001 585 1001 715 Z" unicode="Œ" />
<glyph horiz-adv-x="1765" d="M 1694 504 L 1694 464 L 1692 432 L 1061 432 C 1067 372 1086 328 1119 301 C 1151 273 1193 260 1243 260 C 1289 260 1334 265 1377 277 C 1420 289 1468 308 1522 336 L 1663 100 C 1521 18 1379 -23 1235 -23 C 1159 -23 1094 -11 1042 12 C 989 35 941 75 899 133 C 853 78 804 38 752 14 C 699 -10 639 -23 571 -23 C 471 -23 384 0 308 44 C 232 89 174 154 133 239 C 92 323 72 423 72 539 C 72 653 92 753 133 837 C 173 921 231 986 307 1031 C 383 1075 471 1098 571 1098 C 723 1098 835 1047 905 946 C 981 1047 1087 1098 1225 1098 C 1374 1098 1489 1046 1571 942 C 1653 838 1694 692 1694 504 Z M 1368 662 C 1357 724 1339 767 1313 790 C 1287 813 1251 825 1204 825 C 1120 825 1073 770 1061 662 L 1368 662 Z M 727 539 C 727 630 714 696 690 737 C 666 778 630 799 582 799 C 533 799 496 778 472 737 C 448 696 436 630 436 539 C 436 363 484 276 582 276 C 678 276 727 363 727 539 Z" unicode="œ" />
<glyph horiz-adv-x="805" d="M 721 0 L 322 0 L 61 537 L 322 1075 L 721 1075 L 453 539 L 721 0 Z" unicode="‹" />
<glyph horiz-adv-x="805" d="M 743 539 L 483 0 L 84 0 L 352 537 L 84 1075 L 483 1075 L 743 539 Z" unicode="›" />
<glyph horiz-adv-x="1391" d="M 1286 440 C 1286 290 1234 175 1132 96 C 1030 16 884 -23 694 -23 C 588 -23 481 -7 374 23 C 267 54 172 97 90 152 L 283 463 C 342 421 412 387 492 360 C 572 332 642 319 702 319 C 772 319 820 326 848 340 C 875 354 889 378 889 412 C 889 439 871 462 837 481 C 803 500 739 521 645 543 C 504 575 399 610 331 648 C 262 686 212 733 180 789 C 148 845 133 917 133 1004 C 133 1093 156 1172 202 1241 C 248 1310 315 1363 401 1400 C 487 1437 586 1456 698 1456 C 810 1456 912 1443 1005 1417 C 1097 1391 1186 1348 1270 1290 L 1077 979 C 944 1069 811 1114 678 1114 C 626 1114 589 1107 565 1093 C 541 1079 530 1056 530 1026 C 530 1000 545 978 577 962 C 608 946 671 927 766 905 C 959 859 1094 801 1171 732 C 1247 662 1286 565 1286 440 Z M 1116 1857 L 847 1530 L 557 1530 L 288 1857 L 534 1857 L 704 1726 L 874 1857 L 1116 1857 Z" unicode="Š" />
<glyph horiz-adv-x="1071" d="M 981 340 C 981 221 942 131 866 69 C 790 7 680 -23 537 -23 C 387 -23 237 6 88 66 L 174 344 C 238 316 303 293 371 276 C 438 258 496 250 545 250 C 581 250 606 254 621 262 C 635 270 643 282 643 299 C 643 317 637 330 626 340 C 614 349 591 358 557 367 C 425 401 331 434 273 465 C 215 495 173 532 148 574 C 123 616 111 673 111 745 C 111 859 148 947 224 1007 C 299 1067 407 1098 549 1098 C 621 1098 687 1092 749 1080 C 810 1068 881 1048 963 1020 L 881 735 C 744 795 630 825 539 825 C 503 825 479 821 467 814 C 455 806 449 794 449 778 C 449 760 455 746 468 738 C 481 729 510 718 555 705 C 678 671 767 639 823 609 C 879 579 919 543 944 501 C 968 459 981 405 981 340 Z M 944 1546 L 675 1219 L 385 1219 L 116 1546 L 362 1546 L 532 1415 L 702 1546 L 944 1546 Z" unicode="š" />
<glyph horiz-adv-x="1152" d="M -8 -392 L 56 -260 C 96 -273 132 -280 164 -280 C 196 -280 222 -268 242 -246 C 262 -223 277 -178 288 -112 L 516 1224 C 553 1437 674 1544 880 1544 C 941 1544 995 1536 1042 1522 C 1088 1507 1125 1492 1152 1476 L 1088 1304 C 1008 1354 935 1380 868 1380 C 806 1380 760 1360 730 1322 C 699 1283 680 1238 672 1188 L 448 -224 C 434 -296 402 -348 350 -382 C 298 -415 240 -432 176 -432 C 136 -432 99 -428 66 -420 C 32 -412 8 -402 -8 -392 Z" unicode="∫" />
<glyph horiz-adv-x="1024" d="M 926 1546 L 657 1219 L 367 1219 L 98 1546 L 344 1546 L 514 1415 L 684 1546 L 926 1546 Z" unicode="ˇ" />
<glyph horiz-adv-x="1528" d="M 1495 1434 L 965 535 L 965 0 L 563 0 L 563 528 L 33 1434 L 492 1434 C 600 1219 670 1078 700 1010 C 730 942 752 887 766 846 C 774 870 785 901 800 937 C 815 973 833 1015 855 1063 C 877 1111 938 1234 1040 1434 L 1495 1434 Z M 1190 1702 C 1190 1655 1171 1614 1135 1579 C 1098 1543 1056 1526 1010 1526 C 961 1526 918 1543 881 1578 C 843 1613 825 1654 825 1702 C 825 1751 843 1793 880 1829 C 916 1864 960 1882 1010 1882 C 1058 1882 1100 1864 1136 1828 C 1172 1792 1190 1750 1190 1702 Z M 703 1702 C 703 1655 684 1614 648 1579 C 611 1543 568 1526 520 1526 C 472 1526 429 1543 393 1579 C 356 1614 338 1655 338 1702 C 338 1750 355 1792 391 1828 C 427 1864 470 1882 520 1882 C 570 1882 613 1864 649 1828 C 685 1792 703 1750 703 1702 Z" unicode="Ÿ" />
<glyph horiz-adv-x="1929" d="M 1843 213 C 1843 144 1820 87 1775 43 C 1730 0 1674 -23 1608 -23 C 1540 -23 1484 0 1439 44 C 1394 89 1372 145 1372 213 C 1372 278 1394 333 1438 377 C 1482 421 1538 444 1608 444 C 1676 444 1733 422 1777 378 C 1821 334 1843 279 1843 213 Z M 1200 213 C 1200 144 1177 87 1132 43 C 1087 0 1031 -23 965 -23 C 897 -23 841 0 796 44 C 751 88 729 145 729 213 C 729 279 751 334 795 378 C 839 422 895 444 965 444 C 1033 444 1090 422 1134 378 C 1178 334 1200 279 1200 213 Z M 557 213 C 557 144 534 87 489 43 C 444 0 388 -23 322 -23 C 254 -23 198 0 153 44 C 108 88 86 145 86 213 C 86 279 108 334 152 378 C 196 422 252 444 322 444 C 390 444 447 422 491 378 C 535 334 557 279 557 213 Z" unicode="…" />
<glyph horiz-adv-x="1454" d="M 1311 0 L 135 0 L 135 285 L 555 797 C 647 905 741 1012 838 1116 C 754 1112 612 1110 412 1110 L 176 1110 L 176 1434 L 1307 1434 L 1307 1149 L 887 637 C 811 545 716 438 604 317 C 702 321 844 324 1030 324 L 1311 324 L 1311 0 Z M 1147 1853 L 878 1526 L 588 1526 L 319 1853 L 565 1853 L 735 1722 L 905 1853 L 1147 1853 Z" unicode="Ž" />
<glyph horiz-adv-x="1157" d="M 1040 0 L 106 0 L 106 256 L 342 512 C 402 578 490 668 606 784 C 472 778 380 776 330 776 L 131 776 L 131 1075 L 1040 1075 L 1040 819 C 850 613 739 492 706 458 C 672 423 617 367 541 291 C 674 296 766 299 817 299 L 1040 299 L 1040 0 Z M 1004 1546 L 735 1219 L 445 1219 L 176 1546 L 422 1546 L 592 1415 L 762 1546 L 1004 1546 Z" unicode="ž" />
<glyph horiz-adv-x="1536" d="M 212 236 L 212 452 L 1112 792 L 212 1128 L 212 1344 L 1352 872 L 1352 708 L 212 236 Z M 212 24 L 212 216 L 1348 216 L 1348 24 L 212 24 Z" unicode="≥" />
<glyph horiz-adv-x="887" d="M 786 1174 C 755 1188 715 1196 666 1196 C 634 1196 612 1191 602 1181 C 591 1171 586 1153 586 1128 L 586 1075 L 762 1075 L 762 786 L 592 786 L 592 -250 L 229 -395 L 229 786 L 104 786 L 104 1075 L 229 1075 L 229 1149 C 229 1257 253 1336 303 1384 C 352 1432 432 1456 543 1456 C 648 1456 729 1441 786 1411 L 786 1174 Z" unicode="ƒ" />
<glyph horiz-adv-x="1536" d="M 76 0 L 652 1536 L 884 1536 L 1456 0 L 76 0 Z M 352 148 L 1164 148 L 752 1256 L 352 148 Z" unicode="Δ" />
<glyph horiz-adv-x="1077" d="M 1210 1434 L 311 0 L -133 0 L 766 1434 L 1210 1434 Z" unicode="⁄" />
<glyph horiz-adv-x="1664" d="M 832 1376 C 706 1376 599 1328 510 1234 C 420 1139 376 1006 376 836 C 376 673 405 538 464 432 C 522 325 609 241 724 180 L 724 0 L 88 0 L 88 196 L 536 196 C 456 225 378 295 304 406 C 229 516 192 664 192 848 C 192 1024 247 1184 358 1330 C 468 1475 626 1548 832 1548 C 1037 1548 1195 1478 1306 1338 C 1416 1198 1472 1034 1472 848 C 1472 664 1434 516 1360 406 C 1285 295 1208 225 1128 196 L 1576 196 L 1576 0 L 940 0 L 940 180 C 1054 241 1141 325 1200 432 C 1258 538 1288 673 1288 836 C 1288 974 1246 1099 1162 1210 C 1078 1320 968 1376 832 1376 Z" unicode="Ω" />
<glyph horiz-adv-x="1536" d="M 236 400 C 230 429 228 456 228 480 C 228 546 248 604 288 652 C 328 700 390 724 476 724 C 542 724 600 714 650 696 C 699 677 745 659 788 642 C 830 624 872 610 912 598 C 952 586 988 580 1020 580 C 1070 580 1106 590 1128 610 C 1149 630 1160 654 1160 684 L 1156 716 L 1300 716 C 1305 686 1308 660 1308 636 C 1308 569 1288 512 1248 464 C 1208 416 1145 392 1060 392 C 993 392 935 400 886 418 C 836 435 790 452 748 470 C 705 487 664 501 624 512 C 584 522 548 528 516 528 C 465 528 429 518 408 500 C 386 481 376 458 376 432 L 380 400 L 236 400 Z M 236 860 C 230 889 228 916 228 940 C 228 1006 248 1064 288 1112 C 328 1160 390 1184 476 1184 C 542 1184 600 1174 650 1156 C 699 1137 745 1119 788 1102 C 830 1084 872 1070 912 1058 C 952 1046 988 1040 1020 1040 C 1070 1040 1106 1050 1128 1070 C 1149 1090 1160 1114 1160 1144 L 1156 1176 L 1300 1176 C 1305 1146 1308 1120 1308 1096 C 1308 1029 1288 972 1248 924 C 1208 876 1145 852 1060 852 C 993 852 935 860 886 878 C 836 895 790 912 748 930 C 705 947 664 961 624 972 C 584 982 548 988 516 988 C 465 988 429 978 408 960 C 386 941 376 918 376 892 L 380 860 L 236 860 Z" unicode="≈" />
<glyph horiz-adv-x="1408" d="M 252 -424 C 214 -424 186 -413 168 -392 C 149 -370 140 -333 140 -280 C 140 -176 145 -49 156 100 C 166 233 172 309 172 328 L 176 356 L 176 1176 L 368 1176 L 368 320 C 368 258 395 210 450 176 C 504 141 564 124 628 124 C 716 124 792 146 858 190 C 923 234 973 297 1008 380 L 1008 1176 L 1200 1176 L 1200 308 L 1220 0 L 1056 0 L 1020 176 C 974 104 913 50 836 14 C 758 -22 670 -40 572 -40 C 537 -40 494 -31 444 -14 C 393 3 353 28 324 60 C 324 1 333 -56 352 -112 C 370 -168 380 -218 380 -264 C 380 -370 337 -424 252 -424 Z" unicode="μ" />
<glyph horiz-adv-x="1408" d="M 296 0 L 296 1028 L 12 1028 L 12 1176 L 1316 1176 L 1316 1028 L 996 1028 L 996 344 C 996 266 1011 213 1042 184 C 1072 154 1109 140 1152 140 C 1184 140 1210 140 1232 142 C 1253 143 1274 148 1296 156 L 1296 28 C 1264 12 1234 0 1206 -6 C 1178 -12 1138 -16 1088 -16 C 1002 -16 935 10 886 64 C 836 117 812 208 812 336 L 812 1028 L 484 1028 L 484 0 L 296 0 Z" unicode="π" />
<glyph horiz-adv-x="1536" d="M 212 404 L 212 604 L 1328 604 L 1328 404 L 212 404 Z M 212 976 L 212 1176 L 1328 1176 L 1328 976 L 212 976 Z M 548 188 L 372 188 L 996 1356 L 1168 1356 L 548 188 Z" unicode="≠" />
<glyph horiz-adv-x="1152" d="M 472 -48 L 68 756 L 472 1560 L 656 1560 L 1084 756 L 656 -48 L 472 -48 Z M 556 152 L 876 768 L 572 1356 L 252 740 L 556 152 Z" unicode="◊" />
<glyph horiz-adv-x="1536" d="M 1348 236 L 208 708 L 208 872 L 1348 1344 L 1348 1128 L 448 792 L 1348 452 L 1348 236 Z M 212 24 L 212 216 L 1348 216 L 1348 24 L 212 24 Z" unicode="≤" />
<glyph horiz-adv-x="1217" d="M 1104 715 L 791 715 L 791 -205 L 426 -205 L 426 715 L 113 715 L 113 1053 L 426 1053 L 426 1434 L 791 1434 L 791 1053 L 1104 1053 L 1104 715 Z" unicode="†" />
<glyph horiz-adv-x="1692" d="M 1661 725 L 1335 444 C 1316 428 1298 421 1282 421 C 1268 421 1255 426 1244 437 C 1233 447 1228 461 1228 479 C 1228 488 1235 526 1249 592 L 979 592 L 979 360 C 1043 374 1080 382 1091 382 C 1108 382 1122 376 1133 365 C 1144 353 1150 341 1150 329 C 1150 312 1142 294 1126 274 L 846 -51 L 565 274 C 549 293 542 311 542 328 C 542 341 547 353 558 365 C 569 376 583 382 601 382 C 611 382 649 374 713 360 L 713 592 L 442 592 C 456 528 464 490 464 480 C 464 462 458 447 447 437 C 435 426 423 421 410 421 C 393 421 375 428 356 444 L 31 725 L 356 1006 C 375 1021 393 1029 410 1029 C 423 1029 435 1023 447 1012 C 458 1001 464 987 464 970 C 464 959 456 922 442 858 L 713 858 L 713 1073 C 647 1059 609 1052 599 1052 C 582 1052 568 1057 558 1068 C 547 1079 542 1092 542 1106 C 542 1122 549 1139 565 1159 L 846 1485 L 1126 1159 C 1142 1139 1150 1121 1150 1105 C 1150 1091 1144 1079 1134 1068 C 1124 1057 1110 1052 1093 1052 C 1083 1052 1045 1059 979 1073 L 979 858 L 1249 858 C 1235 924 1228 962 1228 972 C 1228 988 1233 1002 1244 1013 C 1255 1023 1268 1029 1282 1029 C 1298 1029 1316 1021 1335 1006 L 1661 725 Z" unicode="" />
</font>
</defs>
</svg>
