<?xml version="1.0" standalone="yes"?><svg version="1.1" xmlns = 'http://www.w3.org/2000/svg'><defs><font id='web' horiz-adv-x="1000">
<font-face font-family="web" descent="-410" cap-height="1434" units-per-em="2048" bbox="-313,-490,2629,2181" x-height="1075" ascent="1638" />
<missing-glyph horiz-adv-x="1024" d="" /><glyph horiz-adv-x="864" d="M 754 676 L 98 676 L 123 821 L 778 821 L 754 676 Z" unicode="–" />
<glyph horiz-adv-x="1188" d="M 1075 676 L 96 676 L 121 821 L 1100 821 L 1075 676 Z" unicode="—" />
<glyph horiz-adv-x="516" d="M 379 977 L 164 977 L 379 1434 L 492 1434 L 379 977 Z" unicode="‘" />
<glyph horiz-adv-x="516" d="M 307 977 L 195 977 L 307 1434 L 522 1434 L 307 977 Z" unicode="’" />
<glyph horiz-adv-x="516" d="M 90 -221 L -23 -221 L 90 236 L 305 236 L 90 -221 Z" unicode="‚" />
<glyph horiz-adv-x="961" d="M 823 977 L 608 977 L 823 1434 L 936 1434 L 823 977 Z M 379 977 L 164 977 L 379 1434 L 492 1434 L 379 977 Z" unicode="“" />
<glyph horiz-adv-x="961" d="M 752 977 L 639 977 L 752 1434 L 967 1434 L 752 977 Z M 307 977 L 195 977 L 307 1434 L 522 1434 L 307 977 Z" unicode="”" />
<glyph horiz-adv-x="961" d="M 535 -221 L 422 -221 L 535 236 L 750 236 L 535 -221 Z M 90 -221 L -23 -221 L 90 236 L 305 236 L 90 -221 Z" unicode="„" />
<glyph horiz-adv-x="524" d="" unicode=" " />
<glyph horiz-adv-x="539" d="M 356 760 L 254 385 L 168 385 L 199 760 L 317 1434 L 475 1434 L 356 760 Z M 293 102 C 293 85 289 69 282 54 C 275 39 266 26 255 14 C 243 2 230 -6 215 -13 C 199 -19 184 -23 168 -23 C 150 -23 134 -19 119 -13 C 104 -6 91 2 80 14 C 68 26 59 39 53 54 C 46 69 43 85 43 102 C 43 118 46 134 53 150 C 59 166 68 180 80 192 C 91 204 104 213 119 220 C 134 227 150 231 168 231 C 184 231 199 227 215 220 C 230 213 243 204 255 192 C 266 180 275 166 282 150 C 289 134 293 118 293 102 Z" unicode="!" />
<glyph horiz-adv-x="942" d="M 753 764 L 632 764 L 716 1434 L 907 1434 L 753 764 Z M 346 764 L 225 764 L 309 1434 L 499 1434 L 346 764 Z" unicode="&#x22;" />
<glyph horiz-adv-x="1270" d="M 284 358 L 86 358 L 108 489 L 307 489 L 387 946 L 188 946 L 213 1077 L 411 1077 L 473 1434 L 606 1434 L 544 1077 L 856 1077 L 917 1434 L 1050 1434 L 989 1077 L 1187 1077 L 1163 946 L 964 946 L 884 489 L 1083 489 L 1060 358 L 862 358 L 798 0 L 665 0 L 729 358 L 417 358 L 354 0 L 221 0 L 284 358 Z M 751 489 L 831 946 L 520 946 L 440 489 L 751 489 Z" unicode="#" />
<glyph horiz-adv-x="1270" d="M 543 141 C 599 141 648 147 690 160 C 732 173 766 191 794 215 C 822 238 842 266 856 298 C 869 330 876 366 876 406 C 876 432 872 456 864 479 C 856 502 843 524 825 545 C 807 565 782 585 751 604 C 719 623 680 641 633 659 C 565 684 508 711 463 741 C 417 770 381 801 354 834 C 327 867 308 902 297 939 C 285 976 280 1015 280 1057 C 280 1117 291 1170 314 1216 C 336 1262 367 1300 406 1332 C 444 1363 489 1387 540 1404 C 591 1421 645 1431 702 1434 L 737 1632 L 870 1632 L 835 1430 C 906 1420 966 1401 1016 1374 C 1066 1347 1109 1314 1146 1276 L 1036 1167 C 1020 1183 1003 1199 983 1214 C 963 1229 941 1242 917 1254 C 893 1266 865 1275 835 1282 C 804 1289 770 1293 733 1293 C 675 1293 627 1286 589 1274 C 551 1262 520 1245 498 1225 C 476 1204 460 1180 451 1153 C 442 1125 438 1097 438 1067 C 438 1041 440 1017 445 994 C 450 971 461 949 477 928 C 493 906 515 886 545 867 C 574 847 613 829 662 812 C 734 786 794 758 842 730 C 890 701 928 670 957 638 C 986 606 1007 571 1019 534 C 1031 497 1038 458 1038 416 C 1038 355 1027 300 1005 251 C 983 201 953 159 913 123 C 873 87 825 58 769 37 C 713 16 651 4 583 0 L 548 -199 L 415 -199 L 450 2 C 367 12 295 35 235 71 C 175 106 124 148 83 197 L 202 301 C 239 255 286 217 343 187 C 399 156 466 141 543 141 Z" unicode="$" />
<glyph horiz-adv-x="1270" d="M 323 684 C 288 684 257 692 230 708 C 203 724 181 749 165 782 C 149 815 139 856 135 906 C 131 956 135 1014 147 1081 C 159 1147 175 1204 196 1252 C 216 1299 240 1338 266 1368 C 292 1398 319 1421 349 1435 C 379 1449 408 1456 438 1456 C 472 1456 502 1447 530 1431 C 557 1415 579 1390 596 1357 C 612 1324 623 1283 627 1233 C 631 1183 628 1125 616 1059 C 604 992 587 935 567 888 C 546 840 523 801 497 771 C 471 741 443 719 413 705 C 383 691 353 684 323 684 Z M 1056 1434 L 1175 1434 L 215 0 L 102 0 L 1056 1434 Z M 831 -23 C 796 -23 765 -14 738 2 C 711 18 689 43 673 76 C 657 109 647 150 643 200 C 639 250 643 308 655 375 C 667 441 683 498 704 546 C 724 593 748 632 774 662 C 800 692 827 715 857 729 C 887 743 916 750 946 750 C 980 750 1010 741 1038 725 C 1065 708 1087 683 1104 650 C 1120 617 1131 576 1135 526 C 1139 476 1136 418 1124 352 C 1112 285 1095 228 1075 181 C 1054 133 1031 94 1005 64 C 979 34 951 12 921 -2 C 891 -16 861 -23 831 -23 Z M 333 788 C 349 788 365 792 381 801 C 397 810 412 825 426 847 C 440 869 453 897 465 933 C 477 968 487 1012 497 1065 C 506 1117 511 1162 511 1199 C 511 1235 508 1265 502 1288 C 496 1310 486 1327 474 1337 C 461 1347 446 1352 430 1352 C 412 1352 396 1347 380 1338 C 364 1329 350 1314 336 1293 C 322 1271 309 1243 297 1208 C 285 1172 275 1129 266 1077 C 256 1024 251 979 251 943 C 251 906 254 876 261 853 C 267 830 277 813 290 803 C 302 793 317 788 333 788 Z M 841 82 C 857 82 873 86 889 95 C 905 104 920 119 934 141 C 948 162 961 190 973 226 C 985 261 995 305 1005 358 C 1014 410 1019 455 1019 492 C 1019 528 1016 558 1010 581 C 1004 603 994 620 982 630 C 969 640 954 645 938 645 C 920 645 904 640 888 631 C 872 622 858 607 844 586 C 830 565 817 537 805 502 C 793 466 783 423 774 371 C 764 318 759 273 759 237 C 759 200 762 170 769 147 C 775 124 785 107 798 97 C 810 87 825 82 841 82 Z" unicode="%" />
<glyph horiz-adv-x="1311" d="M 1161 588 C 1132 526 1101 467 1067 411 C 1033 355 997 304 958 256 L 1108 0 L 932 0 L 850 141 C 792 89 730 49 664 20 C 598 -8 527 -23 453 -23 C 393 -23 339 -15 291 0 C 242 16 200 39 166 70 C 132 100 105 138 87 183 C 68 227 59 278 59 336 C 59 390 68 441 86 487 C 104 533 130 576 164 615 C 198 654 239 690 289 722 C 339 754 395 783 459 809 L 414 889 C 390 931 373 969 362 1004 C 351 1039 346 1076 346 1114 C 346 1164 355 1210 375 1252 C 395 1294 422 1330 457 1360 C 492 1390 533 1414 581 1431 C 629 1447 681 1456 737 1456 C 781 1456 822 1452 859 1445 C 896 1437 930 1427 961 1414 C 992 1401 1021 1386 1047 1368 C 1073 1350 1097 1330 1120 1309 L 1016 1188 C 994 1208 972 1227 951 1243 C 930 1259 908 1273 885 1284 C 862 1294 838 1302 812 1308 C 786 1314 758 1317 727 1317 C 691 1317 660 1312 632 1302 C 604 1292 581 1279 562 1262 C 542 1245 527 1225 517 1201 C 507 1177 502 1150 502 1122 C 502 1090 506 1061 514 1035 C 522 1009 533 985 547 963 L 885 381 C 911 418 937 458 961 501 C 985 544 1009 589 1032 635 L 1161 588 Z M 780 258 L 526 696 C 472 674 425 651 386 627 C 346 603 314 576 289 548 C 263 519 245 488 233 455 C 221 421 215 385 215 346 C 215 316 219 288 229 261 C 239 233 254 209 275 188 C 296 166 323 149 356 136 C 388 123 427 117 473 117 C 529 117 583 129 634 154 C 685 179 734 214 780 258 Z" unicode="&#x26;" />
<glyph horiz-adv-x="526" d="M 346 764 L 221 764 L 305 1434 L 499 1434 L 346 764 Z" unicode="'" />
<glyph horiz-adv-x="1270" d="M 712 -221 C 672 -184 629 -141 585 -91 C 541 -41 500 15 462 77 C 424 139 393 206 369 279 C 345 351 333 429 333 512 C 333 596 343 674 363 746 C 383 818 410 884 444 944 C 478 1004 518 1060 563 1110 C 608 1160 656 1207 706 1249 C 756 1291 807 1330 859 1365 C 911 1400 961 1433 1009 1464 L 1064 1384 C 983 1330 908 1273 840 1213 C 771 1153 711 1088 661 1018 C 611 948 571 871 543 787 C 515 703 501 610 501 508 C 501 435 508 368 524 306 C 539 244 560 187 586 134 C 612 80 642 30 676 -17 C 710 -64 747 -110 786 -154 L 712 -221 Z" unicode="(" />
<glyph horiz-adv-x="1270" d="M 204 -141 C 284 -87 359 -30 428 29 C 496 89 556 154 607 224 C 657 294 697 371 725 455 C 753 539 768 632 768 735 C 768 807 760 875 744 938 C 728 1000 708 1058 682 1110 C 656 1162 626 1212 592 1260 C 557 1307 521 1353 483 1397 L 557 1464 C 598 1426 640 1382 684 1333 C 727 1283 767 1228 805 1167 C 843 1105 874 1038 898 965 C 922 891 935 813 935 731 C 935 646 925 568 905 496 C 885 424 857 358 823 298 C 789 238 749 182 704 132 C 659 82 612 35 562 -6 C 512 -48 461 -87 409 -122 C 357 -157 308 -190 260 -221 L 204 -141 Z" unicode=")" />
<glyph horiz-adv-x="1024" d="M 823 883 L 586 1061 L 616 764 L 506 764 L 537 1061 L 299 883 L 244 979 L 508 1100 L 244 1219 L 299 1315 L 537 1139 L 506 1434 L 616 1434 L 586 1139 L 823 1315 L 879 1219 L 614 1100 L 879 979 L 823 883 Z" unicode="*" />
<glyph horiz-adv-x="1270" d="M 561 635 L 170 635 L 170 774 L 561 774 L 561 1180 L 708 1180 L 708 774 L 1099 774 L 1099 635 L 708 635 L 708 229 L 561 229 L 561 635 Z" unicode="+" />
<glyph horiz-adv-x="635" d="M 147 -242 L 35 -242 L 149 236 L 364 236 L 147 -242 Z" unicode="," />
<glyph horiz-adv-x="659" d="M 547 674 L 96 674 L 123 823 L 573 823 L 547 674 Z" unicode="-" />
<glyph horiz-adv-x="635" d="M 352 109 C 352 91 348 74 341 58 C 333 42 324 28 312 16 C 300 4 286 -5 270 -12 C 254 -19 238 -23 221 -23 C 203 -23 186 -19 170 -12 C 154 -5 140 4 128 16 C 116 28 107 42 100 58 C 93 74 90 91 90 109 C 90 127 93 144 100 160 C 107 176 116 190 128 203 C 140 215 154 225 170 233 C 186 240 203 244 221 244 C 238 244 254 240 270 233 C 286 225 300 215 312 203 C 324 190 333 176 341 160 C 348 144 352 127 352 109 Z" unicode="." />
<glyph horiz-adv-x="870" d="M 49 -184 L -111 -184 L 821 1618 L 981 1618 L 49 -184 Z" unicode="/" />
<glyph horiz-adv-x="1270" d="M 1179 885 C 1179 759 1164 640 1134 530 C 1104 420 1061 324 1007 242 C 952 160 887 95 811 48 C 735 0 651 -23 559 -23 C 487 -23 422 -11 364 13 C 306 37 257 72 217 120 C 176 168 145 227 123 299 C 101 370 90 453 90 548 C 90 674 105 792 135 902 C 165 1012 207 1109 261 1191 C 315 1273 381 1338 457 1385 C 533 1432 618 1456 710 1456 C 782 1456 846 1444 904 1420 C 962 1396 1011 1361 1052 1313 C 1092 1265 1124 1206 1146 1135 C 1168 1063 1179 980 1179 885 Z M 1021 885 C 1021 953 1014 1014 1001 1067 C 988 1120 968 1165 942 1202 C 915 1238 881 1266 841 1285 C 801 1303 753 1313 698 1313 C 634 1313 575 1295 521 1259 C 466 1223 418 1173 378 1107 C 337 1041 305 960 282 866 C 258 772 247 666 247 549 C 247 480 253 419 266 366 C 279 313 299 268 326 232 C 352 195 386 167 426 149 C 466 130 515 121 571 121 C 633 121 692 138 747 174 C 802 210 850 261 890 327 C 930 393 962 473 986 567 C 1009 661 1021 767 1021 885 Z" unicode="0" />
<glyph horiz-adv-x="1270" d="M 188 137 L 471 137 L 647 1143 L 364 1143 L 385 1251 C 431 1253 474 1258 512 1265 C 550 1272 583 1282 612 1296 C 641 1310 666 1328 687 1350 C 707 1372 724 1400 737 1434 L 856 1434 L 628 137 L 927 137 L 903 0 L 164 0 L 188 137 Z" unicode="1" />
<glyph horiz-adv-x="1270" d="M 45 0 C 63 90 87 170 118 239 C 149 308 187 370 233 425 C 278 480 331 530 393 575 C 454 620 524 664 602 707 C 678 747 739 783 787 815 C 834 846 871 876 898 905 C 924 933 942 962 952 992 C 962 1022 967 1056 967 1094 C 967 1164 942 1218 893 1256 C 844 1294 778 1313 696 1313 C 628 1313 564 1302 506 1282 C 447 1261 392 1230 340 1190 L 266 1307 C 328 1355 396 1392 470 1418 C 544 1443 623 1456 707 1456 C 767 1456 822 1448 873 1433 C 924 1418 968 1396 1005 1366 C 1041 1336 1070 1300 1091 1257 C 1111 1213 1122 1164 1122 1108 C 1122 1056 1115 1009 1103 967 C 1090 925 1068 884 1036 846 C 1004 807 960 768 905 729 C 850 690 780 648 696 604 C 621 564 558 526 507 488 C 455 450 413 412 379 375 C 345 338 319 301 301 264 C 283 227 269 190 260 152 L 1004 152 L 979 0 L 45 0 Z" unicode="2" />
<glyph horiz-adv-x="1270" d="M 1119 1118 C 1119 1062 1111 1013 1097 972 C 1083 931 1063 896 1039 867 C 1015 837 987 813 955 793 C 923 773 891 756 857 743 C 919 718 968 682 1004 635 C 1040 588 1058 525 1058 446 C 1058 377 1044 314 1018 257 C 992 199 955 150 907 108 C 859 66 802 34 735 11 C 668 -11 594 -23 513 -23 C 464 -23 418 -17 374 -6 C 330 4 289 19 251 39 C 213 58 178 81 146 109 C 114 136 87 166 65 199 L 185 295 C 229 238 278 195 332 165 C 386 135 457 121 546 121 C 606 121 658 129 702 145 C 746 161 783 183 813 211 C 842 239 864 273 878 313 C 892 352 900 395 900 442 C 900 516 875 574 825 616 C 775 657 702 678 605 678 L 511 678 L 536 815 L 634 815 C 684 815 729 821 769 835 C 809 849 843 868 871 893 C 899 917 920 947 935 982 C 949 1016 957 1055 957 1098 C 957 1165 935 1218 893 1256 C 851 1294 784 1313 693 1313 C 634 1313 579 1300 527 1276 C 475 1251 426 1218 378 1178 L 290 1286 C 317 1310 346 1332 376 1353 C 406 1373 439 1391 474 1407 C 509 1422 547 1434 588 1443 C 628 1451 673 1456 722 1456 C 786 1456 843 1447 893 1431 C 942 1414 983 1391 1017 1361 C 1050 1331 1075 1296 1093 1255 C 1110 1213 1119 1168 1119 1118 Z" unicode="3" />
<glyph horiz-adv-x="1270" d="M 795 340 L 37 340 L 60 473 L 963 1434 L 1135 1434 L 967 477 L 1164 477 L 1139 340 L 943 340 L 883 0 L 736 0 L 795 340 Z M 820 477 L 955 1243 L 232 477 L 820 477 Z" unicode="4" />
<glyph horiz-adv-x="1270" d="M 1150 1282 L 478 1282 L 374 840 C 392 851 410 861 430 870 C 449 878 470 886 492 892 C 514 898 538 902 564 906 C 590 909 618 911 650 911 C 796 911 909 875 989 804 C 1069 733 1109 629 1109 492 C 1109 412 1094 340 1066 276 C 1037 212 998 158 948 114 C 898 70 840 36 773 12 C 705 -11 633 -23 556 -23 C 502 -23 451 -19 405 -11 C 358 -3 315 7 275 21 C 235 35 197 51 162 70 C 127 89 94 110 63 133 L 161 256 C 229 208 294 174 358 153 C 422 131 494 121 575 121 C 637 121 691 129 738 147 C 784 164 823 188 855 220 C 887 251 911 289 927 333 C 943 377 951 425 951 479 C 951 572 924 643 872 693 C 820 743 738 768 628 768 C 566 768 514 759 471 742 C 427 725 387 703 349 676 L 202 737 L 360 1434 L 1173 1434 L 1150 1282 Z" unicode="5" />
<glyph horiz-adv-x="1270" d="M 1139 465 C 1139 389 1124 320 1096 260 C 1068 200 1029 149 980 107 C 930 65 873 32 807 10 C 741 -11 670 -23 595 -23 C 521 -23 454 -12 394 7 C 334 27 282 57 239 97 C 195 136 162 184 138 242 C 114 300 103 366 103 440 C 103 520 112 600 130 680 C 148 759 175 835 211 907 C 247 979 292 1047 346 1111 C 400 1174 463 1230 535 1278 C 607 1326 689 1366 780 1397 C 870 1428 970 1448 1080 1456 L 1057 1315 C 961 1307 873 1287 793 1257 C 712 1227 639 1187 575 1138 C 510 1089 454 1032 408 966 C 362 900 326 828 300 748 C 324 770 350 789 378 806 C 405 822 434 836 465 847 C 496 858 529 866 565 872 C 601 878 640 881 683 881 C 747 881 807 872 863 856 C 918 840 966 815 1007 781 C 1048 747 1080 703 1104 651 C 1127 599 1139 537 1139 465 Z M 980 457 C 980 543 951 611 894 661 C 836 711 751 737 638 737 C 581 737 529 729 483 714 C 437 699 397 678 364 650 C 331 622 306 588 288 548 C 270 508 261 463 261 414 C 261 320 292 247 354 197 C 416 146 504 121 617 121 C 675 121 727 130 773 148 C 818 166 856 190 887 220 C 917 250 940 286 956 327 C 972 367 980 411 980 457 Z" unicode="6" />
<glyph horiz-adv-x="1270" d="M 1185 1284 C 1102 1203 1022 1116 945 1023 C 868 930 797 830 732 724 C 667 618 610 504 560 384 C 510 264 470 136 442 0 L 280 0 C 310 134 349 261 398 382 C 446 502 502 616 564 723 C 626 830 693 930 767 1023 C 840 1116 917 1202 997 1282 L 251 1282 L 280 1434 L 1214 1434 L 1185 1284 Z" unicode="7" />
<glyph horiz-adv-x="1270" d="M 1165 1098 C 1165 1053 1158 1013 1145 978 C 1132 942 1114 911 1091 883 C 1068 855 1040 830 1008 810 C 975 789 939 771 901 756 C 935 741 966 724 995 704 C 1024 684 1049 661 1070 634 C 1091 607 1107 576 1119 542 C 1131 507 1137 468 1137 424 C 1137 354 1122 291 1093 236 C 1064 181 1025 134 975 96 C 925 57 867 27 801 7 C 735 -12 664 -23 590 -23 C 508 -23 436 -14 372 3 C 308 20 254 45 210 79 C 166 112 132 153 109 202 C 85 250 74 306 74 369 C 74 417 81 463 96 506 C 111 548 133 587 161 622 C 189 656 224 687 265 713 C 305 739 352 759 404 774 C 351 797 308 832 276 879 C 243 925 227 985 227 1057 C 227 1110 238 1161 261 1209 C 283 1257 315 1300 357 1336 C 399 1372 449 1401 509 1423 C 568 1445 635 1456 709 1456 C 785 1456 851 1447 908 1429 C 965 1411 1013 1386 1051 1354 C 1089 1322 1117 1284 1136 1240 C 1155 1196 1165 1149 1165 1098 Z M 1010 1087 C 1010 1121 1003 1152 991 1180 C 978 1208 959 1231 933 1251 C 907 1271 874 1286 835 1297 C 796 1307 750 1313 698 1313 C 643 1313 596 1305 556 1291 C 516 1277 484 1258 458 1235 C 432 1211 413 1185 401 1156 C 389 1126 383 1097 383 1067 C 383 1031 389 998 401 969 C 413 940 432 915 457 895 C 482 875 513 859 551 848 C 589 836 633 831 684 831 C 732 831 777 837 817 849 C 857 861 891 878 920 900 C 948 922 970 948 986 980 C 1002 1012 1010 1047 1010 1087 Z M 981 414 C 981 454 973 491 958 525 C 942 559 919 588 889 612 C 858 636 819 654 773 668 C 727 681 672 688 610 688 C 548 688 493 680 446 665 C 398 649 359 628 327 601 C 295 573 270 541 254 504 C 237 466 229 425 229 381 C 229 339 237 303 254 271 C 270 239 294 212 325 190 C 356 168 394 151 440 139 C 486 127 538 121 598 121 C 658 121 712 128 760 142 C 807 156 847 177 880 203 C 912 229 937 259 955 295 C 972 331 981 370 981 414 Z" unicode="8" />
<glyph horiz-adv-x="1270" d="M 137 969 C 137 1045 151 1113 180 1173 C 208 1233 247 1284 297 1326 C 346 1368 404 1400 470 1422 C 536 1444 606 1456 682 1456 C 755 1456 822 1445 882 1425 C 942 1405 994 1375 1037 1336 C 1080 1296 1113 1248 1137 1190 C 1161 1132 1173 1067 1173 993 C 1173 912 1164 832 1146 753 C 1128 674 1101 598 1065 526 C 1029 453 984 385 930 322 C 876 259 812 203 740 155 C 668 107 586 67 496 36 C 405 4 305 -15 196 -23 L 219 119 C 314 127 402 146 483 176 C 564 206 637 246 701 295 C 765 344 821 401 868 467 C 914 533 951 606 977 686 C 951 664 925 644 898 628 C 871 611 842 597 811 586 C 780 575 747 567 711 561 C 675 555 636 553 594 553 C 529 553 469 561 413 577 C 357 593 309 619 268 653 C 227 687 195 730 172 782 C 148 834 137 897 137 969 Z M 297 977 C 297 886 326 816 385 768 C 444 720 529 696 639 696 C 695 696 746 703 792 718 C 838 733 878 755 911 783 C 944 811 970 845 988 885 C 1006 925 1016 970 1016 1020 C 1016 1112 985 1183 924 1235 C 862 1287 774 1313 659 1313 C 600 1313 548 1304 503 1286 C 458 1268 420 1243 390 1213 C 359 1182 336 1146 320 1106 C 304 1065 297 1022 297 977 Z" unicode="9" />
<glyph horiz-adv-x="635" d="M 493 963 C 493 945 489 928 482 912 C 475 896 466 882 454 870 C 442 858 428 848 412 841 C 396 834 379 831 362 831 C 344 831 327 834 311 841 C 295 848 282 858 270 870 C 258 882 248 896 241 912 C 234 928 231 945 231 963 C 231 981 234 998 241 1014 C 248 1030 258 1044 270 1057 C 282 1069 295 1079 311 1087 C 327 1094 344 1098 362 1098 C 379 1098 396 1094 412 1087 C 428 1079 442 1069 454 1057 C 466 1044 475 1030 482 1014 C 489 998 493 981 493 963 Z M 342 109 C 342 91 338 74 331 58 C 323 42 314 28 302 16 C 290 4 276 -5 260 -12 C 244 -19 228 -23 211 -23 C 193 -23 176 -19 160 -12 C 144 -5 130 4 118 16 C 106 28 97 42 90 58 C 83 74 80 91 80 109 C 80 127 83 144 90 160 C 97 176 106 190 118 203 C 130 215 144 225 160 233 C 176 240 193 244 211 244 C 228 244 244 240 260 233 C 276 225 290 215 302 203 C 314 190 323 176 331 160 C 338 144 342 127 342 109 Z" unicode=":" />
<glyph horiz-adv-x="635" d="M 493 963 C 493 945 489 928 482 912 C 475 896 466 882 454 870 C 442 858 428 848 412 841 C 396 834 379 831 362 831 C 344 831 327 834 311 841 C 295 848 282 858 270 870 C 258 882 248 896 241 912 C 234 928 231 945 231 963 C 231 981 234 998 241 1014 C 248 1030 258 1044 270 1057 C 282 1069 295 1079 311 1087 C 327 1094 344 1098 362 1098 C 379 1098 396 1094 412 1087 C 428 1079 442 1069 454 1057 C 466 1044 475 1030 482 1014 C 489 998 493 981 493 963 Z M 129 -242 L 16 -242 L 131 236 L 346 236 L 129 -242 Z" unicode=";" />
<glyph horiz-adv-x="1270" d="M 204 621 L 204 788 L 1114 1356 L 1114 1190 L 339 707 L 1114 223 L 1114 53 L 204 621 Z" unicode="&#x3C;" />
<glyph horiz-adv-x="1270" d="M 198 856 L 198 999 L 1112 999 L 1112 856 L 198 856 Z M 198 410 L 198 553 L 1112 553 L 1112 410 L 198 410 Z" unicode="=" />
<glyph horiz-adv-x="1270" d="M 196 53 L 196 219 L 970 702 L 196 1186 L 196 1356 L 1105 788 L 1105 621 L 196 53 Z" unicode="&#x3E;" />
<glyph horiz-adv-x="1141" d="M 1079 1139 C 1079 1084 1072 1036 1058 996 C 1044 956 1024 920 998 888 C 971 856 938 826 898 800 C 858 774 812 747 760 721 C 722 701 691 683 666 665 C 640 647 619 627 603 603 C 586 579 573 549 563 515 C 553 480 545 437 539 385 L 383 385 C 391 449 400 503 412 548 C 424 593 441 633 465 668 C 488 702 519 734 557 762 C 595 790 644 820 705 850 C 740 868 771 886 798 904 C 824 922 847 942 865 963 C 883 983 896 1006 906 1030 C 915 1054 920 1080 920 1110 C 920 1172 895 1221 847 1257 C 799 1293 732 1311 647 1311 C 611 1311 577 1307 545 1300 C 513 1293 481 1283 451 1271 C 420 1258 390 1243 361 1225 C 331 1207 302 1187 272 1165 L 188 1284 C 257 1338 330 1381 408 1411 C 486 1441 569 1456 659 1456 C 721 1456 778 1448 830 1434 C 881 1419 925 1398 962 1371 C 999 1343 1028 1310 1048 1271 C 1068 1231 1079 1187 1079 1139 Z M 545 102 C 545 85 541 69 534 54 C 527 39 518 26 507 14 C 495 2 482 -6 467 -13 C 451 -19 436 -23 420 -23 C 402 -23 386 -19 371 -13 C 356 -6 343 2 332 14 C 320 26 311 39 305 54 C 298 69 295 85 295 102 C 295 118 298 134 305 150 C 311 166 320 180 332 192 C 343 204 356 213 371 220 C 386 227 402 231 420 231 C 436 231 451 227 467 220 C 482 213 495 204 507 192 C 518 180 527 166 534 150 C 541 134 545 118 545 102 Z" unicode="?" />
<glyph horiz-adv-x="1712" d="M 1595 737 C 1595 659 1587 594 1573 540 C 1559 486 1538 442 1512 408 C 1485 374 1453 349 1416 334 C 1379 318 1338 311 1292 311 C 1266 311 1242 314 1220 321 C 1197 327 1176 336 1158 348 C 1139 360 1122 373 1108 389 C 1094 405 1082 422 1073 440 C 1042 400 1004 369 959 346 C 914 322 863 311 807 311 C 762 311 721 316 683 328 C 645 339 612 356 584 380 C 556 403 534 432 518 467 C 502 502 494 544 494 592 C 494 635 502 673 519 707 C 536 740 559 768 589 791 C 619 813 654 830 694 842 C 734 854 778 860 825 860 C 879 860 924 854 960 844 C 996 833 1027 820 1053 805 L 1053 926 C 1053 970 1036 1002 1003 1024 C 970 1046 916 1057 842 1057 C 804 1057 768 1052 733 1044 C 698 1035 665 1023 633 1008 L 588 1096 C 629 1116 671 1132 715 1143 C 759 1153 806 1159 856 1159 C 901 1159 942 1155 980 1147 C 1017 1139 1049 1126 1075 1108 C 1101 1090 1122 1067 1137 1038 C 1151 1009 1159 974 1159 932 L 1159 537 C 1159 518 1161 500 1167 484 C 1173 468 1181 454 1193 442 C 1205 430 1220 420 1238 413 C 1256 406 1279 403 1305 403 C 1367 403 1414 430 1446 486 C 1477 542 1493 625 1493 735 C 1493 828 1477 913 1445 990 C 1413 1066 1368 1132 1312 1187 C 1255 1242 1188 1285 1110 1315 C 1032 1345 948 1360 856 1360 C 764 1360 679 1344 601 1314 C 523 1284 455 1241 399 1185 C 342 1129 298 1061 266 983 C 234 904 219 817 219 721 C 219 623 234 535 266 455 C 298 375 342 307 399 251 C 455 195 523 151 601 120 C 679 89 764 74 856 74 C 910 74 960 79 1004 89 C 1048 99 1091 115 1135 137 L 1171 47 C 1141 33 1114 22 1089 13 C 1063 4 1038 -2 1014 -8 C 989 -13 964 -17 938 -19 C 912 -21 885 -23 856 -23 C 784 -23 716 -14 652 2 C 588 18 528 42 474 73 C 419 104 370 142 326 186 C 282 230 244 280 213 335 C 182 389 158 449 142 513 C 125 577 117 645 117 717 C 117 788 125 856 142 920 C 158 984 182 1044 213 1099 C 244 1153 282 1203 326 1247 C 370 1291 419 1328 474 1359 C 528 1390 588 1414 652 1431 C 716 1447 784 1456 856 1456 C 928 1456 997 1447 1062 1430 C 1126 1412 1186 1388 1241 1356 C 1295 1324 1345 1286 1389 1242 C 1433 1198 1470 1149 1500 1096 C 1530 1042 1554 985 1570 925 C 1586 864 1595 801 1595 737 Z M 1053 702 C 1027 717 994 731 955 743 C 915 755 869 762 815 762 C 756 762 707 746 667 716 C 627 686 608 646 608 598 C 608 538 624 492 658 461 C 691 429 744 414 817 414 C 865 414 910 425 953 448 C 995 471 1029 501 1053 537 L 1053 702 Z" unicode="@" />
<glyph horiz-adv-x="1380" d="M 983 0 L 926 365 L 338 365 L 152 0 L -16 0 L 731 1434 L 907 1434 L 1147 0 L 983 0 Z M 790 1245 L 412 510 L 903 510 L 790 1245 Z" unicode="A" />
<glyph horiz-adv-x="1274" d="M 1176 1104 C 1176 1058 1169 1018 1156 982 C 1143 946 1125 914 1101 886 C 1077 858 1050 834 1018 814 C 986 794 951 778 913 766 C 983 741 1037 703 1073 651 C 1109 599 1128 535 1128 457 C 1128 384 1114 319 1088 263 C 1062 206 1024 158 976 119 C 928 80 870 50 802 30 C 734 10 660 0 578 0 L 61 0 L 315 1434 L 739 1434 C 805 1434 865 1427 919 1415 C 973 1402 1019 1382 1057 1355 C 1095 1328 1124 1294 1145 1253 C 1165 1211 1176 1162 1176 1104 Z M 1016 1098 C 1016 1162 992 1210 946 1241 C 899 1272 827 1288 729 1288 L 449 1288 L 371 842 L 727 842 C 815 842 885 865 937 912 C 989 959 1016 1021 1016 1098 Z M 969 453 C 969 531 942 592 890 634 C 838 676 766 698 674 698 L 344 698 L 248 145 L 618 145 C 672 145 720 151 764 164 C 807 177 844 197 874 223 C 904 249 928 281 944 319 C 960 357 969 402 969 453 Z" unicode="B" />
<glyph horiz-adv-x="1278" d="M 1112 1118 C 1094 1148 1075 1176 1055 1200 C 1035 1224 1012 1244 987 1260 C 962 1276 934 1289 902 1298 C 870 1306 834 1311 793 1311 C 716 1311 644 1288 576 1244 C 508 1199 452 1140 406 1067 C 360 993 326 915 304 833 C 281 751 270 665 270 575 C 270 503 278 440 296 384 C 314 328 338 281 370 242 C 402 203 440 173 484 153 C 528 133 577 123 631 123 C 700 123 764 137 822 167 C 880 197 940 245 1001 311 L 1098 209 C 1066 175 1033 143 998 115 C 962 86 925 61 886 41 C 846 21 804 5 760 -6 C 716 -17 669 -23 621 -23 C 545 -23 475 -10 413 15 C 350 41 296 79 252 129 C 207 179 172 240 148 314 C 123 387 111 471 111 567 C 111 646 119 723 135 798 C 151 872 175 942 205 1008 C 235 1074 271 1134 314 1189 C 356 1244 404 1291 456 1331 C 508 1370 564 1401 625 1423 C 685 1445 749 1456 815 1456 C 869 1456 919 1450 963 1439 C 1007 1427 1046 1411 1082 1389 C 1117 1367 1148 1341 1176 1310 C 1204 1278 1229 1243 1251 1204 L 1112 1118 Z" unicode="C" />
<glyph horiz-adv-x="1339" d="M 1231 854 C 1231 752 1219 661 1196 579 C 1173 497 1142 425 1102 362 C 1062 298 1015 244 962 199 C 908 153 851 116 790 86 C 729 56 666 35 601 21 C 535 7 471 0 408 0 L 61 0 L 315 1434 L 567 1434 C 663 1434 751 1423 833 1402 C 914 1380 984 1346 1043 1300 C 1102 1254 1148 1194 1181 1121 C 1214 1047 1231 958 1231 854 Z M 1067 846 C 1067 927 1055 996 1032 1052 C 1008 1108 975 1153 931 1188 C 887 1223 833 1248 769 1264 C 705 1280 633 1288 553 1288 L 449 1288 L 248 145 L 434 145 C 524 145 609 161 691 195 C 772 228 841 276 898 340 C 955 403 997 477 1025 562 C 1053 646 1067 741 1067 846 Z" unicode="D" />
<glyph horiz-adv-x="1194" d="M 61 0 L 315 1434 L 1171 1434 L 1147 1288 L 449 1288 L 369 838 L 932 838 L 907 692 L 344 692 L 248 145 L 977 145 L 950 0 L 61 0 Z" unicode="E" />
<glyph horiz-adv-x="1114" d="M 1122 1288 L 449 1288 L 365 813 L 758 813 L 731 668 L 340 668 L 221 0 L 61 0 L 315 1434 L 1147 1434 L 1122 1288 Z" unicode="F" />
<glyph horiz-adv-x="1341" d="M 1112 1116 C 1094 1147 1074 1175 1054 1199 C 1033 1223 1010 1244 985 1260 C 959 1276 931 1289 900 1298 C 869 1306 834 1311 795 1311 C 727 1311 661 1292 597 1256 C 532 1220 474 1166 424 1095 C 373 1024 335 944 309 856 C 283 768 270 676 270 580 C 270 508 278 443 295 387 C 312 331 337 283 369 244 C 401 204 439 174 485 154 C 530 133 581 123 637 123 C 748 123 838 158 906 230 C 974 301 1020 408 1044 551 L 1047 563 L 788 563 L 815 711 L 1229 711 L 1204 571 C 1186 469 1159 380 1123 306 C 1087 231 1043 169 992 121 C 941 72 884 36 820 12 C 756 -11 688 -23 616 -23 C 540 -23 472 -9 410 17 C 348 43 294 82 250 132 C 206 182 171 243 147 315 C 123 387 111 469 111 561 C 111 643 119 722 135 798 C 151 874 175 946 205 1012 C 235 1078 272 1139 315 1193 C 357 1247 405 1294 457 1333 C 509 1372 566 1402 627 1424 C 687 1445 751 1456 817 1456 C 922 1456 1011 1433 1083 1388 C 1155 1343 1211 1282 1251 1204 L 1112 1116 Z" unicode="G" />
<glyph horiz-adv-x="1401" d="M 1085 0 L 926 0 L 1047 676 L 342 676 L 221 0 L 61 0 L 315 1434 L 475 1434 L 367 821 L 1071 821 L 1180 1434 L 1339 1434 L 1085 0 Z" unicode="H" />
<glyph horiz-adv-x="557" d="M 231 0 L 72 0 L 326 1434 L 485 1434 L 231 0 Z" unicode="I" />
<glyph horiz-adv-x="1176" d="M 969 559 C 949 440 920 340 882 258 C 844 176 789 110 717 61 C 633 5 538 -23 430 -23 C 360 -23 299 -13 247 6 C 195 25 152 51 116 83 C 80 115 52 153 32 196 C 11 239 -2 284 -10 332 L 143 373 C 153 333 165 298 180 268 C 194 237 213 211 235 189 C 257 167 285 151 317 140 C 349 128 388 123 434 123 C 486 123 532 131 573 147 C 613 163 649 189 679 224 C 709 258 735 302 756 355 C 777 408 794 471 807 545 L 963 1434 L 1122 1434 L 969 559 Z" unicode="J" />
<glyph horiz-adv-x="1307" d="M 754 895 L 1092 0 L 922 0 L 633 772 L 295 412 L 221 0 L 61 0 L 315 1434 L 475 1434 L 336 640 L 1081 1434 L 1264 1434 L 754 895 Z" unicode="K" />
<glyph horiz-adv-x="1169" d="M 924 0 L 61 0 L 315 1434 L 475 1434 L 248 145 L 950 145 L 924 0 Z" unicode="L" />
<glyph horiz-adv-x="1606" d="M 1290 0 L 1137 0 L 1330 1101 L 666 -37 L 410 1101 L 215 0 L 61 0 L 315 1434 L 489 1434 L 730 314 L 1366 1434 L 1544 1434 L 1290 0 Z" unicode="M" />
<glyph horiz-adv-x="1401" d="M 1085 0 L 936 0 L 425 1181 L 215 0 L 61 0 L 315 1434 L 471 1434 L 977 264 L 1186 1434 L 1339 1434 L 1085 0 Z" unicode="N" />
<glyph horiz-adv-x="1436" d="M 1325 881 C 1325 797 1316 716 1300 639 C 1284 562 1260 490 1230 423 C 1200 356 1163 295 1121 240 C 1078 185 1030 138 978 99 C 926 60 869 30 808 9 C 747 -12 684 -23 618 -23 C 540 -23 469 -9 407 17 C 345 44 292 83 248 133 C 204 183 170 243 146 314 C 122 385 111 465 111 553 C 111 636 119 716 135 794 C 151 871 175 943 205 1010 C 235 1077 272 1138 315 1193 C 357 1247 405 1294 457 1333 C 509 1372 566 1402 627 1424 C 687 1445 751 1456 817 1456 C 895 1456 965 1442 1028 1415 C 1090 1388 1144 1350 1188 1300 C 1232 1250 1265 1190 1289 1119 C 1313 1048 1325 969 1325 881 Z M 1165 852 C 1165 921 1157 984 1141 1041 C 1125 1097 1101 1146 1070 1186 C 1038 1226 1000 1256 954 1278 C 908 1300 854 1311 794 1311 C 723 1311 656 1292 592 1254 C 528 1216 472 1164 424 1098 C 376 1032 339 955 311 867 C 283 778 270 683 270 582 C 270 512 278 448 294 392 C 310 336 333 288 365 248 C 397 208 436 177 482 155 C 528 133 581 123 641 123 C 713 123 780 142 844 180 C 907 218 962 269 1010 335 C 1058 401 1095 478 1123 567 C 1151 655 1165 750 1165 852 Z" unicode="O" />
<glyph horiz-adv-x="1257" d="M 1217 1065 C 1217 979 1202 904 1172 841 C 1142 778 1100 726 1048 685 C 995 643 933 613 862 593 C 790 573 713 563 631 563 L 322 563 L 221 0 L 61 0 L 315 1434 L 739 1434 C 805 1434 868 1426 926 1412 C 984 1398 1035 1376 1078 1346 C 1121 1316 1155 1277 1180 1231 C 1204 1185 1217 1129 1217 1065 Z M 1053 1042 C 1053 1086 1045 1124 1030 1156 C 1015 1187 994 1212 966 1232 C 938 1251 904 1265 864 1274 C 824 1283 779 1288 729 1288 L 449 1288 L 346 709 L 649 709 C 718 709 778 717 829 733 C 879 749 922 772 956 802 C 990 832 1014 867 1030 908 C 1045 949 1053 994 1053 1042 Z" unicode="P" />
<glyph horiz-adv-x="1436" d="M 1118 -47 L 987 -125 L 885 43 C 799 -1 710 -23 618 -23 C 540 -23 469 -9 407 17 C 345 44 292 83 248 133 C 204 183 170 243 146 314 C 122 385 111 465 111 553 C 111 636 119 716 135 794 C 151 871 175 943 205 1010 C 235 1077 272 1138 315 1193 C 357 1247 405 1294 457 1333 C 509 1372 566 1402 627 1424 C 687 1445 751 1456 817 1456 C 895 1456 965 1442 1028 1415 C 1090 1388 1144 1350 1188 1300 C 1232 1250 1265 1190 1289 1119 C 1313 1048 1325 969 1325 881 C 1325 801 1317 725 1302 652 C 1287 579 1266 510 1238 446 C 1210 382 1177 323 1139 269 C 1100 215 1057 169 1010 129 L 1118 -47 Z M 705 338 L 836 416 L 936 250 C 1005 315 1060 400 1102 506 C 1144 611 1165 726 1165 852 C 1165 921 1157 984 1141 1041 C 1125 1097 1101 1146 1070 1186 C 1038 1226 1000 1256 954 1278 C 908 1300 855 1311 795 1311 C 730 1311 668 1295 608 1263 C 548 1231 493 1184 444 1124 C 395 1064 354 986 320 892 C 286 797 270 694 270 582 C 270 512 278 448 294 392 C 310 336 333 288 365 248 C 397 208 436 177 482 155 C 528 133 581 123 641 123 C 671 123 700 126 728 133 C 756 139 784 149 811 162 L 705 338 Z" unicode="Q" />
<glyph horiz-adv-x="1323" d="M 1245 1069 C 1245 995 1233 933 1209 881 C 1185 829 1153 785 1114 750 C 1075 715 1031 687 981 667 C 931 646 881 631 831 621 L 1047 0 L 877 0 L 666 610 L 330 610 L 221 0 L 61 0 L 315 1434 L 791 1434 C 859 1434 921 1426 977 1412 C 1033 1397 1080 1375 1120 1345 C 1160 1315 1190 1277 1212 1231 C 1234 1185 1245 1131 1245 1069 Z M 1083 1063 C 1083 1136 1058 1192 1009 1230 C 959 1268 880 1288 772 1288 L 449 1288 L 354 754 L 733 754 C 845 754 932 781 992 836 C 1052 890 1083 966 1083 1063 Z" unicode="R" />
<glyph horiz-adv-x="1204" d="M 1004 1161 C 981 1184 957 1205 933 1224 C 909 1242 882 1258 854 1271 C 825 1284 793 1294 759 1301 C 724 1307 685 1311 641 1311 C 597 1311 558 1304 524 1292 C 490 1280 461 1263 438 1242 C 414 1221 397 1197 385 1169 C 373 1141 367 1113 367 1083 C 367 1057 370 1033 377 1012 C 384 990 398 969 420 949 C 441 928 471 906 510 884 C 549 861 600 835 664 807 C 728 777 783 749 828 721 C 873 693 910 664 938 632 C 966 600 986 565 999 527 C 1011 489 1018 445 1018 395 C 1018 335 1006 279 982 228 C 958 177 925 133 882 96 C 839 58 788 29 729 8 C 669 -12 604 -23 532 -23 C 470 -23 413 -16 361 -4 C 309 8 263 25 221 46 C 179 67 142 91 110 119 C 78 146 50 174 27 203 L 154 315 C 178 285 205 259 233 235 C 261 211 291 191 324 175 C 356 158 391 145 429 136 C 466 127 507 123 551 123 C 595 123 636 129 674 141 C 712 153 744 170 772 192 C 799 214 820 241 835 273 C 850 304 858 339 858 379 C 858 409 853 437 843 462 C 833 487 817 511 794 534 C 771 557 740 580 702 603 C 664 625 616 650 559 676 C 492 706 436 734 391 761 C 346 788 310 817 283 847 C 255 877 236 909 224 945 C 212 980 207 1021 207 1067 C 207 1120 218 1170 241 1217 C 263 1264 295 1305 335 1341 C 375 1376 424 1404 480 1425 C 536 1445 598 1456 666 1456 C 720 1456 769 1452 814 1444 C 858 1436 899 1424 937 1409 C 974 1393 1008 1375 1039 1353 C 1069 1331 1098 1307 1126 1280 L 1004 1161 Z" unicode="S" />
<glyph horiz-adv-x="1196" d="M 1194 1288 L 778 1288 L 551 0 L 391 0 L 618 1288 L 199 1288 L 225 1434 L 1221 1434 L 1194 1288 Z" unicode="T" />
<glyph horiz-adv-x="1380" d="M 1176 563 C 1158 463 1134 377 1103 304 C 1071 230 1032 169 986 121 C 939 72 884 36 821 12 C 758 -11 686 -23 606 -23 C 530 -23 462 -13 404 6 C 346 25 297 53 257 90 C 217 127 187 172 167 226 C 147 279 137 340 137 408 C 137 430 138 457 142 488 C 146 519 150 550 156 582 L 305 1434 L 465 1434 L 315 586 C 309 556 306 526 304 497 C 302 468 301 442 301 420 C 301 324 327 251 380 200 C 433 148 516 123 629 123 C 685 123 735 132 778 151 C 821 169 858 198 890 236 C 921 274 947 321 968 379 C 989 437 1006 504 1020 582 L 1169 1434 L 1329 1434 L 1176 563 Z" unicode="U" />
<glyph horiz-adv-x="1360" d="M 639 0 L 463 0 L 233 1434 L 397 1434 L 583 180 L 1208 1434 L 1376 1434 L 639 0 Z" unicode="V" />
<glyph horiz-adv-x="1745" d="M 1219 0 L 1038 0 L 958 1201 L 453 0 L 276 0 L 244 1434 L 401 1434 L 409 224 L 913 1434 L 1085 1434 L 1168 224 L 1597 1434 L 1755 1434 L 1219 0 Z" unicode="W" />
<glyph horiz-adv-x="1286" d="M 174 0 L -10 0 L 563 752 L 279 1434 L 446 1434 L 668 878 L 1073 1434 L 1257 1434 L 733 743 L 1042 0 L 874 0 L 630 614 L 174 0 Z" unicode="X" />
<glyph horiz-adv-x="1327" d="M 711 561 L 612 0 L 453 0 L 555 575 L 221 1434 L 397 1434 L 665 724 L 1174 1434 L 1356 1434 L 711 561 Z" unicode="Y" />
<glyph horiz-adv-x="1278" d="M 1243 1294 L 217 139 L 1038 139 L 1014 0 L -2 0 L 23 139 L 1049 1294 L 268 1294 L 293 1434 L 1268 1434 L 1243 1294 Z" unicode="Z" />
<glyph horiz-adv-x="721" d="M 696 1309 L 449 1309 L 199 -100 L 446 -100 L 426 -225 L 29 -225 L 319 1434 L 717 1434 L 696 1309 Z" unicode="[" />
<glyph horiz-adv-x="870" d="M 508 -184 L 215 1618 L 362 1618 L 655 -184 L 508 -184 Z" unicode="\" />
<glyph horiz-adv-x="721" d="M 360 -225 L -37 -225 L -16 -100 L 231 -100 L 481 1309 L 233 1309 L 254 1434 L 651 1434 L 360 -225 Z" unicode="]" />
<glyph horiz-adv-x="1143" d="M 889 782 L 674 1266 L 287 782 L 109 782 L 641 1434 L 756 1434 L 1059 782 L 889 782 Z" unicode="^" />
<glyph horiz-adv-x="1024" d="M 850 -313 L -174 -313 L -152 -184 L 872 -184 L 850 -313 Z" unicode="_" />
<glyph horiz-adv-x="1024" d="M 639 1219 L 387 1546 L 598 1546 L 752 1219 L 639 1219 Z" unicode="`" />
<glyph horiz-adv-x="1096" d="M 946 827 C 946 813 945 799 943 785 C 941 770 940 755 938 741 L 807 0 L 655 0 L 676 123 C 637 83 589 49 533 20 C 476 -8 414 -23 348 -23 C 305 -23 264 -17 226 -7 C 188 2 154 19 125 42 C 96 64 73 94 56 130 C 39 166 31 209 31 260 C 31 326 42 385 66 436 C 90 486 122 529 163 563 C 204 597 252 622 307 640 C 362 657 421 666 485 666 C 539 666 589 660 637 648 C 685 636 726 621 760 604 L 782 731 C 784 742 785 754 786 768 C 787 782 788 794 788 805 C 788 860 772 901 741 928 C 709 955 660 969 594 969 C 538 969 486 961 438 947 C 390 932 343 912 295 887 L 248 1008 C 299 1033 355 1054 417 1072 C 479 1089 542 1098 606 1098 C 660 1098 708 1092 750 1082 C 792 1071 827 1054 856 1032 C 885 1010 907 982 923 948 C 938 914 946 873 946 827 Z M 739 481 C 705 499 666 514 622 526 C 578 537 525 543 463 543 C 419 543 380 537 346 525 C 311 513 282 495 258 473 C 234 451 215 424 203 392 C 190 360 184 325 184 285 C 184 225 201 179 236 148 C 270 117 320 102 385 102 C 416 102 446 106 476 114 C 505 122 533 134 560 149 C 586 163 611 180 635 200 C 658 220 680 241 700 264 L 739 481 Z" unicode="a" />
<glyph horiz-adv-x="1137" d="M 1008 668 C 1008 558 995 460 969 374 C 943 288 909 216 865 157 C 821 98 769 53 710 23 C 651 -7 588 -23 522 -23 C 485 -23 452 -18 423 -10 C 393 -2 367 9 343 24 C 319 38 297 56 277 76 C 257 96 238 119 221 143 L 195 0 L 43 0 L 293 1407 L 463 1493 L 367 963 C 414 1009 461 1043 508 1065 C 554 1087 605 1098 659 1098 C 707 1098 752 1089 794 1071 C 836 1053 873 1027 905 991 C 937 955 962 911 980 857 C 998 803 1008 740 1008 668 Z M 854 651 C 854 752 833 830 792 884 C 750 938 690 965 612 965 C 586 965 562 961 540 955 C 517 949 495 940 474 928 C 452 916 431 901 409 883 C 387 865 365 845 342 823 L 248 295 C 261 268 276 243 294 221 C 311 198 331 178 354 162 C 376 146 402 133 430 124 C 458 115 490 111 526 111 C 573 111 617 122 657 146 C 697 169 731 203 761 249 C 790 295 813 351 829 419 C 845 486 854 563 854 651 Z" unicode="b" />
<glyph horiz-adv-x="1006" d="M 840 844 C 810 878 776 907 736 930 C 696 953 649 965 594 965 C 541 965 493 951 450 925 C 406 899 369 862 339 816 C 308 769 284 714 267 650 C 250 586 242 516 242 440 C 242 332 266 250 314 194 C 362 138 430 111 520 111 C 566 111 608 120 645 139 C 682 158 717 183 750 213 L 827 113 C 775 66 724 32 673 10 C 621 -12 564 -23 502 -23 C 438 -23 381 -12 330 8 C 279 28 235 58 199 97 C 163 136 135 184 115 241 C 95 298 86 363 86 436 C 86 538 100 630 128 712 C 156 794 194 863 242 920 C 289 977 344 1021 406 1052 C 468 1082 534 1098 602 1098 C 645 1098 684 1094 718 1086 C 752 1078 783 1068 811 1055 C 838 1041 862 1026 884 1008 C 906 990 926 972 946 952 L 840 844 Z" unicode="c" />
<glyph horiz-adv-x="1137" d="M 66 408 C 66 517 78 614 104 700 C 130 786 165 858 209 917 C 253 976 304 1021 363 1052 C 421 1082 484 1098 551 1098 C 587 1098 620 1093 650 1085 C 679 1077 706 1065 730 1051 C 754 1036 776 1018 796 998 C 816 978 834 956 852 932 L 936 1407 L 1106 1493 L 840 0 L 688 0 L 707 113 C 664 71 620 37 574 13 C 528 -10 474 -23 414 -23 C 366 -23 321 -14 279 3 C 237 21 200 47 168 83 C 136 119 111 164 93 218 C 75 272 66 335 66 408 Z M 219 424 C 219 322 239 245 281 191 C 322 137 382 111 461 111 C 486 111 510 114 533 120 C 555 126 577 136 599 148 C 620 160 641 174 663 192 C 685 209 707 229 731 252 L 825 780 C 811 806 796 831 779 854 C 761 876 741 896 719 912 C 696 928 670 941 642 951 C 614 960 582 965 547 965 C 499 965 456 953 416 929 C 376 905 341 871 312 825 C 282 779 259 723 243 656 C 227 588 219 511 219 424 Z" unicode="d" />
<glyph horiz-adv-x="1098" d="M 977 668 C 977 632 975 598 971 566 C 967 534 962 507 956 485 L 240 485 C 236 427 238 376 248 330 C 257 284 273 244 297 212 C 321 179 351 154 388 137 C 425 119 469 111 520 111 C 569 111 615 118 659 134 C 702 149 746 170 791 197 L 848 80 C 788 44 731 18 675 2 C 619 -14 559 -23 496 -23 C 436 -23 381 -13 331 6 C 281 26 237 54 201 92 C 165 130 136 176 116 232 C 96 287 86 350 86 422 C 86 524 99 616 125 699 C 151 782 186 853 232 912 C 277 971 330 1017 392 1049 C 453 1081 519 1098 590 1098 C 652 1098 708 1087 756 1067 C 804 1046 844 1017 877 979 C 909 941 934 896 951 844 C 968 791 977 732 977 668 Z M 827 610 C 831 662 829 709 822 753 C 814 797 801 834 781 866 C 761 897 734 921 701 939 C 668 956 628 965 582 965 C 538 965 499 956 464 939 C 428 921 397 897 370 866 C 343 834 320 797 301 753 C 282 709 268 662 258 610 L 827 610 Z" unicode="e" />
<glyph horiz-adv-x="729" d="M 752 1323 C 735 1331 717 1337 699 1341 C 680 1345 657 1348 631 1348 C 587 1348 555 1337 535 1316 C 515 1295 502 1261 494 1214 L 469 1075 L 680 1075 L 657 946 L 444 946 L 279 0 L 125 0 L 291 946 L 143 946 L 166 1075 L 315 1075 L 340 1223 C 348 1271 360 1312 377 1346 C 394 1380 415 1407 440 1428 C 464 1449 492 1464 523 1473 C 554 1482 588 1487 625 1487 C 644 1487 661 1486 676 1485 C 690 1483 703 1481 715 1479 C 727 1477 737 1474 747 1471 C 756 1468 765 1465 774 1462 L 752 1323 Z" unicode="f" />
<glyph horiz-adv-x="1137" d="M 414 -23 C 366 -23 321 -14 279 3 C 237 21 200 47 168 83 C 136 119 111 164 93 218 C 75 272 66 335 66 408 C 66 517 78 614 104 700 C 130 786 165 858 209 917 C 253 976 304 1021 363 1052 C 421 1082 484 1098 551 1098 C 587 1098 620 1093 650 1085 C 679 1077 706 1065 730 1051 C 754 1036 776 1018 796 998 C 816 978 834 956 852 932 L 879 1075 L 1030 1075 L 856 86 C 835 -18 809 -98 778 -152 C 747 -206 711 -248 670 -280 C 629 -311 571 -337 496 -359 C 421 -380 321 -392 195 -395 L 176 -272 C 286 -272 371 -266 431 -252 C 491 -238 537 -218 569 -192 C 601 -166 627 -132 649 -92 C 671 -51 687 2 698 70 L 707 113 C 657 66 610 32 564 10 C 518 -12 468 -23 414 -23 Z M 219 424 C 219 322 239 245 281 191 C 322 137 382 111 461 111 C 486 111 510 114 533 120 C 555 126 577 136 599 148 C 620 160 641 174 663 192 C 685 209 707 229 731 252 L 825 780 C 811 806 796 831 779 854 C 761 876 741 896 719 912 C 696 928 670 941 642 951 C 614 960 582 965 547 965 C 499 965 456 953 416 929 C 376 905 341 871 312 825 C 282 779 259 723 243 656 C 227 588 219 511 219 424 Z" unicode="g" />
<glyph horiz-adv-x="1153" d="M 989 764 C 989 744 988 723 986 701 C 984 678 981 656 977 635 L 862 0 L 709 0 L 819 618 C 822 637 824 657 826 678 C 828 698 829 717 829 735 C 829 811 812 869 779 909 C 746 949 693 969 621 969 C 583 969 548 961 514 945 C 480 929 450 905 422 875 C 394 844 370 806 350 761 C 330 716 315 665 305 608 L 197 0 L 43 0 L 293 1407 L 463 1493 L 367 954 C 404 998 447 1033 495 1059 C 543 1085 598 1098 662 1098 C 708 1098 752 1091 792 1077 C 832 1063 866 1042 896 1014 C 925 986 948 952 964 910 C 980 868 989 820 989 764 Z" unicode="h" />
<glyph horiz-adv-x="514" d="M 477 1376 C 477 1361 474 1347 468 1334 C 462 1321 455 1310 445 1300 C 435 1290 424 1282 411 1276 C 398 1270 385 1268 371 1268 C 355 1268 340 1270 326 1276 C 312 1282 300 1290 290 1300 C 280 1310 272 1321 266 1334 C 260 1347 258 1361 258 1376 C 258 1391 260 1405 266 1419 C 272 1433 280 1445 290 1455 C 300 1465 312 1472 326 1478 C 340 1484 355 1487 371 1487 C 385 1487 398 1484 411 1478 C 424 1472 435 1465 445 1455 C 455 1445 462 1433 468 1419 C 474 1405 477 1391 477 1376 Z M 207 0 L 53 0 L 244 1075 L 397 1075 L 207 0 Z" unicode="i" />
<glyph horiz-adv-x="514" d="M 477 1376 C 477 1361 474 1347 468 1334 C 462 1321 455 1310 445 1300 C 435 1290 424 1282 411 1276 C 398 1270 385 1268 371 1268 C 355 1268 340 1270 326 1276 C 312 1282 300 1290 290 1300 C 280 1310 272 1321 266 1334 C 260 1347 258 1361 258 1376 C 258 1391 260 1405 266 1419 C 272 1433 280 1445 290 1455 C 300 1465 312 1472 326 1478 C 340 1484 355 1487 371 1487 C 385 1487 398 1484 411 1478 C 424 1472 435 1465 445 1455 C 455 1445 462 1433 468 1419 C 474 1405 477 1391 477 1376 Z M 209 14 C 197 -47 183 -100 165 -146 C 147 -192 124 -231 94 -264 C 64 -296 26 -323 -18 -345 C -62 -366 -117 -383 -182 -395 L -215 -272 C -168 -262 -129 -250 -98 -236 C -67 -222 -42 -205 -22 -183 C -2 -161 13 -133 25 -99 C 37 -65 47 -23 57 27 L 244 1075 L 397 1075 L 209 14 Z" unicode="j" />
<glyph horiz-adv-x="1026" d="M 600 692 L 815 0 L 659 0 L 487 571 L 252 309 L 197 0 L 43 0 L 293 1407 L 463 1493 L 287 512 L 776 1075 L 948 1075 L 600 692 Z" unicode="k" />
<glyph horiz-adv-x="514" d="M 207 0 L 53 0 L 303 1407 L 473 1493 L 207 0 Z" unicode="l" />
<glyph horiz-adv-x="1729" d="M 1565 784 C 1565 756 1564 730 1562 707 C 1560 684 1556 660 1552 635 L 1438 0 L 1284 0 L 1395 618 C 1399 646 1401 674 1403 702 C 1404 729 1405 747 1405 756 C 1405 827 1389 880 1358 916 C 1327 951 1281 969 1219 969 C 1147 969 1085 935 1033 869 C 980 802 944 715 926 608 L 817 0 L 664 0 L 774 618 C 778 644 780 672 782 700 C 783 728 784 747 784 756 C 784 788 780 818 773 844 C 766 870 755 893 740 911 C 725 929 706 944 683 954 C 659 964 631 969 598 969 C 526 969 464 935 412 869 C 359 802 323 715 305 608 L 197 0 L 43 0 L 233 1075 L 385 1075 L 367 954 C 383 974 400 993 418 1011 C 436 1029 457 1044 479 1057 C 501 1070 526 1080 553 1087 C 579 1094 609 1098 643 1098 C 714 1098 771 1081 813 1047 C 855 1013 885 967 905 909 C 926 937 948 962 972 985 C 995 1008 1021 1028 1049 1045 C 1077 1061 1107 1074 1141 1084 C 1174 1093 1211 1098 1253 1098 C 1347 1098 1423 1070 1480 1014 C 1536 958 1565 881 1565 784 Z" unicode="m" />
<glyph horiz-adv-x="1153" d="M 989 764 C 989 744 988 723 986 701 C 984 678 981 656 977 635 L 862 0 L 709 0 L 819 618 C 822 637 824 657 826 678 C 828 698 829 717 829 735 C 829 811 812 869 779 909 C 746 949 693 969 621 969 C 583 969 548 960 514 944 C 480 928 450 904 423 874 C 395 844 371 806 351 761 C 330 716 315 665 305 608 L 197 0 L 43 0 L 233 1075 L 385 1075 L 367 954 C 405 998 448 1033 496 1059 C 544 1085 599 1098 662 1098 C 764 1098 844 1068 902 1008 C 960 948 989 867 989 764 Z" unicode="n" />
<glyph horiz-adv-x="1151" d="M 86 436 C 86 538 100 630 128 712 C 156 794 194 863 242 920 C 289 977 344 1021 406 1052 C 468 1082 534 1098 602 1098 C 666 1098 725 1087 778 1066 C 831 1044 876 1014 913 974 C 950 934 979 886 999 830 C 1019 773 1030 709 1030 639 C 1030 536 1015 444 987 362 C 959 280 921 211 874 154 C 826 97 771 53 709 23 C 647 -7 582 -23 514 -23 C 448 -23 389 -12 337 9 C 284 30 239 60 202 100 C 165 140 136 188 116 245 C 96 301 86 365 86 436 Z M 242 440 C 242 386 248 339 261 298 C 274 257 293 222 319 194 C 345 165 376 144 412 131 C 448 117 486 111 528 111 C 578 111 625 124 667 150 C 709 176 746 212 777 258 C 807 304 831 360 848 424 C 865 488 874 559 874 635 C 874 681 868 725 857 766 C 845 807 827 843 802 873 C 777 903 746 926 710 942 C 673 957 632 965 588 965 C 537 965 490 952 448 926 C 406 900 369 863 339 817 C 308 770 284 714 267 650 C 250 586 242 516 242 440 Z" unicode="o" />
<glyph horiz-adv-x="1137" d="M 1008 668 C 1008 558 995 460 969 374 C 943 288 909 216 865 157 C 821 98 769 53 710 23 C 651 -7 588 -23 522 -23 C 485 -23 452 -18 423 -10 C 393 -2 367 9 343 24 C 319 38 297 56 277 76 C 257 96 238 119 221 143 L 141 -309 L -29 -395 L 233 1075 L 385 1075 L 367 963 C 423 1017 474 1053 519 1071 C 563 1089 610 1098 659 1098 C 707 1098 752 1089 794 1071 C 836 1053 873 1027 905 991 C 937 955 962 911 980 857 C 998 803 1008 740 1008 668 Z M 854 651 C 854 752 833 830 792 884 C 750 938 690 965 612 965 C 586 965 562 961 540 955 C 517 949 495 940 474 928 C 452 916 431 901 409 883 C 387 865 365 845 342 823 L 248 295 C 261 268 276 243 294 221 C 311 198 331 178 354 162 C 376 146 402 133 430 124 C 458 115 490 111 526 111 C 573 111 617 122 657 146 C 697 169 731 203 761 249 C 790 295 813 351 829 419 C 845 486 854 563 854 651 Z" unicode="p" />
<glyph horiz-adv-x="1137" d="M 66 408 C 66 517 78 614 104 700 C 130 786 165 858 209 917 C 253 976 304 1021 363 1052 C 421 1082 484 1098 551 1098 C 587 1098 620 1093 650 1085 C 679 1077 706 1065 730 1051 C 754 1036 776 1018 796 998 C 816 978 834 956 852 932 L 879 1075 L 1030 1075 L 786 -309 L 616 -395 L 707 113 C 656 64 608 29 563 8 C 518 -12 468 -23 414 -23 C 366 -23 321 -14 279 3 C 237 21 200 47 168 83 C 136 119 111 164 93 218 C 75 272 66 335 66 408 Z M 219 424 C 219 322 239 245 281 191 C 322 137 382 111 461 111 C 486 111 510 114 533 120 C 555 126 577 136 599 148 C 620 160 641 174 663 192 C 685 209 707 229 731 252 L 825 780 C 811 806 796 831 779 854 C 761 876 741 896 719 912 C 696 928 670 941 642 951 C 614 960 582 965 547 965 C 499 965 456 953 416 929 C 376 905 341 871 312 825 C 282 779 259 723 243 656 C 227 588 219 511 219 424 Z" unicode="q" />
<glyph horiz-adv-x="829" d="M 756 928 C 739 937 720 944 698 949 C 676 953 649 956 616 956 C 579 956 544 949 512 937 C 479 924 449 904 422 877 C 394 849 371 814 352 772 C 332 730 317 679 307 621 L 197 0 L 43 0 L 233 1075 L 385 1075 L 365 948 C 397 990 440 1026 492 1055 C 544 1083 597 1098 653 1098 C 693 1098 725 1095 751 1090 C 777 1085 798 1079 815 1071 L 756 928 Z" unicode="r" />
<glyph horiz-adv-x="948" d="M 752 856 C 732 874 711 890 691 904 C 671 918 650 929 628 939 C 606 948 582 955 558 960 C 533 964 506 967 477 967 C 421 967 376 954 342 928 C 308 902 291 867 291 823 C 291 803 293 786 299 770 C 304 754 314 739 330 724 C 345 709 366 693 394 677 C 421 661 456 642 500 621 C 548 597 590 573 624 551 C 658 528 685 505 707 481 C 729 457 745 431 755 403 C 765 375 770 343 770 309 C 770 251 759 201 738 159 C 717 117 689 82 654 55 C 618 28 578 8 532 -4 C 486 -16 439 -23 389 -23 C 306 -23 232 -8 167 19 C 101 47 46 85 0 133 L 94 242 C 135 200 181 167 231 144 C 281 120 337 109 399 109 C 469 109 524 124 564 155 C 603 186 623 229 623 283 C 623 302 620 320 614 337 C 608 353 596 370 580 387 C 563 403 540 420 512 438 C 483 455 446 474 401 496 C 353 518 313 539 281 561 C 248 583 221 605 201 629 C 181 653 166 678 157 705 C 147 731 143 761 143 793 C 143 887 174 962 237 1016 C 300 1070 386 1098 494 1098 C 534 1098 571 1094 605 1087 C 639 1080 671 1071 701 1059 C 730 1047 757 1033 781 1017 C 805 1001 826 985 846 967 L 752 856 Z" unicode="s" />
<glyph horiz-adv-x="762" d="M 680 946 L 414 946 L 293 254 C 291 242 289 230 288 218 C 287 205 287 194 287 186 C 287 163 294 145 309 132 C 324 119 349 113 383 113 C 419 113 448 115 471 119 C 493 123 515 129 537 139 L 500 4 C 472 -6 447 -13 424 -17 C 401 -21 377 -23 352 -23 C 277 -23 221 -8 183 21 C 145 50 127 96 127 158 C 127 173 129 197 135 231 L 260 946 L 127 946 L 152 1075 L 285 1075 L 342 1407 L 512 1493 L 438 1075 L 705 1075 L 680 946 Z" unicode="t" />
<glyph horiz-adv-x="1153" d="M 100 311 C 100 330 101 351 103 374 C 105 396 108 418 113 440 L 227 1075 L 381 1075 L 270 457 C 266 437 264 417 262 397 C 260 376 260 357 260 340 C 260 263 276 205 310 165 C 343 125 396 106 469 106 C 505 106 541 114 575 131 C 609 147 640 171 667 201 C 694 231 718 269 738 314 C 758 358 774 409 784 467 L 893 1075 L 1047 1075 L 856 0 L 705 0 L 723 121 C 686 77 644 42 596 16 C 548 -10 492 -23 428 -23 C 327 -23 247 6 188 65 C 129 123 100 205 100 311 Z" unicode="u" />
<glyph horiz-adv-x="1061" d="M 469 0 L 334 0 L 145 1075 L 305 1075 L 435 179 L 879 1075 L 1042 1075 L 469 0 Z" unicode="v" />
<glyph horiz-adv-x="1487" d="M 983 0 L 842 0 L 766 842 L 391 0 L 254 0 L 160 1075 L 315 1075 L 363 230 L 737 1075 L 877 1075 L 953 230 L 1298 1075 L 1454 1075 L 983 0 Z" unicode="w" />
<glyph horiz-adv-x="1024" d="M 793 0 L 635 0 L 463 441 L 145 0 L -23 0 L 406 561 L 188 1075 L 346 1075 L 504 672 L 791 1075 L 958 1075 L 561 553 L 793 0 Z" unicode="x" />
<glyph horiz-adv-x="1079" d="M 279 -379 L 125 -379 L 338 12 L 145 1075 L 303 1075 L 442 184 L 895 1075 L 1061 1075 L 279 -379 Z" unicode="y" />
<glyph horiz-adv-x="999" d="M 907 963 L 205 129 L 780 129 L 758 0 L -2 0 L 18 113 L 719 946 L 190 946 L 213 1075 L 926 1075 L 907 963 Z" unicode="z" />
<glyph horiz-adv-x="813" d="M 809 1315 C 758 1313 715 1307 679 1298 C 643 1288 613 1273 589 1253 C 565 1233 545 1206 531 1173 C 516 1139 504 1097 496 1047 L 465 877 C 457 834 448 797 439 767 C 429 737 418 711 405 690 C 392 668 377 650 359 636 C 341 621 319 608 295 598 C 315 587 332 574 345 560 C 358 545 367 527 373 506 C 378 484 380 458 379 428 C 377 398 373 361 367 319 L 344 193 C 336 145 334 105 338 71 C 342 37 353 8 371 -14 C 389 -37 413 -55 444 -69 C 475 -82 513 -91 559 -96 L 537 -225 C 469 -221 411 -209 363 -191 C 314 -172 275 -145 246 -110 C 217 -74 198 -30 190 22 C 181 75 183 138 197 211 L 227 387 C 237 444 236 483 223 504 C 210 524 182 535 139 535 L 84 535 L 109 678 L 158 678 C 180 678 200 680 216 684 C 232 688 246 696 258 707 C 270 718 279 733 286 752 C 293 771 299 795 305 825 L 346 1049 C 360 1125 378 1188 402 1239 C 425 1289 456 1330 494 1360 C 532 1390 578 1412 633 1425 C 688 1437 754 1444 831 1444 L 809 1315 Z" unicode="{" />
<glyph horiz-adv-x="623" d="M 193 -379 L 45 -379 L 401 1638 L 549 1638 L 193 -379 Z" unicode="|" />
<glyph horiz-adv-x="813" d="M 666 541 L 616 541 C 592 541 573 538 557 534 C 541 530 527 522 515 511 C 503 500 494 485 487 466 C 479 447 473 423 469 393 L 428 170 C 414 94 395 30 372 -20 C 348 -70 318 -111 280 -141 C 242 -171 195 -193 140 -206 C 85 -218 19 -225 -57 -225 L -35 -96 C 15 -94 58 -88 94 -79 C 130 -70 160 -55 185 -35 C 209 -15 229 11 244 45 C 258 79 270 121 279 172 L 309 342 C 317 384 325 421 335 451 C 344 481 355 507 368 529 C 381 550 396 568 414 583 C 432 597 453 610 479 621 C 457 631 440 644 428 658 C 415 672 406 690 401 712 C 395 734 393 760 395 790 C 396 820 400 856 408 899 L 430 1026 C 438 1072 439 1113 435 1147 C 431 1181 420 1210 402 1233 C 384 1256 360 1274 329 1287 C 297 1300 259 1309 215 1315 L 238 1444 C 304 1440 362 1428 411 1409 C 459 1390 498 1363 527 1328 C 556 1292 575 1248 584 1196 C 592 1143 590 1080 578 1008 L 547 831 C 537 779 537 742 549 719 C 560 695 588 684 633 684 L 690 684 L 666 541 Z" unicode="}" />
<glyph horiz-adv-x="1130" d="M 1032 864 C 1014 820 996 783 977 751 C 958 719 937 692 914 670 C 891 648 865 632 837 622 C 808 611 775 606 739 606 C 718 606 699 607 683 611 C 666 614 650 619 635 625 C 620 631 605 639 591 648 C 577 656 562 666 547 676 C 505 704 470 724 443 737 C 415 749 391 756 371 756 C 352 756 336 753 322 747 C 308 741 295 731 283 718 C 271 704 259 688 248 668 C 237 648 225 623 213 594 L 78 655 C 95 697 113 735 132 767 C 151 799 172 826 195 848 C 218 870 244 886 273 897 C 301 907 334 913 371 913 C 410 913 445 906 476 893 C 506 879 535 863 563 844 C 603 818 636 799 662 785 C 688 771 714 764 739 764 C 757 764 773 766 787 772 C 801 777 813 786 825 799 C 837 811 848 828 859 849 C 870 869 883 895 897 926 L 1032 864 Z" unicode="~" />
<glyph horiz-adv-x="524" d="" unicode=" " />
<glyph horiz-adv-x="539" d="M 496 1331 C 496 1314 492 1298 486 1282 C 479 1266 470 1253 458 1241 C 446 1229 433 1219 418 1212 C 403 1205 387 1202 371 1202 C 354 1202 338 1205 323 1212 C 308 1219 295 1229 283 1241 C 271 1253 262 1266 256 1282 C 249 1298 246 1314 246 1331 C 246 1347 249 1363 256 1379 C 262 1394 271 1407 283 1419 C 295 1430 308 1439 323 1446 C 338 1452 354 1456 371 1456 C 387 1456 403 1452 418 1446 C 433 1439 446 1430 458 1419 C 470 1407 479 1394 486 1379 C 492 1363 496 1347 496 1331 Z M 340 674 L 221 0 L 63 0 L 182 674 L 285 1049 L 371 1049 L 340 674 Z" unicode="¡" />
<glyph horiz-adv-x="1270" d="M 370 631 C 370 519 395 436 447 382 C 499 328 570 301 662 301 C 720 301 770 310 812 328 C 853 346 892 371 929 403 L 1013 301 C 963 257 909 223 853 201 C 797 179 732 168 659 168 L 624 -23 L 491 -23 L 528 182 C 428 208 351 260 297 338 C 242 416 215 513 215 627 C 215 723 228 811 256 889 C 283 967 320 1035 367 1092 C 413 1148 467 1193 529 1226 C 590 1259 654 1279 722 1286 L 755 1475 L 888 1475 L 854 1282 C 912 1274 963 1258 1007 1234 C 1051 1210 1090 1179 1126 1143 L 1021 1038 C 989 1077 950 1106 906 1126 C 862 1145 813 1155 760 1155 C 699 1155 644 1141 596 1115 C 548 1088 507 1051 474 1004 C 440 957 415 902 397 838 C 379 774 370 705 370 631 Z" unicode="¢" />
<glyph horiz-adv-x="1270" d="M 542 602 C 535 508 510 422 467 345 C 423 268 366 201 296 143 L 999 143 L 974 0 L 94 0 L 118 139 C 150 167 181 197 212 229 C 243 261 271 295 296 333 C 321 371 342 412 359 456 C 375 500 385 549 389 602 L 200 602 L 223 737 L 382 737 C 376 765 370 792 363 818 C 356 844 349 870 343 896 C 336 922 330 949 326 977 C 321 1004 319 1033 319 1063 C 319 1131 331 1189 357 1239 C 383 1288 417 1329 460 1361 C 502 1393 551 1417 606 1433 C 660 1448 716 1456 774 1456 C 869 1456 951 1438 1020 1404 C 1088 1370 1143 1323 1183 1264 L 1069 1167 C 1033 1219 990 1257 940 1281 C 889 1305 828 1317 757 1317 C 665 1317 595 1295 548 1251 C 500 1207 477 1146 477 1067 C 477 1041 479 1015 484 989 C 489 963 495 936 501 908 C 507 880 514 852 521 824 C 528 796 534 767 538 737 L 825 737 L 802 602 L 542 602 Z" unicode="£" />
<glyph horiz-adv-x="1208" d="M 293 813 C 285 785 279 756 275 727 C 271 698 268 669 266 639 L 819 639 L 795 510 L 266 510 C 276 387 309 291 366 223 C 423 155 499 121 594 121 C 628 121 659 125 688 134 C 717 142 745 155 772 172 C 799 188 825 208 851 232 C 877 256 903 283 930 313 L 1026 209 C 994 172 962 139 930 111 C 898 82 864 58 828 38 C 792 18 754 2 714 -7 C 674 -17 630 -23 584 -23 C 512 -23 446 -9 388 17 C 329 43 279 82 238 133 C 196 183 164 245 142 318 C 120 391 109 474 109 567 C 109 647 116 725 131 801 C 145 876 166 946 194 1012 C 222 1078 255 1138 295 1193 C 335 1247 379 1294 429 1333 C 478 1372 532 1402 591 1424 C 649 1445 712 1456 778 1456 C 828 1456 873 1450 913 1439 C 953 1427 990 1411 1022 1389 C 1054 1367 1083 1341 1109 1310 C 1135 1278 1158 1243 1180 1204 L 1044 1118 C 1026 1150 1007 1178 989 1202 C 970 1226 949 1246 927 1263 C 905 1279 880 1292 852 1300 C 824 1308 792 1313 756 1313 C 710 1313 666 1303 624 1285 C 582 1267 543 1241 507 1209 C 471 1176 438 1137 408 1091 C 378 1045 353 996 332 942 L 872 942 L 848 813 L 293 813 Z" unicode="¤" />
<glyph horiz-adv-x="1270" d="M 477 268 L 149 268 L 176 410 L 503 410 L 532 575 L 219 1434 L 395 1434 L 640 724 L 1130 1434 L 1312 1434 L 688 561 L 661 410 L 989 410 L 962 268 L 636 268 L 589 0 L 430 0 L 477 268 Z" unicode="¥" />
<glyph horiz-adv-x="623" d="M 402 1638 L 549 1638 L 395 764 L 248 764 L 402 1638 Z M 201 496 L 348 496 L 194 -379 L 47 -379 L 201 496 Z" unicode="¦" />
<glyph horiz-adv-x="1286" d="M 442 944 C 394 992 370 1052 370 1124 C 370 1171 379 1215 397 1255 C 415 1295 441 1330 475 1360 C 509 1390 551 1413 601 1430 C 651 1447 708 1456 772 1456 C 852 1456 925 1442 991 1414 C 1057 1386 1120 1343 1179 1286 L 1067 1178 C 1043 1202 1019 1222 995 1239 C 971 1256 947 1270 922 1281 C 896 1292 869 1300 841 1305 C 812 1310 781 1313 747 1313 C 713 1313 682 1309 655 1301 C 628 1293 605 1282 586 1268 C 567 1254 553 1236 543 1216 C 533 1196 528 1173 528 1149 C 528 1127 530 1107 536 1089 C 542 1071 553 1053 571 1037 C 589 1021 614 1005 647 989 C 680 973 724 956 778 940 C 859 914 926 888 979 861 C 1031 834 1073 806 1104 777 C 1135 747 1157 716 1169 683 C 1181 649 1187 613 1187 575 C 1187 523 1178 477 1161 437 C 1143 396 1120 359 1091 327 C 1061 295 1027 266 988 242 C 949 217 908 195 866 176 C 890 151 908 124 920 95 C 932 66 938 33 938 -4 C 938 -51 929 -95 911 -135 C 893 -175 867 -210 833 -240 C 799 -270 757 -293 707 -310 C 657 -327 600 -336 536 -336 C 456 -336 383 -321 315 -293 C 247 -265 185 -222 129 -166 L 241 -57 C 265 -81 288 -101 312 -119 C 335 -136 359 -150 385 -161 C 410 -172 437 -180 466 -185 C 494 -190 526 -193 561 -193 C 627 -193 680 -178 720 -149 C 760 -120 780 -80 780 -29 C 780 -7 777 12 771 30 C 765 48 754 66 736 82 C 718 98 693 115 660 131 C 627 147 584 163 530 180 C 448 206 381 232 328 259 C 275 285 233 313 202 343 C 171 373 150 404 138 437 C 126 470 120 506 120 545 C 120 597 128 643 146 684 C 163 724 186 761 216 793 C 246 825 280 853 319 878 C 357 902 398 924 442 944 Z M 753 256 C 844 294 912 337 958 385 C 1003 433 1026 489 1026 553 C 1026 577 1021 599 1012 621 C 1002 642 987 662 965 682 C 943 702 913 721 877 739 C 840 757 794 775 739 793 C 701 804 668 816 638 828 C 608 840 580 852 555 864 C 468 829 401 787 353 737 C 305 687 282 631 282 567 C 282 543 286 520 296 499 C 305 477 321 457 343 437 C 365 417 394 399 431 381 C 467 363 513 345 569 328 C 606 316 640 305 670 293 C 700 281 727 268 753 256 Z" unicode="§" />
<glyph horiz-adv-x="1024" d="M 936 1348 C 936 1332 933 1318 927 1304 C 921 1290 912 1278 902 1268 C 892 1258 880 1250 866 1244 C 852 1238 838 1235 823 1235 C 807 1235 793 1238 779 1244 C 765 1250 754 1258 744 1268 C 734 1278 726 1290 720 1304 C 714 1318 711 1332 711 1348 C 711 1363 714 1377 720 1391 C 726 1405 734 1417 744 1428 C 754 1438 765 1447 779 1453 C 793 1459 807 1462 823 1462 C 838 1462 852 1459 866 1453 C 880 1447 892 1438 902 1428 C 912 1417 921 1405 927 1391 C 933 1377 936 1363 936 1348 Z M 539 1348 C 539 1332 536 1318 530 1304 C 524 1290 515 1278 505 1268 C 495 1258 483 1250 470 1244 C 456 1238 442 1235 428 1235 C 412 1235 397 1238 383 1244 C 369 1250 357 1258 347 1268 C 336 1278 328 1290 322 1304 C 316 1318 313 1332 313 1348 C 313 1363 316 1377 322 1391 C 328 1405 336 1417 347 1428 C 357 1438 369 1447 383 1453 C 397 1459 412 1462 428 1462 C 442 1462 456 1459 470 1453 C 483 1447 495 1438 505 1428 C 515 1417 524 1405 530 1391 C 536 1377 539 1363 539 1348 Z" unicode="¨" />
<glyph horiz-adv-x="1712" d="M 1595 717 C 1595 607 1576 506 1538 415 C 1500 324 1449 246 1383 181 C 1317 116 1238 66 1148 30 C 1058 -5 960 -23 856 -23 C 750 -23 653 -5 563 30 C 473 66 395 116 329 181 C 263 246 211 324 173 415 C 135 506 117 607 117 717 C 117 827 135 927 173 1018 C 211 1108 263 1186 329 1251 C 395 1316 473 1366 563 1402 C 653 1438 750 1456 856 1456 C 960 1456 1058 1438 1148 1402 C 1238 1366 1317 1316 1383 1251 C 1449 1186 1500 1108 1538 1018 C 1576 927 1595 827 1595 717 Z M 1495 717 C 1495 812 1478 899 1446 978 C 1413 1057 1368 1125 1311 1182 C 1254 1239 1187 1283 1109 1315 C 1031 1346 946 1362 856 1362 C 765 1362 681 1346 603 1315 C 525 1283 458 1239 401 1182 C 343 1125 298 1057 266 978 C 233 899 217 812 217 717 C 217 621 233 534 266 455 C 298 376 343 308 401 251 C 458 194 525 150 603 119 C 681 87 765 72 856 72 C 946 72 1031 87 1109 119 C 1187 150 1254 194 1311 251 C 1368 308 1413 376 1446 455 C 1478 534 1495 621 1495 717 Z M 1049 936 C 1023 970 995 996 966 1014 C 937 1031 901 1040 858 1040 C 824 1040 793 1032 765 1016 C 737 1000 712 978 692 950 C 671 921 655 887 644 848 C 632 808 627 765 627 719 C 627 671 632 627 644 587 C 656 547 672 513 692 484 C 712 455 737 433 765 417 C 793 401 824 393 858 393 C 901 393 938 402 969 420 C 1000 438 1031 466 1061 504 L 1141 434 C 1107 388 1066 353 1019 328 C 972 303 918 291 856 291 C 804 291 758 301 716 323 C 674 345 639 375 609 413 C 579 451 556 495 540 547 C 524 599 516 655 516 715 C 516 776 524 833 541 885 C 557 937 581 983 611 1021 C 641 1059 678 1088 720 1110 C 762 1132 809 1143 860 1143 C 918 1143 970 1131 1014 1109 C 1058 1086 1099 1051 1135 1004 L 1049 936 Z" unicode="©" />
<glyph horiz-adv-x="924" d="M 862 1237 C 862 1220 859 1197 854 1167 L 748 578 L 614 578 L 627 659 C 595 631 558 607 516 588 C 474 568 428 559 377 559 C 343 559 310 563 279 571 C 247 579 220 593 196 612 C 172 630 152 654 138 684 C 124 713 117 749 117 791 C 117 843 126 890 146 930 C 165 970 191 1003 225 1031 C 259 1058 298 1079 343 1093 C 387 1107 435 1114 487 1114 C 528 1114 567 1110 603 1102 C 639 1094 671 1084 700 1071 L 719 1163 C 720 1170 721 1179 722 1189 C 722 1199 723 1208 723 1217 C 723 1261 711 1292 687 1312 C 663 1331 625 1341 573 1341 C 529 1341 489 1335 451 1323 C 413 1311 373 1295 332 1274 L 289 1386 C 334 1405 381 1421 431 1435 C 480 1449 531 1456 584 1456 C 672 1456 741 1438 789 1402 C 837 1366 862 1311 862 1237 Z M 680 958 C 654 972 624 984 590 993 C 555 1001 515 1006 469 1006 C 401 1006 347 988 309 954 C 271 920 252 871 252 809 C 252 763 265 728 291 705 C 317 681 356 670 406 670 C 430 670 454 673 477 680 C 499 686 521 695 542 707 C 563 718 583 731 601 747 C 619 763 637 779 653 797 L 680 958 Z" unicode="ª" />
<glyph horiz-adv-x="1180" d="M 641 530 L 958 0 L 788 0 L 467 537 L 977 1075 L 1155 1075 L 641 530 Z M 205 530 L 522 0 L 352 0 L 31 537 L 541 1075 L 719 1075 L 205 530 Z" unicode="«" />
<glyph horiz-adv-x="1182" d="M 1073 219 L 923 219 L 923 635 L 117 635 L 117 774 L 1073 774 L 1073 219 Z" unicode="¬" />
<glyph horiz-adv-x="659" d="M 547 674 L 96 674 L 123 823 L 573 823 L 547 674 Z" unicode="­" />
<glyph horiz-adv-x="1712" d="M 1595 717 C 1595 607 1576 506 1538 415 C 1500 324 1449 246 1383 181 C 1317 116 1238 66 1148 30 C 1058 -5 960 -23 856 -23 C 750 -23 653 -5 563 30 C 473 66 395 116 329 181 C 263 246 211 324 173 415 C 135 506 117 607 117 717 C 117 827 135 927 173 1018 C 211 1108 263 1186 329 1251 C 395 1316 473 1366 563 1402 C 653 1438 750 1456 856 1456 C 960 1456 1058 1438 1148 1402 C 1238 1366 1317 1316 1383 1251 C 1449 1186 1500 1108 1538 1018 C 1576 927 1595 827 1595 717 Z M 1495 717 C 1495 812 1478 899 1446 978 C 1413 1057 1368 1125 1311 1182 C 1254 1239 1187 1283 1109 1315 C 1031 1346 946 1362 856 1362 C 765 1362 681 1346 603 1315 C 525 1283 458 1239 401 1182 C 343 1125 298 1057 266 978 C 233 899 217 812 217 717 C 217 621 233 534 266 455 C 298 376 343 308 401 251 C 458 194 525 150 603 119 C 681 87 765 72 856 72 C 946 72 1031 87 1109 119 C 1187 150 1254 194 1311 251 C 1368 308 1413 376 1446 455 C 1478 534 1495 621 1495 717 Z M 1184 903 C 1184 841 1167 790 1133 751 C 1099 711 1053 685 995 672 L 1178 322 L 1051 322 L 874 664 L 698 664 L 698 322 L 590 322 L 590 1139 L 922 1139 C 958 1139 993 1134 1025 1125 C 1057 1115 1084 1101 1108 1082 C 1131 1062 1149 1038 1163 1008 C 1177 978 1184 943 1184 903 Z M 1075 903 C 1075 949 1061 983 1034 1007 C 1006 1030 967 1042 915 1042 L 698 1042 L 698 766 L 903 766 C 961 766 1005 777 1033 799 C 1061 821 1075 855 1075 903 Z" unicode="®" />
<glyph horiz-adv-x="1024" d="M 889 1266 L 332 1266 L 356 1409 L 913 1409 L 889 1266 Z" unicode="¯" />
<glyph horiz-adv-x="975" d="M 890 1065 C 890 1009 880 956 861 908 C 842 860 816 818 782 783 C 748 747 708 720 661 700 C 614 680 563 670 507 670 C 451 670 400 680 354 700 C 307 720 267 747 233 783 C 199 818 172 860 153 908 C 133 956 124 1009 124 1065 C 124 1119 133 1170 153 1218 C 172 1266 199 1307 233 1342 C 267 1377 307 1405 354 1425 C 400 1445 451 1456 507 1456 C 563 1456 614 1445 661 1425 C 708 1405 748 1377 782 1342 C 816 1307 842 1266 861 1218 C 880 1170 890 1119 890 1065 Z M 755 1065 C 755 1103 749 1138 737 1170 C 725 1202 709 1230 687 1254 C 665 1277 639 1295 609 1309 C 578 1322 544 1329 507 1329 C 470 1329 436 1322 406 1309 C 376 1295 350 1277 328 1254 C 306 1230 290 1202 278 1170 C 266 1138 260 1103 260 1065 C 260 1025 266 988 278 955 C 290 922 306 894 328 871 C 350 847 376 829 406 816 C 436 803 470 797 507 797 C 544 797 578 803 609 816 C 639 829 665 847 687 871 C 709 894 725 922 737 955 C 749 988 755 1025 755 1065 Z" unicode="°" />
<glyph horiz-adv-x="1182" d="M 670 655 L 670 260 L 520 260 L 520 655 L 117 655 L 117 795 L 520 795 L 520 1190 L 670 1190 L 670 795 L 1073 795 L 1073 655 L 670 655 Z M 117 59 L 117 199 L 1073 199 L 1073 59 L 117 59 Z" unicode="±" />
<glyph horiz-adv-x="885" d="M 56 532 C 68 594 85 649 105 696 C 125 743 149 785 178 822 C 207 858 241 891 279 920 C 317 948 361 976 410 1003 C 478 1039 530 1072 564 1100 C 598 1128 616 1166 616 1214 C 616 1248 603 1274 578 1292 C 553 1310 520 1320 478 1320 C 435 1320 396 1312 362 1297 C 328 1282 293 1261 257 1235 L 187 1347 C 234 1384 282 1411 332 1429 C 382 1447 433 1456 485 1456 C 524 1456 560 1450 594 1440 C 628 1430 657 1415 681 1395 C 705 1375 724 1351 738 1322 C 752 1293 759 1260 759 1222 C 759 1188 755 1157 747 1130 C 739 1102 724 1076 704 1051 C 684 1026 656 1001 622 977 C 587 952 543 926 490 898 C 451 878 418 858 391 839 C 363 820 340 801 322 783 C 303 765 288 747 276 729 C 264 711 255 692 249 674 L 694 674 L 669 532 L 56 532 Z" unicode="²" />
<glyph horiz-adv-x="829" d="M 713 1229 C 713 1195 708 1166 698 1142 C 688 1117 676 1096 661 1079 C 646 1061 629 1047 610 1035 C 590 1023 571 1014 553 1006 C 589 995 618 974 641 944 C 664 913 676 874 676 826 C 676 780 667 739 651 702 C 634 664 610 632 579 605 C 548 578 511 557 468 542 C 424 527 377 520 325 520 C 262 520 204 535 151 565 C 98 595 55 634 22 683 L 131 771 C 151 743 178 716 212 692 C 245 668 289 656 344 656 C 376 656 403 660 427 668 C 450 676 469 688 485 703 C 501 718 512 736 520 757 C 528 777 532 800 532 824 C 532 860 519 889 493 911 C 467 932 430 943 380 943 L 293 943 L 316 1067 L 396 1067 C 424 1067 449 1070 469 1078 C 489 1086 507 1097 523 1112 C 539 1126 550 1143 556 1161 C 562 1179 566 1198 566 1217 C 566 1249 555 1275 534 1294 C 512 1312 479 1322 433 1322 C 401 1322 370 1314 340 1298 C 310 1282 278 1261 246 1233 L 157 1332 C 177 1351 199 1368 221 1383 C 243 1397 265 1411 289 1423 C 313 1435 338 1443 365 1449 C 392 1454 420 1457 450 1457 C 492 1457 530 1451 563 1440 C 595 1429 623 1414 645 1394 C 667 1374 684 1350 696 1322 C 707 1294 713 1263 713 1229 Z" unicode="³" />
<glyph horiz-adv-x="1024" d="M 582 1219 L 444 1219 L 713 1546 L 948 1546 L 582 1219 Z" unicode="´" />
<glyph horiz-adv-x="1159" d="M 862 0 L 711 0 L 729 121 C 711 101 693 82 673 64 C 653 46 631 31 607 18 C 583 5 557 -4 529 -12 C 500 -19 468 -23 434 -23 C 392 -23 352 -17 316 -7 C 280 3 243 24 206 56 L 141 -309 L -29 -395 L 233 1075 L 387 1075 L 276 457 C 272 437 270 417 268 397 C 266 376 266 357 266 340 C 266 263 282 205 316 165 C 349 125 402 106 475 106 C 511 106 547 114 581 130 C 615 146 645 169 673 200 C 701 231 725 269 745 314 C 765 358 781 409 791 467 L 899 1075 L 1053 1075 L 862 0 Z" unicode="µ" />
<glyph horiz-adv-x="1409" d="M 1024 -379 L 866 -379 L 1163 1294 L 977 1294 L 680 -379 L 522 -379 L 684 535 L 633 535 C 562 535 496 542 436 556 C 375 570 322 593 278 624 C 234 655 199 695 174 745 C 149 794 137 854 137 924 C 137 995 150 1062 176 1124 C 202 1186 238 1240 286 1286 C 334 1332 392 1368 460 1394 C 528 1420 604 1434 688 1434 L 1346 1434 L 1024 -379 Z" unicode="¶" />
<glyph horiz-adv-x="492" d="M 385 752 C 385 734 381 717 374 701 C 367 685 358 671 346 659 C 334 647 320 638 304 631 C 288 624 271 621 254 621 C 236 621 219 624 203 631 C 187 638 173 647 161 659 C 149 671 140 685 133 701 C 126 717 123 734 123 752 C 123 770 126 787 133 803 C 140 819 149 833 161 846 C 173 858 187 868 203 876 C 219 883 236 887 254 887 C 271 887 288 883 304 876 C 320 868 334 858 346 846 C 358 833 367 819 374 803 C 381 787 385 770 385 752 Z" unicode="·" />
<glyph horiz-adv-x="1024" d="M 598 -205 C 598 -237 591 -266 579 -290 C 566 -314 549 -333 527 -349 C 505 -364 479 -375 450 -383 C 421 -391 390 -395 358 -395 C 302 -395 254 -387 213 -373 C 171 -358 131 -336 92 -307 L 143 -246 C 171 -267 201 -283 233 -294 C 264 -305 302 -311 346 -311 C 385 -311 416 -304 440 -290 C 463 -276 475 -254 475 -225 C 475 -205 470 -190 460 -178 C 450 -166 435 -160 414 -160 C 394 -160 377 -162 362 -168 C 347 -173 332 -181 317 -193 L 250 -164 L 330 0 L 422 0 L 369 -104 C 383 -96 397 -91 413 -87 C 429 -83 447 -82 469 -82 C 505 -82 535 -92 560 -112 C 585 -132 598 -163 598 -205 Z" unicode="¸" />
<glyph horiz-adv-x="705" d="M 358 1210 L 203 1210 L 221 1317 C 247 1319 271 1322 293 1326 C 314 1330 333 1336 350 1344 C 367 1352 382 1364 394 1378 C 406 1392 416 1410 424 1432 L 541 1432 L 380 522 L 236 522 L 358 1210 Z" unicode="¹" />
<glyph horiz-adv-x="975" d="M 897 1087 C 897 1005 885 931 862 866 C 839 801 808 746 770 701 C 731 655 686 621 636 597 C 585 573 532 561 477 561 C 423 561 375 569 332 586 C 289 603 252 628 222 660 C 191 692 167 730 151 776 C 135 821 127 872 127 930 C 127 1012 138 1085 161 1150 C 184 1215 215 1270 254 1316 C 292 1361 337 1396 388 1420 C 438 1444 491 1456 547 1456 C 600 1456 648 1447 691 1430 C 734 1413 771 1389 802 1357 C 832 1325 856 1286 872 1240 C 888 1194 897 1143 897 1087 Z M 762 1087 C 762 1164 743 1225 705 1270 C 667 1314 611 1337 537 1337 C 496 1337 459 1326 425 1306 C 391 1285 362 1256 338 1220 C 314 1184 295 1141 282 1091 C 268 1041 262 988 262 930 C 262 852 280 791 318 747 C 356 702 412 680 487 680 C 527 680 564 690 598 711 C 632 731 661 760 685 796 C 709 832 728 875 742 925 C 755 975 762 1029 762 1087 Z" unicode="º" />
<glyph horiz-adv-x="1180" d="M 578 0 L 399 0 L 913 545 L 596 1075 L 766 1075 L 1087 539 L 578 0 Z M 141 0 L -37 0 L 477 545 L 160 1075 L 330 1075 L 651 539 L 141 0 Z" unicode="»" />
<glyph horiz-adv-x="1905" d="M 447 1210 L 292 1210 L 310 1317 C 336 1319 360 1322 382 1326 C 403 1330 422 1336 439 1344 C 456 1352 471 1364 483 1378 C 495 1392 505 1410 513 1432 L 630 1432 L 469 522 L 325 522 L 447 1210 Z M 382 0 L 210 0 L 1436 1434 L 1608 1434 L 382 0 Z M 1352 203 L 893 203 L 913 315 L 1476 909 L 1613 909 L 1512 336 L 1631 336 L 1608 203 L 1489 203 L 1453 0 L 1316 0 L 1352 203 Z M 1375 336 L 1439 694 L 1096 336 L 1375 336 Z" unicode="¼" />
<glyph horiz-adv-x="1905" d="M 420 1210 L 265 1210 L 283 1317 C 309 1319 333 1322 355 1326 C 376 1330 395 1336 412 1344 C 429 1352 444 1364 456 1378 C 468 1392 478 1410 486 1432 L 603 1432 L 442 522 L 298 522 L 420 1210 Z M 320 0 L 148 0 L 1374 1434 L 1546 1434 L 320 0 Z M 986 0 C 998 62 1015 117 1035 164 C 1055 211 1079 253 1108 290 C 1137 326 1171 359 1209 388 C 1247 416 1291 444 1340 471 C 1408 507 1460 540 1494 568 C 1528 596 1546 634 1546 682 C 1546 716 1533 742 1508 760 C 1483 778 1450 788 1408 788 C 1365 788 1326 780 1292 765 C 1258 750 1223 729 1187 703 L 1117 815 C 1164 852 1212 879 1262 897 C 1312 915 1363 924 1415 924 C 1454 924 1490 918 1524 908 C 1558 898 1587 883 1611 863 C 1635 843 1654 819 1668 790 C 1682 761 1689 728 1689 690 C 1689 656 1685 625 1677 598 C 1669 570 1654 544 1634 519 C 1614 494 1586 469 1552 445 C 1517 420 1473 394 1420 366 C 1381 346 1348 326 1321 307 C 1293 288 1270 269 1252 251 C 1233 233 1218 215 1206 197 C 1194 179 1185 160 1179 142 L 1624 142 L 1599 0 L 986 0 Z" unicode="½" />
<glyph horiz-adv-x="1905" d="M 824 1229 C 824 1195 819 1166 809 1142 C 799 1117 787 1096 772 1079 C 757 1061 740 1047 721 1035 C 701 1023 682 1014 664 1006 C 700 995 729 974 752 944 C 775 913 787 874 787 826 C 787 780 778 739 762 702 C 745 664 721 632 690 605 C 659 578 622 557 579 542 C 535 527 488 520 436 520 C 373 520 315 535 262 565 C 209 595 166 634 133 683 L 242 771 C 262 743 289 716 323 692 C 356 668 400 656 455 656 C 487 656 514 660 538 668 C 561 676 580 688 596 703 C 612 718 623 736 631 757 C 639 777 643 800 643 824 C 643 860 630 889 604 911 C 578 932 541 943 491 943 L 404 943 L 427 1067 L 507 1067 C 535 1067 560 1070 580 1078 C 600 1086 618 1097 634 1112 C 650 1126 661 1143 667 1161 C 673 1179 677 1198 677 1217 C 677 1249 666 1275 645 1294 C 623 1312 590 1322 544 1322 C 512 1322 481 1314 451 1298 C 421 1282 389 1261 357 1233 L 268 1332 C 288 1351 310 1368 332 1383 C 354 1397 376 1411 400 1423 C 424 1435 449 1443 476 1449 C 503 1454 531 1457 561 1457 C 603 1457 641 1451 674 1440 C 706 1429 734 1414 756 1394 C 778 1374 795 1350 807 1322 C 818 1294 824 1263 824 1229 Z M 511 0 L 339 0 L 1565 1434 L 1737 1434 L 511 0 Z M 1421 204 L 962 204 L 982 316 L 1545 910 L 1682 910 L 1581 337 L 1700 337 L 1677 204 L 1558 204 L 1522 1 L 1385 1 L 1421 204 Z M 1444 337 L 1508 695 L 1165 337 L 1444 337 Z" unicode="¾" />
<glyph horiz-adv-x="1141" d="M 61 295 C 61 349 67 397 81 437 C 95 477 115 514 142 546 C 169 578 203 607 243 633 C 283 659 329 686 381 713 C 418 732 449 750 475 768 C 500 786 521 807 538 831 C 554 855 567 884 577 919 C 587 953 595 997 602 1049 L 758 1049 C 750 985 740 930 728 885 C 716 840 699 800 676 766 C 652 731 622 699 584 671 C 546 643 496 614 436 584 C 400 566 369 547 343 529 C 316 511 294 491 276 471 C 258 450 244 428 235 404 C 225 380 221 353 221 324 C 221 261 245 212 293 176 C 341 140 408 123 494 123 C 529 123 563 126 595 133 C 627 140 659 150 690 163 C 720 175 750 190 780 208 C 809 226 838 246 868 268 L 952 150 C 883 95 810 52 732 22 C 654 -7 571 -23 482 -23 C 419 -23 362 -15 310 -1 C 258 12 214 34 177 62 C 140 90 111 123 91 163 C 71 202 61 246 61 295 Z M 596 1331 C 596 1347 599 1363 606 1378 C 613 1393 622 1406 634 1418 C 645 1430 658 1439 674 1446 C 689 1452 705 1456 721 1456 C 738 1456 754 1452 769 1446 C 784 1439 797 1430 809 1418 C 820 1406 829 1393 836 1378 C 842 1363 846 1347 846 1331 C 846 1314 842 1298 836 1282 C 829 1266 820 1253 809 1241 C 797 1229 784 1219 769 1212 C 754 1205 738 1202 721 1202 C 705 1202 689 1205 674 1212 C 658 1219 645 1229 634 1241 C 622 1253 613 1266 606 1282 C 599 1298 596 1314 596 1331 Z" unicode="¿" />
<glyph horiz-adv-x="1380" d="M 983 0 L 926 365 L 338 365 L 152 0 L -16 0 L 731 1434 L 907 1434 L 1147 0 L 983 0 Z M 790 1245 L 412 510 L 903 510 L 790 1245 Z M 770 1526 L 518 1853 L 729 1853 L 883 1526 L 770 1526 Z" unicode="À" />
<glyph horiz-adv-x="1380" d="M 983 0 L 926 365 L 338 365 L 152 0 L -16 0 L 731 1434 L 907 1434 L 1147 0 L 983 0 Z M 790 1245 L 412 510 L 903 510 L 790 1245 Z M 897 1526 L 759 1526 L 1028 1853 L 1263 1853 L 897 1526 Z" unicode="Á" />
<glyph horiz-adv-x="1380" d="M 983 0 L 926 365 L 338 365 L 152 0 L -16 0 L 731 1434 L 907 1434 L 1147 0 L 983 0 Z M 790 1245 L 412 510 L 903 510 L 790 1245 Z M 1018 1485 L 850 1696 L 604 1485 L 471 1485 L 782 1812 L 954 1812 L 1147 1485 L 1018 1485 Z" unicode="Â" />
<glyph horiz-adv-x="1380" d="M 983 0 L 926 365 L 338 365 L 152 0 L -16 0 L 731 1434 L 907 1434 L 1147 0 L 983 0 Z M 790 1245 L 412 510 L 903 510 L 790 1245 Z M 1231 1798 C 1222 1748 1210 1706 1195 1672 C 1180 1638 1163 1610 1143 1590 C 1123 1569 1102 1554 1078 1545 C 1054 1536 1028 1532 1001 1532 C 957 1532 920 1540 890 1557 C 860 1574 835 1590 817 1605 C 799 1618 778 1633 754 1650 C 730 1666 705 1675 680 1675 C 660 1675 643 1664 627 1644 C 611 1624 596 1588 584 1538 L 457 1538 C 465 1588 477 1630 492 1664 C 506 1698 523 1725 543 1746 C 563 1766 585 1781 609 1790 C 633 1799 658 1804 686 1804 C 729 1804 765 1796 794 1780 C 822 1764 848 1747 870 1730 C 887 1717 908 1702 932 1686 C 956 1669 981 1661 1007 1661 C 1026 1661 1044 1671 1060 1691 C 1076 1711 1090 1746 1104 1798 L 1231 1798 Z" unicode="Ã" />
<glyph horiz-adv-x="1380" d="M 983 0 L 926 365 L 338 365 L 152 0 L -16 0 L 731 1434 L 907 1434 L 1147 0 L 983 0 Z M 790 1245 L 412 510 L 903 510 L 790 1245 Z M 1157 1655 C 1157 1639 1154 1625 1148 1611 C 1142 1597 1133 1585 1123 1575 C 1113 1565 1101 1557 1087 1551 C 1073 1545 1059 1542 1044 1542 C 1028 1542 1014 1545 1000 1551 C 986 1557 975 1565 965 1575 C 955 1585 947 1597 941 1611 C 935 1625 932 1639 932 1655 C 932 1670 935 1684 941 1698 C 947 1712 955 1724 965 1735 C 975 1745 986 1754 1000 1760 C 1014 1766 1028 1769 1044 1769 C 1059 1769 1073 1766 1087 1760 C 1101 1754 1113 1745 1123 1735 C 1133 1724 1142 1712 1148 1698 C 1154 1684 1157 1670 1157 1655 Z M 760 1655 C 760 1639 757 1625 751 1611 C 745 1597 736 1585 726 1575 C 716 1565 704 1557 691 1551 C 677 1545 663 1542 649 1542 C 633 1542 618 1545 604 1551 C 590 1557 578 1565 568 1575 C 557 1585 549 1597 543 1611 C 537 1625 534 1639 534 1655 C 534 1670 537 1684 543 1698 C 549 1712 557 1724 568 1735 C 578 1745 590 1754 604 1760 C 618 1766 633 1769 649 1769 C 663 1769 677 1766 691 1760 C 704 1754 716 1745 726 1735 C 736 1724 745 1712 751 1698 C 757 1684 760 1670 760 1655 Z" unicode="Ä" />
<glyph horiz-adv-x="1380" d="M 983 0 L 926 365 L 338 365 L 152 0 L -16 0 L 692 1360 C 658 1380 631 1408 612 1444 C 593 1480 584 1519 584 1563 C 584 1596 590 1627 602 1656 C 614 1684 630 1709 651 1731 C 672 1752 697 1769 727 1781 C 756 1793 788 1800 823 1800 C 857 1800 889 1793 919 1781 C 949 1769 974 1752 995 1731 C 1016 1709 1033 1684 1045 1656 C 1057 1627 1063 1596 1063 1563 C 1063 1513 1050 1468 1025 1429 C 999 1390 965 1361 922 1343 L 1147 0 L 983 0 Z M 790 1245 L 412 510 L 903 510 L 790 1245 Z M 967 1563 C 967 1584 963 1603 957 1621 C 950 1638 940 1653 928 1667 C 916 1680 901 1690 883 1697 C 865 1704 845 1708 823 1708 C 801 1708 781 1704 763 1697 C 745 1690 730 1680 718 1667 C 706 1653 696 1638 690 1621 C 683 1603 680 1584 680 1563 C 680 1541 683 1521 690 1503 C 696 1485 706 1469 718 1456 C 730 1443 745 1433 763 1426 C 781 1418 801 1415 823 1415 C 845 1415 864 1418 882 1426 C 900 1433 915 1443 928 1456 C 940 1469 950 1485 957 1503 C 963 1521 967 1541 967 1563 Z" unicode="Å" />
<glyph horiz-adv-x="2036" d="M 1092 145 L 1821 145 L 1794 0 L 913 0 L 977 365 L 410 365 L 106 0 L -76 0 L 1139 1434 L 2015 1434 L 1991 1288 L 1292 1288 L 1212 838 L 1776 838 L 1751 692 L 1188 692 L 1092 145 Z M 530 510 L 1004 510 L 1137 1239 L 530 510 Z" unicode="Æ" />
<glyph horiz-adv-x="1278" d="M 1112 1118 C 1094 1148 1075 1176 1055 1200 C 1035 1224 1012 1244 987 1260 C 962 1276 934 1289 902 1298 C 870 1306 834 1311 793 1311 C 716 1311 644 1288 576 1244 C 508 1199 452 1140 406 1067 C 360 993 326 915 304 833 C 281 751 270 665 270 575 C 270 503 278 440 296 384 C 314 328 338 281 370 242 C 402 203 440 173 484 153 C 528 133 577 123 631 123 C 700 123 764 137 822 167 C 880 197 940 245 1001 311 L 1098 209 C 1066 175 1033 143 998 115 C 962 86 925 61 886 41 C 846 21 804 5 760 -6 C 716 -17 669 -23 621 -23 C 545 -23 475 -10 413 15 C 350 41 296 79 252 129 C 207 179 172 240 148 314 C 123 387 111 471 111 567 C 111 646 119 723 135 798 C 151 872 175 942 205 1008 C 235 1074 271 1134 314 1189 C 356 1244 404 1291 456 1331 C 508 1370 564 1401 625 1423 C 685 1445 749 1456 815 1456 C 869 1456 919 1450 963 1439 C 1007 1427 1046 1411 1082 1389 C 1117 1367 1148 1341 1176 1310 C 1204 1278 1229 1243 1251 1204 L 1112 1118 Z M 764 -205 C 764 -237 757 -266 745 -290 C 732 -314 715 -333 693 -349 C 671 -364 645 -375 616 -383 C 587 -391 556 -395 524 -395 C 468 -395 420 -387 379 -373 C 337 -358 297 -336 258 -307 L 309 -246 C 337 -267 367 -283 399 -294 C 430 -305 468 -311 512 -311 C 551 -311 582 -304 606 -290 C 629 -276 641 -254 641 -225 C 641 -205 636 -190 626 -178 C 616 -166 601 -160 580 -160 C 560 -160 543 -162 528 -168 C 513 -173 498 -181 483 -193 L 416 -164 L 496 0 L 588 0 L 535 -104 C 549 -96 563 -91 579 -87 C 595 -83 613 -82 635 -82 C 671 -82 701 -92 726 -112 C 751 -132 764 -163 764 -205 Z" unicode="Ç" />
<glyph horiz-adv-x="1194" d="M 61 0 L 315 1434 L 1171 1434 L 1147 1288 L 449 1288 L 369 838 L 932 838 L 907 692 L 344 692 L 248 145 L 977 145 L 950 0 L 61 0 Z M 713 1526 L 461 1853 L 672 1853 L 826 1526 L 713 1526 Z" unicode="È" />
<glyph horiz-adv-x="1194" d="M 61 0 L 315 1434 L 1171 1434 L 1147 1288 L 449 1288 L 369 838 L 932 838 L 907 692 L 344 692 L 248 145 L 977 145 L 950 0 L 61 0 Z M 758 1526 L 620 1526 L 889 1853 L 1124 1853 L 758 1526 Z" unicode="É" />
<glyph horiz-adv-x="1194" d="M 61 0 L 315 1434 L 1171 1434 L 1147 1288 L 449 1288 L 369 838 L 932 838 L 907 692 L 344 692 L 248 145 L 977 145 L 950 0 L 61 0 Z M 942 1526 L 774 1737 L 528 1526 L 395 1526 L 706 1853 L 878 1853 L 1071 1526 L 942 1526 Z" unicode="Ê" />
<glyph horiz-adv-x="1194" d="M 61 0 L 315 1434 L 1171 1434 L 1147 1288 L 449 1288 L 369 838 L 932 838 L 907 692 L 344 692 L 248 145 L 977 145 L 950 0 L 61 0 Z M 1067 1655 C 1067 1639 1064 1625 1058 1611 C 1052 1597 1043 1585 1033 1575 C 1023 1565 1011 1557 997 1551 C 983 1545 969 1542 954 1542 C 938 1542 924 1545 910 1551 C 896 1557 885 1565 875 1575 C 865 1585 857 1597 851 1611 C 845 1625 842 1639 842 1655 C 842 1670 845 1684 851 1698 C 857 1712 865 1724 875 1735 C 885 1745 896 1754 910 1760 C 924 1766 938 1769 954 1769 C 969 1769 983 1766 997 1760 C 1011 1754 1023 1745 1033 1735 C 1043 1724 1052 1712 1058 1698 C 1064 1684 1067 1670 1067 1655 Z M 670 1655 C 670 1639 667 1625 661 1611 C 655 1597 646 1585 636 1575 C 626 1565 614 1557 601 1551 C 587 1545 573 1542 559 1542 C 543 1542 528 1545 514 1551 C 500 1557 488 1565 478 1575 C 467 1585 459 1597 453 1611 C 447 1625 444 1639 444 1655 C 444 1670 447 1684 453 1698 C 459 1712 467 1724 478 1735 C 488 1745 500 1754 514 1760 C 528 1766 543 1769 559 1769 C 573 1769 587 1766 601 1760 C 614 1754 626 1745 636 1735 C 646 1724 655 1712 661 1698 C 667 1684 670 1670 670 1655 Z" unicode="Ë" />
<glyph horiz-adv-x="557" d="M 231 0 L 72 0 L 326 1434 L 485 1434 L 231 0 Z M 368 1526 L 116 1853 L 327 1853 L 481 1526 L 368 1526 Z" unicode="Ì" />
<glyph horiz-adv-x="557" d="M 231 0 L 72 0 L 326 1434 L 485 1434 L 231 0 Z M 474 1526 L 336 1526 L 605 1853 L 840 1853 L 474 1526 Z" unicode="Í" />
<glyph horiz-adv-x="557" d="M 231 0 L 72 0 L 326 1434 L 485 1434 L 231 0 Z M 616 1516 L 448 1727 L 202 1516 L 69 1516 L 380 1843 L 552 1843 L 745 1516 L 616 1516 Z" unicode="Î" />
<glyph horiz-adv-x="557" d="M 231 0 L 72 0 L 326 1434 L 485 1434 L 231 0 Z M 753 1663 C 753 1647 750 1633 744 1619 C 738 1605 729 1593 719 1583 C 709 1573 697 1565 683 1559 C 669 1553 655 1550 640 1550 C 624 1550 610 1553 596 1559 C 582 1565 571 1573 561 1583 C 551 1593 543 1605 537 1619 C 531 1633 528 1647 528 1663 C 528 1678 531 1692 537 1706 C 543 1720 551 1732 561 1743 C 571 1753 582 1762 596 1768 C 610 1774 624 1777 640 1777 C 655 1777 669 1774 683 1768 C 697 1762 709 1753 719 1743 C 729 1732 738 1720 744 1706 C 750 1692 753 1678 753 1663 Z M 356 1663 C 356 1647 353 1633 347 1619 C 341 1605 332 1593 322 1583 C 312 1573 300 1565 287 1559 C 273 1553 259 1550 245 1550 C 229 1550 214 1553 200 1559 C 186 1565 174 1573 164 1583 C 153 1593 145 1605 139 1619 C 133 1633 130 1647 130 1663 C 130 1678 133 1692 139 1706 C 145 1720 153 1732 164 1743 C 174 1753 186 1762 200 1768 C 214 1774 229 1777 245 1777 C 259 1777 273 1774 287 1768 C 300 1762 312 1753 322 1743 C 332 1732 341 1720 347 1706 C 353 1692 356 1678 356 1663 Z" unicode="Ï" />
<glyph horiz-adv-x="1389" d="M 1280 854 C 1280 752 1268 661 1245 579 C 1222 497 1191 425 1151 362 C 1111 298 1065 244 1011 199 C 957 153 900 116 839 86 C 778 56 715 35 650 21 C 584 7 520 0 457 0 L 113 0 L 233 678 L 104 678 L 131 821 L 258 821 L 367 1434 L 616 1434 C 712 1434 800 1423 882 1402 C 963 1380 1033 1346 1092 1300 C 1151 1254 1197 1194 1230 1121 C 1263 1047 1280 958 1280 854 Z M 1116 846 C 1116 927 1104 996 1081 1052 C 1057 1108 1024 1153 980 1188 C 936 1223 882 1248 818 1264 C 754 1280 682 1288 602 1288 L 496 1288 L 414 821 L 705 821 L 678 678 L 389 678 L 295 145 L 483 145 C 536 145 589 151 641 163 C 693 175 743 193 790 218 C 837 242 880 274 920 312 C 960 350 994 394 1023 446 C 1052 498 1075 557 1091 623 C 1107 689 1116 764 1116 846 Z" unicode="Ð" />
<glyph horiz-adv-x="1401" d="M 1085 0 L 936 0 L 425 1181 L 215 0 L 61 0 L 315 1434 L 471 1434 L 977 264 L 1186 1434 L 1339 1434 L 1085 0 Z M 1215 1806 C 1206 1756 1194 1714 1179 1680 C 1164 1646 1147 1618 1127 1598 C 1107 1577 1086 1562 1062 1553 C 1038 1544 1012 1540 985 1540 C 941 1540 904 1548 874 1565 C 844 1582 819 1598 801 1613 C 783 1626 762 1641 738 1658 C 714 1674 689 1683 664 1683 C 644 1683 627 1672 611 1652 C 595 1632 580 1596 568 1546 L 441 1546 C 449 1596 461 1638 476 1672 C 490 1706 507 1733 527 1754 C 547 1774 569 1789 593 1798 C 617 1807 642 1812 670 1812 C 713 1812 749 1804 778 1788 C 806 1772 832 1755 854 1738 C 871 1725 892 1710 916 1694 C 940 1677 965 1669 991 1669 C 1010 1669 1028 1679 1044 1699 C 1060 1719 1074 1754 1088 1806 L 1215 1806 Z" unicode="Ñ" />
<glyph horiz-adv-x="1436" d="M 1325 881 C 1325 797 1316 716 1300 639 C 1284 562 1260 490 1230 423 C 1200 356 1163 295 1121 240 C 1078 185 1030 138 978 99 C 926 60 869 30 808 9 C 747 -12 684 -23 618 -23 C 540 -23 469 -9 407 17 C 345 44 292 83 248 133 C 204 183 170 243 146 314 C 122 385 111 465 111 553 C 111 636 119 716 135 794 C 151 871 175 943 205 1010 C 235 1077 272 1138 315 1193 C 357 1247 405 1294 457 1333 C 509 1372 566 1402 627 1424 C 687 1445 751 1456 817 1456 C 895 1456 965 1442 1028 1415 C 1090 1388 1144 1350 1188 1300 C 1232 1250 1265 1190 1289 1119 C 1313 1048 1325 969 1325 881 Z M 1165 852 C 1165 921 1157 984 1141 1041 C 1125 1097 1101 1146 1070 1186 C 1038 1226 1000 1256 954 1278 C 908 1300 854 1311 794 1311 C 723 1311 656 1292 592 1254 C 528 1216 472 1164 424 1098 C 376 1032 339 955 311 867 C 283 778 270 683 270 582 C 270 512 278 448 294 392 C 310 336 333 288 365 248 C 397 208 436 177 482 155 C 528 133 581 123 641 123 C 713 123 780 142 844 180 C 907 218 962 269 1010 335 C 1058 401 1095 478 1123 567 C 1151 655 1165 750 1165 852 Z M 774 1526 L 522 1853 L 733 1853 L 887 1526 L 774 1526 Z" unicode="Ò" />
<glyph horiz-adv-x="1436" d="M 1325 881 C 1325 797 1316 716 1300 639 C 1284 562 1260 490 1230 423 C 1200 356 1163 295 1121 240 C 1078 185 1030 138 978 99 C 926 60 869 30 808 9 C 747 -12 684 -23 618 -23 C 540 -23 469 -9 407 17 C 345 44 292 83 248 133 C 204 183 170 243 146 314 C 122 385 111 465 111 553 C 111 636 119 716 135 794 C 151 871 175 943 205 1010 C 235 1077 272 1138 315 1193 C 357 1247 405 1294 457 1333 C 509 1372 566 1402 627 1424 C 687 1445 751 1456 817 1456 C 895 1456 965 1442 1028 1415 C 1090 1388 1144 1350 1188 1300 C 1232 1250 1265 1190 1289 1119 C 1313 1048 1325 969 1325 881 Z M 1165 852 C 1165 921 1157 984 1141 1041 C 1125 1097 1101 1146 1070 1186 C 1038 1226 1000 1256 954 1278 C 908 1300 854 1311 794 1311 C 723 1311 656 1292 592 1254 C 528 1216 472 1164 424 1098 C 376 1032 339 955 311 867 C 283 778 270 683 270 582 C 270 512 278 448 294 392 C 310 336 333 288 365 248 C 397 208 436 177 482 155 C 528 133 581 123 641 123 C 713 123 780 142 844 180 C 907 218 962 269 1010 335 C 1058 401 1095 478 1123 567 C 1151 655 1165 750 1165 852 Z M 861 1526 L 723 1526 L 992 1853 L 1227 1853 L 861 1526 Z" unicode="Ó" />
<glyph horiz-adv-x="1436" d="M 1325 881 C 1325 797 1316 716 1300 639 C 1284 562 1260 490 1230 423 C 1200 356 1163 295 1121 240 C 1078 185 1030 138 978 99 C 926 60 869 30 808 9 C 747 -12 684 -23 618 -23 C 540 -23 469 -9 407 17 C 345 44 292 83 248 133 C 204 183 170 243 146 314 C 122 385 111 465 111 553 C 111 636 119 716 135 794 C 151 871 175 943 205 1010 C 235 1077 272 1138 315 1193 C 357 1247 405 1294 457 1333 C 509 1372 566 1402 627 1424 C 687 1445 751 1456 817 1456 C 895 1456 965 1442 1028 1415 C 1090 1388 1144 1350 1188 1300 C 1232 1250 1265 1190 1289 1119 C 1313 1048 1325 969 1325 881 Z M 1165 852 C 1165 921 1157 984 1141 1041 C 1125 1097 1101 1146 1070 1186 C 1038 1226 1000 1256 954 1278 C 908 1300 854 1311 794 1311 C 723 1311 656 1292 592 1254 C 528 1216 472 1164 424 1098 C 376 1032 339 955 311 867 C 283 778 270 683 270 582 C 270 512 278 448 294 392 C 310 336 333 288 365 248 C 397 208 436 177 482 155 C 528 133 581 123 641 123 C 713 123 780 142 844 180 C 907 218 962 269 1010 335 C 1058 401 1095 478 1123 567 C 1151 655 1165 750 1165 852 Z M 1043 1516 L 875 1727 L 629 1516 L 496 1516 L 807 1843 L 979 1843 L 1172 1516 L 1043 1516 Z" unicode="Ô" />
<glyph horiz-adv-x="1436" d="M 1325 881 C 1325 797 1316 716 1300 639 C 1284 562 1260 490 1230 423 C 1200 356 1163 295 1121 240 C 1078 185 1030 138 978 99 C 926 60 869 30 808 9 C 747 -12 684 -23 618 -23 C 540 -23 469 -9 407 17 C 345 44 292 83 248 133 C 204 183 170 243 146 314 C 122 385 111 465 111 553 C 111 636 119 716 135 794 C 151 871 175 943 205 1010 C 235 1077 272 1138 315 1193 C 357 1247 405 1294 457 1333 C 509 1372 566 1402 627 1424 C 687 1445 751 1456 817 1456 C 895 1456 965 1442 1028 1415 C 1090 1388 1144 1350 1188 1300 C 1232 1250 1265 1190 1289 1119 C 1313 1048 1325 969 1325 881 Z M 1165 852 C 1165 921 1157 984 1141 1041 C 1125 1097 1101 1146 1070 1186 C 1038 1226 1000 1256 954 1278 C 908 1300 854 1311 794 1311 C 723 1311 656 1292 592 1254 C 528 1216 472 1164 424 1098 C 376 1032 339 955 311 867 C 283 778 270 683 270 582 C 270 512 278 448 294 392 C 310 336 333 288 365 248 C 397 208 436 177 482 155 C 528 133 581 123 641 123 C 713 123 780 142 844 180 C 907 218 962 269 1010 335 C 1058 401 1095 478 1123 567 C 1151 655 1165 750 1165 852 Z M 1258 1798 C 1249 1748 1237 1706 1222 1672 C 1207 1638 1190 1610 1170 1590 C 1150 1569 1129 1554 1105 1545 C 1081 1536 1055 1532 1028 1532 C 984 1532 947 1540 917 1557 C 887 1574 862 1590 844 1605 C 826 1618 805 1633 781 1650 C 757 1666 732 1675 707 1675 C 687 1675 670 1664 654 1644 C 638 1624 623 1588 611 1538 L 484 1538 C 492 1588 504 1630 519 1664 C 533 1698 550 1725 570 1746 C 590 1766 612 1781 636 1790 C 660 1799 685 1804 713 1804 C 756 1804 792 1796 821 1780 C 849 1764 875 1747 897 1730 C 914 1717 935 1702 959 1686 C 983 1669 1008 1661 1034 1661 C 1053 1661 1071 1671 1087 1691 C 1103 1711 1117 1746 1131 1798 L 1258 1798 Z" unicode="Õ" />
<glyph horiz-adv-x="1436" d="M 1325 881 C 1325 797 1316 716 1300 639 C 1284 562 1260 490 1230 423 C 1200 356 1163 295 1121 240 C 1078 185 1030 138 978 99 C 926 60 869 30 808 9 C 747 -12 684 -23 618 -23 C 540 -23 469 -9 407 17 C 345 44 292 83 248 133 C 204 183 170 243 146 314 C 122 385 111 465 111 553 C 111 636 119 716 135 794 C 151 871 175 943 205 1010 C 235 1077 272 1138 315 1193 C 357 1247 405 1294 457 1333 C 509 1372 566 1402 627 1424 C 687 1445 751 1456 817 1456 C 895 1456 965 1442 1028 1415 C 1090 1388 1144 1350 1188 1300 C 1232 1250 1265 1190 1289 1119 C 1313 1048 1325 969 1325 881 Z M 1165 852 C 1165 921 1157 984 1141 1041 C 1125 1097 1101 1146 1070 1186 C 1038 1226 1000 1256 954 1278 C 908 1300 854 1311 794 1311 C 723 1311 656 1292 592 1254 C 528 1216 472 1164 424 1098 C 376 1032 339 955 311 867 C 283 778 270 683 270 582 C 270 512 278 448 294 392 C 310 336 333 288 365 248 C 397 208 436 177 482 155 C 528 133 581 123 641 123 C 713 123 780 142 844 180 C 907 218 962 269 1010 335 C 1058 401 1095 478 1123 567 C 1151 655 1165 750 1165 852 Z M 1180 1655 C 1180 1639 1177 1625 1171 1611 C 1165 1597 1156 1585 1146 1575 C 1136 1565 1124 1557 1110 1551 C 1096 1545 1082 1542 1067 1542 C 1051 1542 1037 1545 1023 1551 C 1009 1557 998 1565 988 1575 C 978 1585 970 1597 964 1611 C 958 1625 955 1639 955 1655 C 955 1670 958 1684 964 1698 C 970 1712 978 1724 988 1735 C 998 1745 1009 1754 1023 1760 C 1037 1766 1051 1769 1067 1769 C 1082 1769 1096 1766 1110 1760 C 1124 1754 1136 1745 1146 1735 C 1156 1724 1165 1712 1171 1698 C 1177 1684 1180 1670 1180 1655 Z M 783 1655 C 783 1639 780 1625 774 1611 C 768 1597 759 1585 749 1575 C 739 1565 727 1557 714 1551 C 700 1545 686 1542 672 1542 C 656 1542 641 1545 627 1551 C 613 1557 601 1565 591 1575 C 580 1585 572 1597 566 1611 C 560 1625 557 1639 557 1655 C 557 1670 560 1684 566 1698 C 572 1712 580 1724 591 1735 C 601 1745 613 1754 627 1760 C 641 1766 656 1769 672 1769 C 686 1769 700 1766 714 1760 C 727 1754 739 1745 749 1735 C 759 1724 768 1712 774 1698 C 780 1684 783 1670 783 1655 Z" unicode="Ö" />
<glyph horiz-adv-x="1270" d="M 1038 225 L 655 612 L 272 225 L 176 322 L 563 705 L 176 1087 L 272 1184 L 655 797 L 1038 1184 L 1134 1087 L 747 705 L 1134 322 L 1038 225 Z" unicode="×" />
<glyph horiz-adv-x="1436" d="M 256 125 C 210 175 174 236 149 308 C 123 380 111 462 111 553 C 111 636 119 716 135 794 C 151 871 175 943 206 1010 C 236 1077 273 1138 315 1193 C 357 1247 405 1294 457 1333 C 509 1372 566 1402 627 1424 C 687 1445 751 1456 817 1456 C 904 1456 985 1437 1061 1401 L 1147 1536 L 1288 1536 L 1157 1331 C 1211 1281 1252 1217 1281 1141 C 1310 1065 1325 978 1325 881 C 1325 797 1316 716 1300 639 C 1284 562 1260 490 1230 423 C 1200 356 1163 295 1121 240 C 1078 185 1030 138 978 99 C 926 60 869 30 808 9 C 747 -12 684 -23 618 -23 C 515 -23 425 1 348 49 L 252 -102 L 111 -102 L 256 125 Z M 979 1270 C 925 1300 863 1315 795 1315 C 724 1315 657 1296 593 1259 C 529 1222 473 1170 424 1104 C 374 1037 336 958 308 867 C 280 775 266 680 266 582 C 266 454 292 350 346 268 L 979 1270 Z M 430 180 C 487 139 557 119 641 119 C 711 119 778 137 842 174 C 906 210 962 263 1012 331 C 1062 399 1100 478 1128 569 C 1155 659 1169 754 1169 852 C 1169 993 1136 1106 1071 1192 L 430 180 Z" unicode="Ø" />
<glyph horiz-adv-x="1380" d="M 1176 563 C 1158 463 1134 377 1103 304 C 1071 230 1032 169 986 121 C 939 72 884 36 821 12 C 758 -11 686 -23 606 -23 C 530 -23 462 -13 404 6 C 346 25 297 53 257 90 C 217 127 187 172 167 226 C 147 279 137 340 137 408 C 137 430 138 457 142 488 C 146 519 150 550 156 582 L 305 1434 L 465 1434 L 315 586 C 309 556 306 526 304 497 C 302 468 301 442 301 420 C 301 324 327 251 380 200 C 433 148 516 123 629 123 C 685 123 735 132 778 151 C 821 169 858 198 890 236 C 921 274 947 321 968 379 C 989 437 1006 504 1020 582 L 1169 1434 L 1329 1434 L 1176 563 Z M 801 1495 L 549 1822 L 760 1822 L 914 1495 L 801 1495 Z" unicode="Ù" />
<glyph horiz-adv-x="1380" d="M 1176 563 C 1158 463 1134 377 1103 304 C 1071 230 1032 169 986 121 C 939 72 884 36 821 12 C 758 -11 686 -23 606 -23 C 530 -23 462 -13 404 6 C 346 25 297 53 257 90 C 217 127 187 172 167 226 C 147 279 137 340 137 408 C 137 430 138 457 142 488 C 146 519 150 550 156 582 L 305 1434 L 465 1434 L 315 586 C 309 556 306 526 304 497 C 302 468 301 442 301 420 C 301 324 327 251 380 200 C 433 148 516 123 629 123 C 685 123 735 132 778 151 C 821 169 858 198 890 236 C 921 274 947 321 968 379 C 989 437 1006 504 1020 582 L 1169 1434 L 1329 1434 L 1176 563 Z M 834 1495 L 696 1495 L 965 1822 L 1200 1822 L 834 1495 Z" unicode="Ú" />
<glyph horiz-adv-x="1380" d="M 1176 563 C 1158 463 1134 377 1103 304 C 1071 230 1032 169 986 121 C 939 72 884 36 821 12 C 758 -11 686 -23 606 -23 C 530 -23 462 -13 404 6 C 346 25 297 53 257 90 C 217 127 187 172 167 226 C 147 279 137 340 137 408 C 137 430 138 457 142 488 C 146 519 150 550 156 582 L 305 1434 L 465 1434 L 315 586 C 309 556 306 526 304 497 C 302 468 301 442 301 420 C 301 324 327 251 380 200 C 433 148 516 123 629 123 C 685 123 735 132 778 151 C 821 169 858 198 890 236 C 921 274 947 321 968 379 C 989 437 1006 504 1020 582 L 1169 1434 L 1329 1434 L 1176 563 Z M 1037 1526 L 869 1737 L 623 1526 L 490 1526 L 801 1853 L 973 1853 L 1166 1526 L 1037 1526 Z" unicode="Û" />
<glyph horiz-adv-x="1380" d="M 1176 563 C 1158 463 1134 377 1103 304 C 1071 230 1032 169 986 121 C 939 72 884 36 821 12 C 758 -11 686 -23 606 -23 C 530 -23 462 -13 404 6 C 346 25 297 53 257 90 C 217 127 187 172 167 226 C 147 279 137 340 137 408 C 137 430 138 457 142 488 C 146 519 150 550 156 582 L 305 1434 L 465 1434 L 315 586 C 309 556 306 526 304 497 C 302 468 301 442 301 420 C 301 324 327 251 380 200 C 433 148 516 123 629 123 C 685 123 735 132 778 151 C 821 169 858 198 890 236 C 921 274 947 321 968 379 C 989 437 1006 504 1020 582 L 1169 1434 L 1329 1434 L 1176 563 Z M 1167 1655 C 1167 1639 1164 1625 1158 1611 C 1152 1597 1143 1585 1133 1575 C 1123 1565 1111 1557 1097 1551 C 1083 1545 1069 1542 1054 1542 C 1038 1542 1024 1545 1010 1551 C 996 1557 985 1565 975 1575 C 965 1585 957 1597 951 1611 C 945 1625 942 1639 942 1655 C 942 1670 945 1684 951 1698 C 957 1712 965 1724 975 1735 C 985 1745 996 1754 1010 1760 C 1024 1766 1038 1769 1054 1769 C 1069 1769 1083 1766 1097 1760 C 1111 1754 1123 1745 1133 1735 C 1143 1724 1152 1712 1158 1698 C 1164 1684 1167 1670 1167 1655 Z M 770 1655 C 770 1639 767 1625 761 1611 C 755 1597 746 1585 736 1575 C 726 1565 714 1557 701 1551 C 687 1545 673 1542 659 1542 C 643 1542 628 1545 614 1551 C 600 1557 588 1565 578 1575 C 567 1585 559 1597 553 1611 C 547 1625 544 1639 544 1655 C 544 1670 547 1684 553 1698 C 559 1712 567 1724 578 1735 C 588 1745 600 1754 614 1760 C 628 1766 643 1769 659 1769 C 673 1769 687 1766 701 1760 C 714 1754 726 1745 736 1735 C 746 1724 755 1712 761 1698 C 767 1684 770 1670 770 1655 Z" unicode="Ü" />
<glyph horiz-adv-x="1327" d="M 711 561 L 612 0 L 453 0 L 555 575 L 221 1434 L 397 1434 L 665 724 L 1174 1434 L 1356 1434 L 711 561 Z M 807 1487 L 669 1487 L 938 1814 L 1173 1814 L 807 1487 Z" unicode="Ý" />
<glyph horiz-adv-x="1257" d="M 1171 807 C 1171 721 1156 646 1126 583 C 1096 520 1054 468 1002 427 C 949 385 887 355 816 335 C 744 315 668 305 586 305 L 276 305 L 221 0 L 61 0 L 315 1434 L 475 1434 L 428 1176 L 694 1176 C 760 1176 823 1168 881 1154 C 939 1140 989 1118 1032 1088 C 1075 1058 1109 1019 1134 973 C 1158 927 1171 871 1171 807 Z M 1008 784 C 1008 828 1000 866 985 898 C 970 929 949 954 921 974 C 893 993 859 1007 819 1016 C 779 1025 734 1030 684 1030 L 403 1030 L 301 451 L 604 451 C 736 451 837 480 905 538 C 973 596 1008 678 1008 784 Z" unicode="Þ" />
<glyph horiz-adv-x="1163" d="M 1020 1180 C 1020 1129 1013 1084 1001 1045 C 988 1005 970 971 948 941 C 926 911 900 886 870 865 C 840 844 808 827 774 813 C 808 801 839 785 869 766 C 898 746 923 723 945 697 C 967 671 984 641 996 608 C 1008 574 1014 538 1014 498 C 1014 414 999 341 971 279 C 943 217 903 165 851 124 C 799 82 736 51 663 31 C 589 10 508 0 418 0 C 400 0 385 0 371 0 L 393 135 C 417 135 437 135 455 135 C 583 135 681 166 751 229 C 821 291 856 377 856 485 C 856 565 827 628 769 676 C 711 724 635 748 543 748 L 502 748 L 526 881 L 573 881 C 619 881 660 888 696 902 C 732 916 763 935 788 960 C 812 985 831 1015 844 1049 C 857 1083 864 1120 864 1161 C 864 1221 845 1268 809 1302 C 772 1336 721 1354 657 1354 C 584 1354 525 1332 479 1289 C 433 1245 404 1185 391 1108 L 141 -309 L -27 -395 L 233 1081 C 257 1218 307 1320 382 1387 C 457 1453 554 1487 672 1487 C 724 1487 771 1479 814 1465 C 857 1451 894 1430 924 1404 C 954 1377 978 1345 995 1307 C 1011 1269 1020 1226 1020 1180 Z" unicode="ß" />
<glyph horiz-adv-x="1096" d="M 946 827 C 946 813 945 799 943 785 C 941 770 940 755 938 741 L 807 0 L 655 0 L 676 123 C 637 83 589 49 533 20 C 476 -8 414 -23 348 -23 C 305 -23 264 -17 226 -7 C 188 2 154 19 125 42 C 96 64 73 94 56 130 C 39 166 31 209 31 260 C 31 326 42 385 66 436 C 90 486 122 529 163 563 C 204 597 252 622 307 640 C 362 657 421 666 485 666 C 539 666 589 660 637 648 C 685 636 726 621 760 604 L 782 731 C 784 742 785 754 786 768 C 787 782 788 794 788 805 C 788 860 772 901 741 928 C 709 955 660 969 594 969 C 538 969 486 961 438 947 C 390 932 343 912 295 887 L 248 1008 C 299 1033 355 1054 417 1072 C 479 1089 542 1098 606 1098 C 660 1098 708 1092 750 1082 C 792 1071 827 1054 856 1032 C 885 1010 907 982 923 948 C 938 914 946 873 946 827 Z M 739 481 C 705 499 666 514 622 526 C 578 537 525 543 463 543 C 419 543 380 537 346 525 C 311 513 282 495 258 473 C 234 451 215 424 203 392 C 190 360 184 325 184 285 C 184 225 201 179 236 148 C 270 117 320 102 385 102 C 416 102 446 106 476 114 C 505 122 533 134 560 149 C 586 163 611 180 635 200 C 658 220 680 241 700 264 L 739 481 Z M 626 1219 L 374 1546 L 585 1546 L 739 1219 L 626 1219 Z" unicode="à" />
<glyph horiz-adv-x="1096" d="M 946 827 C 946 813 945 799 943 785 C 941 770 940 755 938 741 L 807 0 L 655 0 L 676 123 C 637 83 589 49 533 20 C 476 -8 414 -23 348 -23 C 305 -23 264 -17 226 -7 C 188 2 154 19 125 42 C 96 64 73 94 56 130 C 39 166 31 209 31 260 C 31 326 42 385 66 436 C 90 486 122 529 163 563 C 204 597 252 622 307 640 C 362 657 421 666 485 666 C 539 666 589 660 637 648 C 685 636 726 621 760 604 L 782 731 C 784 742 785 754 786 768 C 787 782 788 794 788 805 C 788 860 772 901 741 928 C 709 955 660 969 594 969 C 538 969 486 961 438 947 C 390 932 343 912 295 887 L 248 1008 C 299 1033 355 1054 417 1072 C 479 1089 542 1098 606 1098 C 660 1098 708 1092 750 1082 C 792 1071 827 1054 856 1032 C 885 1010 907 982 923 948 C 938 914 946 873 946 827 Z M 739 481 C 705 499 666 514 622 526 C 578 537 525 543 463 543 C 419 543 380 537 346 525 C 311 513 282 495 258 473 C 234 451 215 424 203 392 C 190 360 184 325 184 285 C 184 225 201 179 236 148 C 270 117 320 102 385 102 C 416 102 446 106 476 114 C 505 122 533 134 560 149 C 586 163 611 180 635 200 C 658 220 680 241 700 264 L 739 481 Z M 691 1219 L 553 1219 L 822 1546 L 1057 1546 L 691 1219 Z" unicode="á" />
<glyph horiz-adv-x="1096" d="M 946 827 C 946 813 945 799 943 785 C 941 770 940 755 938 741 L 807 0 L 655 0 L 676 123 C 637 83 589 49 533 20 C 476 -8 414 -23 348 -23 C 305 -23 264 -17 226 -7 C 188 2 154 19 125 42 C 96 64 73 94 56 130 C 39 166 31 209 31 260 C 31 326 42 385 66 436 C 90 486 122 529 163 563 C 204 597 252 622 307 640 C 362 657 421 666 485 666 C 539 666 589 660 637 648 C 685 636 726 621 760 604 L 782 731 C 784 742 785 754 786 768 C 787 782 788 794 788 805 C 788 860 772 901 741 928 C 709 955 660 969 594 969 C 538 969 486 961 438 947 C 390 932 343 912 295 887 L 248 1008 C 299 1033 355 1054 417 1072 C 479 1089 542 1098 606 1098 C 660 1098 708 1092 750 1082 C 792 1071 827 1054 856 1032 C 885 1010 907 982 923 948 C 938 914 946 873 946 827 Z M 739 481 C 705 499 666 514 622 526 C 578 537 525 543 463 543 C 419 543 380 537 346 525 C 311 513 282 495 258 473 C 234 451 215 424 203 392 C 190 360 184 325 184 285 C 184 225 201 179 236 148 C 270 117 320 102 385 102 C 416 102 446 106 476 114 C 505 122 533 134 560 149 C 586 163 611 180 635 200 C 658 220 680 241 700 264 L 739 481 Z M 842 1210 L 674 1421 L 428 1210 L 295 1210 L 606 1537 L 778 1537 L 971 1210 L 842 1210 Z" unicode="â" />
<glyph horiz-adv-x="1096" d="M 946 827 C 946 813 945 799 943 785 C 941 770 940 755 938 741 L 807 0 L 655 0 L 676 123 C 637 83 589 49 533 20 C 476 -8 414 -23 348 -23 C 305 -23 264 -17 226 -7 C 188 2 154 19 125 42 C 96 64 73 94 56 130 C 39 166 31 209 31 260 C 31 326 42 385 66 436 C 90 486 122 529 163 563 C 204 597 252 622 307 640 C 362 657 421 666 485 666 C 539 666 589 660 637 648 C 685 636 726 621 760 604 L 782 731 C 784 742 785 754 786 768 C 787 782 788 794 788 805 C 788 860 772 901 741 928 C 709 955 660 969 594 969 C 538 969 486 961 438 947 C 390 932 343 912 295 887 L 248 1008 C 299 1033 355 1054 417 1072 C 479 1089 542 1098 606 1098 C 660 1098 708 1092 750 1082 C 792 1071 827 1054 856 1032 C 885 1010 907 982 923 948 C 938 914 946 873 946 827 Z M 739 481 C 705 499 666 514 622 526 C 578 537 525 543 463 543 C 419 543 380 537 346 525 C 311 513 282 495 258 473 C 234 451 215 424 203 392 C 190 360 184 325 184 285 C 184 225 201 179 236 148 C 270 117 320 102 385 102 C 416 102 446 106 476 114 C 505 122 533 134 560 149 C 586 163 611 180 635 200 C 658 220 680 241 700 264 L 739 481 Z M 1053 1491 C 1044 1441 1032 1399 1017 1365 C 1002 1331 985 1303 965 1283 C 945 1262 924 1247 900 1238 C 876 1229 850 1225 823 1225 C 779 1225 742 1233 712 1250 C 682 1267 657 1283 639 1298 C 621 1311 600 1326 576 1343 C 552 1359 527 1368 502 1368 C 482 1368 465 1357 449 1337 C 433 1317 418 1281 406 1231 L 279 1231 C 287 1281 299 1323 314 1357 C 328 1391 345 1418 365 1439 C 385 1459 407 1474 431 1483 C 455 1492 480 1497 508 1497 C 551 1497 587 1489 616 1473 C 644 1457 670 1440 692 1423 C 709 1410 730 1395 754 1379 C 778 1362 803 1354 829 1354 C 848 1354 866 1364 882 1384 C 898 1404 912 1439 926 1491 L 1053 1491 Z" unicode="ã" />
<glyph horiz-adv-x="1096" d="M 946 827 C 946 813 945 799 943 785 C 941 770 940 755 938 741 L 807 0 L 655 0 L 676 123 C 637 83 589 49 533 20 C 476 -8 414 -23 348 -23 C 305 -23 264 -17 226 -7 C 188 2 154 19 125 42 C 96 64 73 94 56 130 C 39 166 31 209 31 260 C 31 326 42 385 66 436 C 90 486 122 529 163 563 C 204 597 252 622 307 640 C 362 657 421 666 485 666 C 539 666 589 660 637 648 C 685 636 726 621 760 604 L 782 731 C 784 742 785 754 786 768 C 787 782 788 794 788 805 C 788 860 772 901 741 928 C 709 955 660 969 594 969 C 538 969 486 961 438 947 C 390 932 343 912 295 887 L 248 1008 C 299 1033 355 1054 417 1072 C 479 1089 542 1098 606 1098 C 660 1098 708 1092 750 1082 C 792 1071 827 1054 856 1032 C 885 1010 907 982 923 948 C 938 914 946 873 946 827 Z M 739 481 C 705 499 666 514 622 526 C 578 537 525 543 463 543 C 419 543 380 537 346 525 C 311 513 282 495 258 473 C 234 451 215 424 203 392 C 190 360 184 325 184 285 C 184 225 201 179 236 148 C 270 117 320 102 385 102 C 416 102 446 106 476 114 C 505 122 533 134 560 149 C 586 163 611 180 635 200 C 658 220 680 241 700 264 L 739 481 Z M 977 1339 C 977 1323 974 1309 968 1295 C 962 1281 953 1269 943 1259 C 933 1249 921 1241 907 1235 C 893 1229 879 1226 864 1226 C 848 1226 834 1229 820 1235 C 806 1241 795 1249 785 1259 C 775 1269 767 1281 761 1295 C 755 1309 752 1323 752 1339 C 752 1354 755 1368 761 1382 C 767 1396 775 1408 785 1419 C 795 1429 806 1438 820 1444 C 834 1450 848 1453 864 1453 C 879 1453 893 1450 907 1444 C 921 1438 933 1429 943 1419 C 953 1408 962 1396 968 1382 C 974 1368 977 1354 977 1339 Z M 580 1339 C 580 1323 577 1309 571 1295 C 565 1281 556 1269 546 1259 C 536 1249 524 1241 511 1235 C 497 1229 483 1226 469 1226 C 453 1226 438 1229 424 1235 C 410 1241 398 1249 388 1259 C 377 1269 369 1281 363 1295 C 357 1309 354 1323 354 1339 C 354 1354 357 1368 363 1382 C 369 1396 377 1408 388 1419 C 398 1429 410 1438 424 1444 C 438 1450 453 1453 469 1453 C 483 1453 497 1450 511 1444 C 524 1438 536 1429 546 1419 C 556 1408 565 1396 571 1382 C 577 1368 580 1354 580 1339 Z" unicode="ä" />
<glyph horiz-adv-x="1096" d="M 946 827 C 946 813 945 799 943 785 C 941 770 940 755 938 741 L 807 0 L 655 0 L 676 123 C 637 83 589 49 533 20 C 476 -8 414 -23 348 -23 C 305 -23 264 -17 226 -7 C 188 2 154 19 125 42 C 96 64 73 94 56 130 C 39 166 31 209 31 260 C 31 326 42 385 66 436 C 90 486 122 529 163 563 C 204 597 252 622 307 640 C 362 657 421 666 485 666 C 539 666 589 660 637 648 C 685 636 726 621 760 604 L 782 731 C 784 742 785 754 786 768 C 787 782 788 794 788 805 C 788 860 772 901 741 928 C 709 955 660 969 594 969 C 538 969 486 961 438 947 C 390 932 343 912 295 887 L 248 1008 C 299 1033 355 1054 417 1072 C 479 1089 542 1098 606 1098 C 660 1098 708 1092 750 1082 C 792 1071 827 1054 856 1032 C 885 1010 907 982 923 948 C 938 914 946 873 946 827 Z M 739 481 C 705 499 666 514 622 526 C 578 537 525 543 463 543 C 419 543 380 537 346 525 C 311 513 282 495 258 473 C 234 451 215 424 203 392 C 190 360 184 325 184 285 C 184 225 201 179 236 148 C 270 117 320 102 385 102 C 416 102 446 106 476 114 C 505 122 533 134 560 149 C 586 163 611 180 635 200 C 658 220 680 241 700 264 L 739 481 Z M 915 1466 C 915 1432 909 1401 897 1372 C 885 1343 868 1318 847 1296 C 826 1274 801 1257 772 1245 C 742 1233 710 1227 676 1227 C 640 1227 608 1233 579 1245 C 549 1257 524 1274 503 1296 C 482 1318 466 1343 454 1372 C 442 1401 436 1432 436 1466 C 436 1499 442 1530 454 1559 C 466 1588 482 1613 503 1635 C 524 1656 549 1673 579 1685 C 608 1697 640 1704 676 1704 C 710 1704 742 1697 772 1685 C 801 1673 826 1656 847 1635 C 868 1613 885 1588 897 1559 C 909 1530 915 1499 915 1466 Z M 819 1466 C 819 1486 815 1506 809 1524 C 802 1542 792 1557 780 1570 C 768 1583 753 1593 735 1601 C 717 1608 698 1612 676 1612 C 654 1612 634 1608 616 1601 C 598 1593 583 1583 571 1570 C 558 1557 548 1542 542 1524 C 535 1506 532 1486 532 1466 C 532 1444 535 1425 542 1407 C 548 1389 558 1373 571 1360 C 583 1347 598 1337 616 1330 C 634 1322 654 1319 676 1319 C 698 1319 717 1322 735 1330 C 753 1337 768 1347 780 1360 C 792 1373 802 1389 809 1407 C 815 1425 819 1444 819 1466 Z" unicode="å" />
<glyph horiz-adv-x="1708" d="M 1587 668 C 1587 632 1585 598 1581 566 C 1577 534 1573 507 1567 485 L 866 485 C 862 429 864 378 874 332 C 883 286 899 247 922 214 C 945 181 975 156 1011 138 C 1047 120 1089 111 1139 111 C 1179 111 1220 117 1262 131 C 1304 145 1350 167 1401 197 L 1458 80 C 1395 43 1337 17 1285 1 C 1232 -15 1176 -23 1118 -23 C 1045 -23 980 -6 922 25 C 864 57 817 104 782 164 C 720 105 655 59 585 26 C 515 -6 436 -23 348 -23 C 300 -23 257 -17 219 -5 C 180 7 147 25 119 49 C 91 73 69 103 54 139 C 38 175 31 218 31 268 C 31 332 42 389 66 439 C 90 488 122 529 163 563 C 204 597 252 622 307 640 C 362 657 421 666 485 666 C 539 666 586 660 627 648 C 667 636 705 621 739 604 L 762 731 C 764 742 765 754 766 768 C 767 782 768 794 768 805 C 768 860 753 901 723 928 C 693 955 650 969 594 969 C 538 969 486 961 438 947 C 390 932 343 912 295 887 L 248 1008 C 299 1033 355 1054 415 1072 C 475 1089 539 1098 606 1098 C 683 1098 746 1085 794 1059 C 842 1033 875 992 893 936 C 935 985 982 1024 1035 1054 C 1088 1083 1147 1098 1212 1098 C 1272 1098 1326 1087 1373 1066 C 1419 1045 1458 1016 1490 978 C 1522 940 1546 894 1562 842 C 1578 789 1587 731 1587 668 Z M 1438 610 C 1442 662 1440 709 1433 753 C 1425 796 1412 833 1392 865 C 1372 896 1347 920 1315 938 C 1283 956 1244 965 1200 965 C 1158 965 1119 956 1085 938 C 1051 920 1020 895 994 863 C 967 831 945 794 927 751 C 909 707 895 660 885 610 L 1438 610 Z M 737 283 C 731 304 727 325 725 347 C 722 369 721 394 721 422 L 721 481 C 681 503 641 518 601 528 C 561 538 515 543 463 543 C 419 543 380 537 346 525 C 311 513 282 495 258 473 C 234 451 215 424 203 392 C 190 360 184 325 184 285 C 184 225 201 179 236 148 C 270 117 320 102 385 102 C 441 102 500 117 561 148 C 621 179 680 224 737 283 Z" unicode="æ" />
<glyph horiz-adv-x="1006" d="M 840 844 C 810 878 776 907 736 930 C 696 953 649 965 594 965 C 541 965 493 951 450 925 C 406 899 369 862 339 816 C 308 769 284 714 267 650 C 250 586 242 516 242 440 C 242 332 266 250 314 194 C 362 138 430 111 520 111 C 566 111 608 120 645 139 C 682 158 717 183 750 213 L 827 113 C 775 66 724 32 673 10 C 621 -12 564 -23 502 -23 C 438 -23 381 -12 330 8 C 279 28 235 58 199 97 C 163 136 135 184 115 241 C 95 298 86 363 86 436 C 86 538 100 630 128 712 C 156 794 194 863 242 920 C 289 977 344 1021 406 1052 C 468 1082 534 1098 602 1098 C 645 1098 684 1094 718 1086 C 752 1078 783 1068 811 1055 C 838 1041 862 1026 884 1008 C 906 990 926 972 946 952 L 840 844 Z M 645 -205 C 645 -237 638 -266 626 -290 C 613 -314 596 -333 574 -349 C 552 -364 526 -375 497 -383 C 468 -391 437 -395 405 -395 C 349 -395 301 -387 260 -373 C 218 -358 178 -336 139 -307 L 190 -246 C 218 -267 248 -283 280 -294 C 311 -305 349 -311 393 -311 C 432 -311 463 -304 487 -290 C 510 -276 522 -254 522 -225 C 522 -205 517 -190 507 -178 C 497 -166 482 -160 461 -160 C 441 -160 424 -162 409 -168 C 394 -173 379 -181 364 -193 L 297 -164 L 377 0 L 469 0 L 416 -104 C 430 -96 444 -91 460 -87 C 476 -83 494 -82 516 -82 C 552 -82 582 -92 607 -112 C 632 -132 645 -163 645 -205 Z" unicode="ç" />
<glyph horiz-adv-x="1098" d="M 977 668 C 977 632 975 598 971 566 C 967 534 962 507 956 485 L 240 485 C 236 427 238 376 248 330 C 257 284 273 244 297 212 C 321 179 351 154 388 137 C 425 119 469 111 520 111 C 569 111 615 118 659 134 C 702 149 746 170 791 197 L 848 80 C 788 44 731 18 675 2 C 619 -14 559 -23 496 -23 C 436 -23 381 -13 331 6 C 281 26 237 54 201 92 C 165 130 136 176 116 232 C 96 287 86 350 86 422 C 86 524 99 616 125 699 C 151 782 186 853 232 912 C 277 971 330 1017 392 1049 C 453 1081 519 1098 590 1098 C 652 1098 708 1087 756 1067 C 804 1046 844 1017 877 979 C 909 941 934 896 951 844 C 968 791 977 732 977 668 Z M 827 610 C 831 662 829 709 822 753 C 814 797 801 834 781 866 C 761 897 734 921 701 939 C 668 956 628 965 582 965 C 538 965 499 956 464 939 C 428 921 397 897 370 866 C 343 834 320 797 301 753 C 282 709 268 662 258 610 L 827 610 Z M 626 1219 L 374 1546 L 585 1546 L 739 1219 L 626 1219 Z" unicode="è" />
<glyph horiz-adv-x="1098" d="M 977 668 C 977 632 975 598 971 566 C 967 534 962 507 956 485 L 240 485 C 236 427 238 376 248 330 C 257 284 273 244 297 212 C 321 179 351 154 388 137 C 425 119 469 111 520 111 C 569 111 615 118 659 134 C 702 149 746 170 791 197 L 848 80 C 788 44 731 18 675 2 C 619 -14 559 -23 496 -23 C 436 -23 381 -13 331 6 C 281 26 237 54 201 92 C 165 130 136 176 116 232 C 96 287 86 350 86 422 C 86 524 99 616 125 699 C 151 782 186 853 232 912 C 277 971 330 1017 392 1049 C 453 1081 519 1098 590 1098 C 652 1098 708 1087 756 1067 C 804 1046 844 1017 877 979 C 909 941 934 896 951 844 C 968 791 977 732 977 668 Z M 827 610 C 831 662 829 709 822 753 C 814 797 801 834 781 866 C 761 897 734 921 701 939 C 668 956 628 965 582 965 C 538 965 499 956 464 939 C 428 921 397 897 370 866 C 343 834 320 797 301 753 C 282 709 268 662 258 610 L 827 610 Z M 691 1219 L 553 1219 L 822 1546 L 1057 1546 L 691 1219 Z" unicode="é" />
<glyph horiz-adv-x="1098" d="M 977 668 C 977 632 975 598 971 566 C 967 534 962 507 956 485 L 240 485 C 236 427 238 376 248 330 C 257 284 273 244 297 212 C 321 179 351 154 388 137 C 425 119 469 111 520 111 C 569 111 615 118 659 134 C 702 149 746 170 791 197 L 848 80 C 788 44 731 18 675 2 C 619 -14 559 -23 496 -23 C 436 -23 381 -13 331 6 C 281 26 237 54 201 92 C 165 130 136 176 116 232 C 96 287 86 350 86 422 C 86 524 99 616 125 699 C 151 782 186 853 232 912 C 277 971 330 1017 392 1049 C 453 1081 519 1098 590 1098 C 652 1098 708 1087 756 1067 C 804 1046 844 1017 877 979 C 909 941 934 896 951 844 C 968 791 977 732 977 668 Z M 827 610 C 831 662 829 709 822 753 C 814 797 801 834 781 866 C 761 897 734 921 701 939 C 668 956 628 965 582 965 C 538 965 499 956 464 939 C 428 921 397 897 370 866 C 343 834 320 797 301 753 C 282 709 268 662 258 610 L 827 610 Z M 842 1200 L 674 1411 L 428 1200 L 295 1200 L 606 1527 L 778 1527 L 971 1200 L 842 1200 Z" unicode="ê" />
<glyph horiz-adv-x="1098" d="M 977 668 C 977 632 975 598 971 566 C 967 534 962 507 956 485 L 240 485 C 236 427 238 376 248 330 C 257 284 273 244 297 212 C 321 179 351 154 388 137 C 425 119 469 111 520 111 C 569 111 615 118 659 134 C 702 149 746 170 791 197 L 848 80 C 788 44 731 18 675 2 C 619 -14 559 -23 496 -23 C 436 -23 381 -13 331 6 C 281 26 237 54 201 92 C 165 130 136 176 116 232 C 96 287 86 350 86 422 C 86 524 99 616 125 699 C 151 782 186 853 232 912 C 277 971 330 1017 392 1049 C 453 1081 519 1098 590 1098 C 652 1098 708 1087 756 1067 C 804 1046 844 1017 877 979 C 909 941 934 896 951 844 C 968 791 977 732 977 668 Z M 827 610 C 831 662 829 709 822 753 C 814 797 801 834 781 866 C 761 897 734 921 701 939 C 668 956 628 965 582 965 C 538 965 499 956 464 939 C 428 921 397 897 370 866 C 343 834 320 797 301 753 C 282 709 268 662 258 610 L 827 610 Z M 979 1339 C 979 1323 976 1309 970 1295 C 964 1281 955 1269 945 1259 C 935 1249 923 1241 909 1235 C 895 1229 881 1226 866 1226 C 850 1226 836 1229 822 1235 C 808 1241 797 1249 787 1259 C 777 1269 769 1281 763 1295 C 757 1309 754 1323 754 1339 C 754 1354 757 1368 763 1382 C 769 1396 777 1408 787 1419 C 797 1429 808 1438 822 1444 C 836 1450 850 1453 866 1453 C 881 1453 895 1450 909 1444 C 923 1438 935 1429 945 1419 C 955 1408 964 1396 970 1382 C 976 1368 979 1354 979 1339 Z M 582 1339 C 582 1323 579 1309 573 1295 C 567 1281 558 1269 548 1259 C 538 1249 526 1241 513 1235 C 499 1229 485 1226 471 1226 C 455 1226 440 1229 426 1235 C 412 1241 400 1249 390 1259 C 379 1269 371 1281 365 1295 C 359 1309 356 1323 356 1339 C 356 1354 359 1368 365 1382 C 371 1396 379 1408 390 1419 C 400 1429 412 1438 426 1444 C 440 1450 455 1453 471 1453 C 485 1453 499 1450 513 1444 C 526 1438 538 1429 548 1419 C 558 1408 567 1396 573 1382 C 579 1368 582 1354 582 1339 Z" unicode="ë" />
<glyph horiz-adv-x="514" d="M 207 0 L 53 0 L 244 1075 L 397 1075 L 207 0 Z M 296 1219 L 44 1546 L 255 1546 L 409 1219 L 296 1219 Z" unicode="ì" />
<glyph horiz-adv-x="514" d="M 207 0 L 53 0 L 244 1075 L 397 1075 L 207 0 Z M 417 1219 L 279 1219 L 548 1546 L 783 1546 L 417 1219 Z" unicode="í" />
<glyph horiz-adv-x="514" d="M 207 0 L 53 0 L 244 1075 L 397 1075 L 207 0 Z M 544 1189 L 376 1400 L 130 1189 L -3 1189 L 308 1516 L 480 1516 L 673 1189 L 544 1189 Z" unicode="î" />
<glyph horiz-adv-x="514" d="M 207 0 L 53 0 L 244 1075 L 397 1075 L 207 0 Z M 681 1329 C 681 1313 678 1299 672 1285 C 666 1271 657 1259 647 1249 C 637 1239 625 1231 611 1225 C 597 1219 583 1216 568 1216 C 552 1216 538 1219 524 1225 C 510 1231 499 1239 489 1249 C 479 1259 471 1271 465 1285 C 459 1299 456 1313 456 1329 C 456 1344 459 1358 465 1372 C 471 1386 479 1398 489 1409 C 499 1419 510 1428 524 1434 C 538 1440 552 1443 568 1443 C 583 1443 597 1440 611 1434 C 625 1428 637 1419 647 1409 C 657 1398 666 1386 672 1372 C 678 1358 681 1344 681 1329 Z M 284 1329 C 284 1313 281 1299 275 1285 C 269 1271 260 1259 250 1249 C 240 1239 228 1231 215 1225 C 201 1219 187 1216 173 1216 C 157 1216 142 1219 128 1225 C 114 1231 102 1239 92 1249 C 81 1259 73 1271 67 1285 C 61 1299 58 1313 58 1329 C 58 1344 61 1358 67 1372 C 73 1386 81 1398 92 1409 C 102 1419 114 1428 128 1434 C 142 1440 157 1443 173 1443 C 187 1443 201 1440 215 1434 C 228 1428 240 1419 250 1409 C 260 1398 269 1386 275 1372 C 281 1358 284 1344 284 1329 Z" unicode="ï" />
<glyph horiz-adv-x="1151" d="M 1034 793 C 1034 694 1026 605 1012 527 C 997 449 977 379 951 319 C 925 259 895 207 861 164 C 826 120 789 85 749 57 C 709 29 667 9 623 -3 C 579 -16 535 -23 492 -23 C 430 -23 373 -13 322 6 C 271 26 227 54 191 90 C 154 126 126 169 106 221 C 86 272 76 329 76 393 C 76 485 90 567 118 641 C 146 715 184 777 231 828 C 278 879 332 918 392 946 C 452 973 515 987 580 987 C 658 987 724 970 777 938 C 830 906 873 861 905 805 C 903 899 889 980 863 1046 C 837 1112 802 1166 756 1208 L 614 1077 L 526 1165 L 647 1278 C 593 1299 538 1313 483 1321 L 508 1456 C 600 1448 683 1423 758 1382 L 838 1456 L 926 1368 L 858 1305 C 914 1251 957 1181 988 1097 C 1018 1012 1034 911 1034 793 Z M 840 571 C 840 617 833 658 821 694 C 808 729 790 758 766 782 C 742 806 714 824 680 836 C 646 848 607 854 565 854 C 519 854 476 843 436 821 C 395 799 359 769 329 729 C 299 689 275 640 257 584 C 239 528 231 465 231 397 C 231 303 255 232 304 184 C 353 135 420 111 506 111 C 552 111 596 122 637 144 C 677 166 713 197 743 237 C 773 277 796 326 814 382 C 831 438 840 501 840 571 Z" unicode="ð" />
<glyph horiz-adv-x="1153" d="M 989 764 C 989 744 988 723 986 701 C 984 678 981 656 977 635 L 862 0 L 709 0 L 819 618 C 822 637 824 657 826 678 C 828 698 829 717 829 735 C 829 811 812 869 779 909 C 746 949 693 969 621 969 C 583 969 548 960 514 944 C 480 928 450 904 423 874 C 395 844 371 806 351 761 C 330 716 315 665 305 608 L 197 0 L 43 0 L 233 1075 L 385 1075 L 367 954 C 405 998 448 1033 496 1059 C 544 1085 599 1098 662 1098 C 764 1098 844 1068 902 1008 C 960 948 989 867 989 764 Z M 1073 1491 C 1064 1441 1052 1399 1037 1365 C 1022 1331 1005 1303 985 1283 C 965 1262 944 1247 920 1238 C 896 1229 870 1225 843 1225 C 799 1225 762 1233 732 1250 C 702 1267 677 1283 659 1298 C 641 1311 620 1326 596 1343 C 572 1359 547 1368 522 1368 C 502 1368 485 1357 469 1337 C 453 1317 438 1281 426 1231 L 299 1231 C 307 1281 319 1323 334 1357 C 348 1391 365 1418 385 1439 C 405 1459 427 1474 451 1483 C 475 1492 500 1497 528 1497 C 571 1497 607 1489 636 1473 C 664 1457 690 1440 712 1423 C 729 1410 750 1395 774 1379 C 798 1362 823 1354 849 1354 C 868 1354 886 1364 902 1384 C 918 1404 932 1439 946 1491 L 1073 1491 Z" unicode="ñ" />
<glyph horiz-adv-x="1151" d="M 86 436 C 86 538 100 630 128 712 C 156 794 194 863 242 920 C 289 977 344 1021 406 1052 C 468 1082 534 1098 602 1098 C 666 1098 725 1087 778 1066 C 831 1044 876 1014 913 974 C 950 934 979 886 999 830 C 1019 773 1030 709 1030 639 C 1030 536 1015 444 987 362 C 959 280 921 211 874 154 C 826 97 771 53 709 23 C 647 -7 582 -23 514 -23 C 448 -23 389 -12 337 9 C 284 30 239 60 202 100 C 165 140 136 188 116 245 C 96 301 86 365 86 436 Z M 242 440 C 242 386 248 339 261 298 C 274 257 293 222 319 194 C 345 165 376 144 412 131 C 448 117 486 111 528 111 C 578 111 625 124 667 150 C 709 176 746 212 777 258 C 807 304 831 360 848 424 C 865 488 874 559 874 635 C 874 681 868 725 857 766 C 845 807 827 843 802 873 C 777 903 746 926 710 942 C 673 957 632 965 588 965 C 537 965 490 952 448 926 C 406 900 369 863 339 817 C 308 770 284 714 267 650 C 250 586 242 516 242 440 Z M 641 1219 L 389 1546 L 600 1546 L 754 1219 L 641 1219 Z" unicode="ò" />
<glyph horiz-adv-x="1151" d="M 86 436 C 86 538 100 630 128 712 C 156 794 194 863 242 920 C 289 977 344 1021 406 1052 C 468 1082 534 1098 602 1098 C 666 1098 725 1087 778 1066 C 831 1044 876 1014 913 974 C 950 934 979 886 999 830 C 1019 773 1030 709 1030 639 C 1030 536 1015 444 987 362 C 959 280 921 211 874 154 C 826 97 771 53 709 23 C 647 -7 582 -23 514 -23 C 448 -23 389 -12 337 9 C 284 30 239 60 202 100 C 165 140 136 188 116 245 C 96 301 86 365 86 436 Z M 242 440 C 242 386 248 339 261 298 C 274 257 293 222 319 194 C 345 165 376 144 412 131 C 448 117 486 111 528 111 C 578 111 625 124 667 150 C 709 176 746 212 777 258 C 807 304 831 360 848 424 C 865 488 874 559 874 635 C 874 681 868 725 857 766 C 845 807 827 843 802 873 C 777 903 746 926 710 942 C 673 957 632 965 588 965 C 537 965 490 952 448 926 C 406 900 369 863 339 817 C 308 770 284 714 267 650 C 250 586 242 516 242 440 Z M 707 1219 L 569 1219 L 838 1546 L 1073 1546 L 707 1219 Z" unicode="ó" />
<glyph horiz-adv-x="1151" d="M 86 436 C 86 538 100 630 128 712 C 156 794 194 863 242 920 C 289 977 344 1021 406 1052 C 468 1082 534 1098 602 1098 C 666 1098 725 1087 778 1066 C 831 1044 876 1014 913 974 C 950 934 979 886 999 830 C 1019 773 1030 709 1030 639 C 1030 536 1015 444 987 362 C 959 280 921 211 874 154 C 826 97 771 53 709 23 C 647 -7 582 -23 514 -23 C 448 -23 389 -12 337 9 C 284 30 239 60 202 100 C 165 140 136 188 116 245 C 96 301 86 365 86 436 Z M 242 440 C 242 386 248 339 261 298 C 274 257 293 222 319 194 C 345 165 376 144 412 131 C 448 117 486 111 528 111 C 578 111 625 124 667 150 C 709 176 746 212 777 258 C 807 304 831 360 848 424 C 865 488 874 559 874 635 C 874 681 868 725 857 766 C 845 807 827 843 802 873 C 777 903 746 926 710 942 C 673 957 632 965 588 965 C 537 965 490 952 448 926 C 406 900 369 863 339 817 C 308 770 284 714 267 650 C 250 586 242 516 242 440 Z M 865 1200 L 697 1411 L 451 1200 L 318 1200 L 629 1527 L 801 1527 L 994 1200 L 865 1200 Z" unicode="ô" />
<glyph horiz-adv-x="1151" d="M 86 436 C 86 538 100 630 128 712 C 156 794 194 863 242 920 C 289 977 344 1021 406 1052 C 468 1082 534 1098 602 1098 C 666 1098 725 1087 778 1066 C 831 1044 876 1014 913 974 C 950 934 979 886 999 830 C 1019 773 1030 709 1030 639 C 1030 536 1015 444 987 362 C 959 280 921 211 874 154 C 826 97 771 53 709 23 C 647 -7 582 -23 514 -23 C 448 -23 389 -12 337 9 C 284 30 239 60 202 100 C 165 140 136 188 116 245 C 96 301 86 365 86 436 Z M 242 440 C 242 386 248 339 261 298 C 274 257 293 222 319 194 C 345 165 376 144 412 131 C 448 117 486 111 528 111 C 578 111 625 124 667 150 C 709 176 746 212 777 258 C 807 304 831 360 848 424 C 865 488 874 559 874 635 C 874 681 868 725 857 766 C 845 807 827 843 802 873 C 777 903 746 926 710 942 C 673 957 632 965 588 965 C 537 965 490 952 448 926 C 406 900 369 863 339 817 C 308 770 284 714 267 650 C 250 586 242 516 242 440 Z M 1078 1491 C 1069 1441 1057 1399 1042 1365 C 1027 1331 1010 1303 990 1283 C 970 1262 949 1247 925 1238 C 901 1229 875 1225 848 1225 C 804 1225 767 1233 737 1250 C 707 1267 682 1283 664 1298 C 646 1311 625 1326 601 1343 C 577 1359 552 1368 527 1368 C 507 1368 490 1357 474 1337 C 458 1317 443 1281 431 1231 L 304 1231 C 312 1281 324 1323 339 1357 C 353 1391 370 1418 390 1439 C 410 1459 432 1474 456 1483 C 480 1492 505 1497 533 1497 C 576 1497 612 1489 641 1473 C 669 1457 695 1440 717 1423 C 734 1410 755 1395 779 1379 C 803 1362 828 1354 854 1354 C 873 1354 891 1364 907 1384 C 923 1404 937 1439 951 1491 L 1078 1491 Z" unicode="õ" />
<glyph horiz-adv-x="1151" d="M 86 436 C 86 538 100 630 128 712 C 156 794 194 863 242 920 C 289 977 344 1021 406 1052 C 468 1082 534 1098 602 1098 C 666 1098 725 1087 778 1066 C 831 1044 876 1014 913 974 C 950 934 979 886 999 830 C 1019 773 1030 709 1030 639 C 1030 536 1015 444 987 362 C 959 280 921 211 874 154 C 826 97 771 53 709 23 C 647 -7 582 -23 514 -23 C 448 -23 389 -12 337 9 C 284 30 239 60 202 100 C 165 140 136 188 116 245 C 96 301 86 365 86 436 Z M 242 440 C 242 386 248 339 261 298 C 274 257 293 222 319 194 C 345 165 376 144 412 131 C 448 117 486 111 528 111 C 578 111 625 124 667 150 C 709 176 746 212 777 258 C 807 304 831 360 848 424 C 865 488 874 559 874 635 C 874 681 868 725 857 766 C 845 807 827 843 802 873 C 777 903 746 926 710 942 C 673 957 632 965 588 965 C 537 965 490 952 448 926 C 406 900 369 863 339 817 C 308 770 284 714 267 650 C 250 586 242 516 242 440 Z M 1002 1329 C 1002 1313 999 1299 993 1285 C 987 1271 978 1259 968 1249 C 958 1239 946 1231 932 1225 C 918 1219 904 1216 889 1216 C 873 1216 859 1219 845 1225 C 831 1231 820 1239 810 1249 C 800 1259 792 1271 786 1285 C 780 1299 777 1313 777 1329 C 777 1344 780 1358 786 1372 C 792 1386 800 1398 810 1409 C 820 1419 831 1428 845 1434 C 859 1440 873 1443 889 1443 C 904 1443 918 1440 932 1434 C 946 1428 958 1419 968 1409 C 978 1398 987 1386 993 1372 C 999 1358 1002 1344 1002 1329 Z M 605 1329 C 605 1313 602 1299 596 1285 C 590 1271 581 1259 571 1249 C 561 1239 549 1231 536 1225 C 522 1219 508 1216 494 1216 C 478 1216 463 1219 449 1225 C 435 1231 423 1239 413 1249 C 402 1259 394 1271 388 1285 C 382 1299 379 1313 379 1329 C 379 1344 382 1358 388 1372 C 394 1386 402 1398 413 1409 C 423 1419 435 1428 449 1434 C 463 1440 478 1443 494 1443 C 508 1443 522 1440 536 1434 C 549 1428 561 1419 571 1409 C 581 1398 590 1386 596 1372 C 602 1358 605 1344 605 1329 Z" unicode="ö" />
<glyph horiz-adv-x="1270" d="M 788 1124 C 788 1106 784 1088 777 1072 C 770 1056 760 1042 748 1030 C 736 1018 722 1008 706 1001 C 690 994 673 991 655 991 C 636 991 619 994 603 1001 C 587 1008 573 1018 561 1030 C 549 1042 539 1056 532 1072 C 525 1088 522 1106 522 1124 C 522 1142 525 1160 532 1177 C 539 1193 549 1208 561 1221 C 573 1233 587 1243 603 1251 C 619 1258 636 1262 655 1262 C 673 1262 690 1258 706 1251 C 722 1243 736 1233 748 1221 C 760 1208 770 1193 777 1177 C 784 1160 788 1142 788 1124 Z M 157 635 L 157 774 L 1153 774 L 1153 635 L 157 635 Z M 788 281 C 788 262 784 244 777 228 C 770 212 760 198 748 186 C 736 174 722 164 706 157 C 690 150 673 147 655 147 C 636 147 619 150 603 157 C 587 164 573 174 561 186 C 549 198 539 212 532 228 C 525 244 522 262 522 281 C 522 299 525 316 532 333 C 539 349 549 364 561 377 C 573 389 587 399 603 407 C 619 414 636 418 655 418 C 673 418 690 414 706 407 C 722 399 736 389 748 377 C 760 364 770 349 777 333 C 784 316 788 299 788 281 Z" unicode="÷" />
<glyph horiz-adv-x="1151" d="M 207 96 C 167 136 137 184 117 242 C 96 299 86 364 86 436 C 86 538 100 630 128 712 C 156 794 194 863 242 920 C 289 977 344 1021 406 1052 C 468 1082 534 1098 602 1098 C 644 1098 683 1093 721 1084 C 758 1074 792 1061 823 1044 L 911 1178 L 1047 1178 L 913 975 C 951 935 980 886 1000 830 C 1020 773 1030 709 1030 639 C 1030 536 1015 444 987 362 C 959 280 921 211 874 154 C 826 97 771 53 709 23 C 647 -7 582 -23 514 -23 C 472 -23 433 -18 397 -9 C 361 0 327 12 297 29 L 211 -102 L 76 -102 L 207 96 Z M 748 928 C 726 941 702 951 676 958 C 649 965 620 969 588 969 C 536 969 489 955 447 929 C 404 903 367 866 336 820 C 305 773 281 717 264 652 C 246 587 238 516 238 440 C 238 353 255 281 291 225 L 748 928 Z M 373 145 C 419 119 470 106 528 106 C 579 106 626 119 669 145 C 712 171 749 208 780 255 C 811 302 835 358 853 423 C 870 487 879 558 879 635 C 879 717 862 786 829 844 L 373 145 Z" unicode="ø" />
<glyph horiz-adv-x="1153" d="M 100 311 C 100 330 101 351 103 374 C 105 396 108 418 113 440 L 227 1075 L 381 1075 L 270 457 C 266 437 264 417 262 397 C 260 376 260 357 260 340 C 260 263 276 205 310 165 C 343 125 396 106 469 106 C 505 106 541 114 575 131 C 609 147 640 171 667 201 C 694 231 718 269 738 314 C 758 358 774 409 784 467 L 893 1075 L 1047 1075 L 856 0 L 705 0 L 723 121 C 686 77 644 42 596 16 C 548 -10 492 -23 428 -23 C 327 -23 247 6 188 65 C 129 123 100 205 100 311 Z M 624 1219 L 372 1546 L 583 1546 L 737 1219 L 624 1219 Z" unicode="ù" />
<glyph horiz-adv-x="1153" d="M 100 311 C 100 330 101 351 103 374 C 105 396 108 418 113 440 L 227 1075 L 381 1075 L 270 457 C 266 437 264 417 262 397 C 260 376 260 357 260 340 C 260 263 276 205 310 165 C 343 125 396 106 469 106 C 505 106 541 114 575 131 C 609 147 640 171 667 201 C 694 231 718 269 738 314 C 758 358 774 409 784 467 L 893 1075 L 1047 1075 L 856 0 L 705 0 L 723 121 C 686 77 644 42 596 16 C 548 -10 492 -23 428 -23 C 327 -23 247 6 188 65 C 129 123 100 205 100 311 Z M 719 1219 L 581 1219 L 850 1546 L 1085 1546 L 719 1219 Z" unicode="ú" />
<glyph horiz-adv-x="1153" d="M 100 311 C 100 330 101 351 103 374 C 105 396 108 418 113 440 L 227 1075 L 381 1075 L 270 457 C 266 437 264 417 262 397 C 260 376 260 357 260 340 C 260 263 276 205 310 165 C 343 125 396 106 469 106 C 505 106 541 114 575 131 C 609 147 640 171 667 201 C 694 231 718 269 738 314 C 758 358 774 409 784 467 L 893 1075 L 1047 1075 L 856 0 L 705 0 L 723 121 C 686 77 644 42 596 16 C 548 -10 492 -23 428 -23 C 327 -23 247 6 188 65 C 129 123 100 205 100 311 Z M 867 1219 L 699 1430 L 453 1219 L 320 1219 L 631 1546 L 803 1546 L 996 1219 L 867 1219 Z" unicode="û" />
<glyph horiz-adv-x="1153" d="M 100 311 C 100 330 101 351 103 374 C 105 396 108 418 113 440 L 227 1075 L 381 1075 L 270 457 C 266 437 264 417 262 397 C 260 376 260 357 260 340 C 260 263 276 205 310 165 C 343 125 396 106 469 106 C 505 106 541 114 575 131 C 609 147 640 171 667 201 C 694 231 718 269 738 314 C 758 358 774 409 784 467 L 893 1075 L 1047 1075 L 856 0 L 705 0 L 723 121 C 686 77 644 42 596 16 C 548 -10 492 -23 428 -23 C 327 -23 247 6 188 65 C 129 123 100 205 100 311 Z M 1004 1348 C 1004 1332 1001 1318 995 1304 C 989 1290 980 1278 970 1268 C 960 1258 948 1250 934 1244 C 920 1238 906 1235 891 1235 C 875 1235 861 1238 847 1244 C 833 1250 822 1258 812 1268 C 802 1278 794 1290 788 1304 C 782 1318 779 1332 779 1348 C 779 1363 782 1377 788 1391 C 794 1405 802 1417 812 1428 C 822 1438 833 1447 847 1453 C 861 1459 875 1462 891 1462 C 906 1462 920 1459 934 1453 C 948 1447 960 1438 970 1428 C 980 1417 989 1405 995 1391 C 1001 1377 1004 1363 1004 1348 Z M 607 1348 C 607 1332 604 1318 598 1304 C 592 1290 583 1278 573 1268 C 563 1258 551 1250 538 1244 C 524 1238 510 1235 496 1235 C 480 1235 465 1238 451 1244 C 437 1250 425 1258 415 1268 C 404 1278 396 1290 390 1304 C 384 1318 381 1332 381 1348 C 381 1363 384 1377 390 1391 C 396 1405 404 1417 415 1428 C 425 1438 437 1447 451 1453 C 465 1459 480 1462 496 1462 C 510 1462 524 1459 538 1453 C 551 1447 563 1438 573 1428 C 583 1417 592 1405 598 1391 C 604 1377 607 1363 607 1348 Z" unicode="ü" />
<glyph horiz-adv-x="1079" d="M 279 -379 L 125 -379 L 338 12 L 145 1075 L 303 1075 L 442 184 L 895 1075 L 1061 1075 L 279 -379 Z M 645 1200 L 507 1200 L 776 1527 L 1011 1527 L 645 1200 Z" unicode="ý" />
<glyph horiz-adv-x="1137" d="M 1008 668 C 1008 558 995 460 969 374 C 943 288 909 216 865 157 C 821 98 769 53 710 23 C 651 -7 588 -23 522 -23 C 485 -23 452 -18 423 -10 C 393 -2 367 9 343 24 C 319 38 297 56 277 76 C 257 96 238 119 221 143 L 141 -309 L -29 -395 L 293 1407 L 463 1493 L 367 963 C 413 1008 459 1042 505 1064 C 551 1086 602 1098 659 1098 C 707 1098 752 1089 794 1071 C 836 1053 873 1027 905 991 C 937 955 962 911 980 857 C 998 803 1008 740 1008 668 Z M 854 651 C 854 752 833 830 792 884 C 750 938 690 965 612 965 C 586 965 562 961 540 955 C 517 949 495 940 474 928 C 452 916 431 901 409 883 C 387 865 365 845 342 823 L 248 295 C 261 268 276 243 294 221 C 311 198 331 178 354 162 C 376 146 402 133 430 124 C 458 115 490 111 526 111 C 573 111 617 122 657 146 C 697 169 731 203 761 249 C 790 295 813 351 829 419 C 845 486 854 563 854 651 Z" unicode="þ" />
<glyph horiz-adv-x="1079" d="M 279 -379 L 125 -379 L 338 12 L 145 1075 L 303 1075 L 442 184 L 895 1075 L 1061 1075 L 279 -379 Z M 950 1329 C 950 1313 947 1299 941 1285 C 935 1271 926 1259 916 1249 C 906 1239 894 1231 880 1225 C 866 1219 852 1216 837 1216 C 821 1216 807 1219 793 1225 C 779 1231 768 1239 758 1249 C 748 1259 740 1271 734 1285 C 728 1299 725 1313 725 1329 C 725 1344 728 1358 734 1372 C 740 1386 748 1398 758 1409 C 768 1419 779 1428 793 1434 C 807 1440 821 1443 837 1443 C 852 1443 866 1440 880 1434 C 894 1428 906 1419 916 1409 C 926 1398 935 1386 941 1372 C 947 1358 950 1344 950 1329 Z M 553 1329 C 553 1313 550 1299 544 1285 C 538 1271 529 1259 519 1249 C 509 1239 497 1231 484 1225 C 470 1219 456 1216 442 1216 C 426 1216 411 1219 397 1225 C 383 1231 371 1239 361 1249 C 350 1259 342 1271 336 1285 C 330 1299 327 1313 327 1329 C 327 1344 330 1358 336 1372 C 342 1386 350 1398 361 1409 C 371 1419 383 1428 397 1434 C 411 1440 426 1443 442 1443 C 456 1443 470 1440 484 1434 C 497 1428 509 1419 519 1409 C 529 1398 538 1386 544 1372 C 550 1358 553 1344 553 1329 Z" unicode="ÿ" />
<glyph horiz-adv-x="1380" d="M 983 0 L 926 365 L 338 365 L 152 0 L -16 0 L 731 1434 L 907 1434 L 1147 0 L 983 0 Z M 790 1245 L 412 510 L 903 510 L 790 1245 Z M 1100 1573 L 543 1573 L 567 1716 L 1124 1716 L 1100 1573 Z" unicode="Ā" />
<glyph horiz-adv-x="1096" d="M 946 827 C 946 813 945 799 943 785 C 941 770 940 755 938 741 L 807 0 L 655 0 L 676 123 C 637 83 589 49 533 20 C 476 -8 414 -23 348 -23 C 305 -23 264 -17 226 -7 C 188 2 154 19 125 42 C 96 64 73 94 56 130 C 39 166 31 209 31 260 C 31 326 42 385 66 436 C 90 486 122 529 163 563 C 204 597 252 622 307 640 C 362 657 421 666 485 666 C 539 666 589 660 637 648 C 685 636 726 621 760 604 L 782 731 C 784 742 785 754 786 768 C 787 782 788 794 788 805 C 788 860 772 901 741 928 C 709 955 660 969 594 969 C 538 969 486 961 438 947 C 390 932 343 912 295 887 L 248 1008 C 299 1033 355 1054 417 1072 C 479 1089 542 1098 606 1098 C 660 1098 708 1092 750 1082 C 792 1071 827 1054 856 1032 C 885 1010 907 982 923 948 C 938 914 946 873 946 827 Z M 739 481 C 705 499 666 514 622 526 C 578 537 525 543 463 543 C 419 543 380 537 346 525 C 311 513 282 495 258 473 C 234 451 215 424 203 392 C 190 360 184 325 184 285 C 184 225 201 179 236 148 C 270 117 320 102 385 102 C 416 102 446 106 476 114 C 505 122 533 134 560 149 C 586 163 611 180 635 200 C 658 220 680 241 700 264 L 739 481 Z M 930 1266 L 373 1266 L 397 1409 L 954 1409 L 930 1266 Z" unicode="ā" />
<glyph horiz-adv-x="1380" d="M 983 0 L 926 365 L 338 365 L 152 0 L -16 0 L 731 1434 L 907 1434 L 1147 0 L 983 0 Z M 790 1245 L 412 510 L 903 510 L 790 1245 Z M 1223 1853 C 1199 1750 1153 1670 1085 1612 C 1017 1554 931 1526 827 1526 C 777 1526 732 1533 692 1548 C 652 1563 619 1585 593 1613 C 567 1641 548 1675 537 1715 C 525 1755 523 1801 530 1853 L 655 1853 C 647 1781 660 1727 694 1692 C 728 1657 779 1640 848 1640 C 907 1640 958 1657 1002 1691 C 1045 1725 1076 1779 1096 1853 L 1223 1853 Z" unicode="Ă" />
<glyph horiz-adv-x="1096" d="M 946 827 C 946 813 945 799 943 785 C 941 770 940 755 938 741 L 807 0 L 655 0 L 676 123 C 637 83 589 49 533 20 C 476 -8 414 -23 348 -23 C 305 -23 264 -17 226 -7 C 188 2 154 19 125 42 C 96 64 73 94 56 130 C 39 166 31 209 31 260 C 31 326 42 385 66 436 C 90 486 122 529 163 563 C 204 597 252 622 307 640 C 362 657 421 666 485 666 C 539 666 589 660 637 648 C 685 636 726 621 760 604 L 782 731 C 784 742 785 754 786 768 C 787 782 788 794 788 805 C 788 860 772 901 741 928 C 709 955 660 969 594 969 C 538 969 486 961 438 947 C 390 932 343 912 295 887 L 248 1008 C 299 1033 355 1054 417 1072 C 479 1089 542 1098 606 1098 C 660 1098 708 1092 750 1082 C 792 1071 827 1054 856 1032 C 885 1010 907 982 923 948 C 938 914 946 873 946 827 Z M 739 481 C 705 499 666 514 622 526 C 578 537 525 543 463 543 C 419 543 380 537 346 525 C 311 513 282 495 258 473 C 234 451 215 424 203 392 C 190 360 184 325 184 285 C 184 225 201 179 236 148 C 270 117 320 102 385 102 C 416 102 446 106 476 114 C 505 122 533 134 560 149 C 586 163 611 180 635 200 C 658 220 680 241 700 264 L 739 481 Z M 1057 1546 C 1033 1443 987 1363 919 1305 C 851 1247 765 1219 661 1219 C 611 1219 566 1226 526 1241 C 486 1256 453 1278 427 1306 C 401 1334 382 1368 371 1408 C 359 1448 357 1494 364 1546 L 489 1546 C 481 1474 494 1420 528 1385 C 562 1350 613 1333 682 1333 C 741 1333 792 1350 836 1384 C 879 1418 910 1472 930 1546 L 1057 1546 Z" unicode="ă" />
<glyph horiz-adv-x="1380" d="M 983 0 L 926 365 L 338 365 L 152 0 L -16 0 L 731 1434 L 907 1434 L 1147 0 L 983 0 Z M 790 1245 L 412 510 L 903 510 L 790 1245 Z M 1134 0 C 1112 -9 1089 -20 1064 -34 C 1038 -48 1013 -64 988 -83 C 963 -102 943 -124 927 -149 C 911 -173 904 -199 904 -225 C 904 -242 907 -255 915 -263 C 922 -271 932 -276 944 -276 C 956 -276 966 -272 974 -266 C 982 -259 988 -250 993 -238 L 1081 -285 C 1067 -321 1047 -351 1020 -375 C 993 -398 957 -410 913 -410 C 863 -410 825 -396 799 -370 C 773 -343 761 -311 761 -274 C 761 -239 767 -208 780 -181 C 793 -153 811 -128 833 -104 C 855 -80 880 -60 906 -43 C 932 -26 957 -12 983 0 L 1134 0 Z" unicode="Ą" />
<glyph horiz-adv-x="1096" d="M 946 827 C 946 813 945 799 943 785 C 941 770 940 755 938 741 L 807 0 L 655 0 L 676 123 C 637 83 589 49 533 20 C 476 -8 414 -23 348 -23 C 305 -23 264 -17 226 -7 C 188 2 154 19 125 42 C 96 64 73 94 56 130 C 39 166 31 209 31 260 C 31 326 42 385 66 436 C 90 486 122 529 163 563 C 204 597 252 622 307 640 C 362 657 421 666 485 666 C 539 666 589 660 637 648 C 685 636 726 621 760 604 L 782 731 C 784 742 785 754 786 768 C 787 782 788 794 788 805 C 788 860 772 901 741 928 C 709 955 660 969 594 969 C 538 969 486 961 438 947 C 390 932 343 912 295 887 L 248 1008 C 299 1033 355 1054 417 1072 C 479 1089 542 1098 606 1098 C 660 1098 708 1092 750 1082 C 792 1071 827 1054 856 1032 C 885 1010 907 982 923 948 C 938 914 946 873 946 827 Z M 739 481 C 705 499 666 514 622 526 C 578 537 525 543 463 543 C 419 543 380 537 346 525 C 311 513 282 495 258 473 C 234 451 215 424 203 392 C 190 360 184 325 184 285 C 184 225 201 179 236 148 C 270 117 320 102 385 102 C 416 102 446 106 476 114 C 505 122 533 134 560 149 C 586 163 611 180 635 200 C 658 220 680 241 700 264 L 739 481 Z M 806 0 C 784 -9 761 -20 736 -34 C 710 -48 685 -64 660 -83 C 635 -102 615 -124 599 -149 C 583 -173 576 -199 576 -225 C 576 -242 579 -255 587 -263 C 594 -271 604 -276 616 -276 C 628 -276 638 -272 646 -266 C 654 -259 660 -250 665 -238 L 753 -285 C 739 -321 719 -351 692 -375 C 665 -398 629 -410 585 -410 C 535 -410 497 -396 471 -370 C 445 -343 433 -311 433 -274 C 433 -239 439 -208 452 -181 C 465 -153 483 -128 505 -104 C 527 -80 552 -60 578 -43 C 604 -26 629 -12 655 0 L 806 0 Z" unicode="ą" />
<glyph horiz-adv-x="1278" d="M 1112 1118 C 1094 1148 1075 1176 1055 1200 C 1035 1224 1012 1244 987 1260 C 962 1276 934 1289 902 1298 C 870 1306 834 1311 793 1311 C 716 1311 644 1288 576 1244 C 508 1199 452 1140 406 1067 C 360 993 326 915 304 833 C 281 751 270 665 270 575 C 270 503 278 440 296 384 C 314 328 338 281 370 242 C 402 203 440 173 484 153 C 528 133 577 123 631 123 C 700 123 764 137 822 167 C 880 197 940 245 1001 311 L 1098 209 C 1066 175 1033 143 998 115 C 962 86 925 61 886 41 C 846 21 804 5 760 -6 C 716 -17 669 -23 621 -23 C 545 -23 475 -10 413 15 C 350 41 296 79 252 129 C 207 179 172 240 148 314 C 123 387 111 471 111 567 C 111 646 119 723 135 798 C 151 872 175 942 205 1008 C 235 1074 271 1134 314 1189 C 356 1244 404 1291 456 1331 C 508 1370 564 1401 625 1423 C 685 1445 749 1456 815 1456 C 869 1456 919 1450 963 1439 C 1007 1427 1046 1411 1082 1389 C 1117 1367 1148 1341 1176 1310 C 1204 1278 1229 1243 1251 1204 L 1112 1118 Z M 861 1526 L 723 1526 L 992 1853 L 1227 1853 L 861 1526 Z" unicode="Ć" />
<glyph horiz-adv-x="1006" d="M 840 844 C 810 878 776 907 736 930 C 696 953 649 965 594 965 C 541 965 493 951 450 925 C 406 899 369 862 339 816 C 308 769 284 714 267 650 C 250 586 242 516 242 440 C 242 332 266 250 314 194 C 362 138 430 111 520 111 C 566 111 608 120 645 139 C 682 158 717 183 750 213 L 827 113 C 775 66 724 32 673 10 C 621 -12 564 -23 502 -23 C 438 -23 381 -12 330 8 C 279 28 235 58 199 97 C 163 136 135 184 115 241 C 95 298 86 363 86 436 C 86 538 100 630 128 712 C 156 794 194 863 242 920 C 289 977 344 1021 406 1052 C 468 1082 534 1098 602 1098 C 645 1098 684 1094 718 1086 C 752 1078 783 1068 811 1055 C 838 1041 862 1026 884 1008 C 906 990 926 972 946 952 L 840 844 Z M 592 1219 L 454 1219 L 723 1546 L 958 1546 L 592 1219 Z" unicode="ć" />
<glyph horiz-adv-x="1278" d="M 1112 1118 C 1094 1148 1075 1176 1055 1200 C 1035 1224 1012 1244 987 1260 C 962 1276 934 1289 902 1298 C 870 1306 834 1311 793 1311 C 716 1311 644 1288 576 1244 C 508 1199 452 1140 406 1067 C 360 993 326 915 304 833 C 281 751 270 665 270 575 C 270 503 278 440 296 384 C 314 328 338 281 370 242 C 402 203 440 173 484 153 C 528 133 577 123 631 123 C 700 123 764 137 822 167 C 880 197 940 245 1001 311 L 1098 209 C 1066 175 1033 143 998 115 C 962 86 925 61 886 41 C 846 21 804 5 760 -6 C 716 -17 669 -23 621 -23 C 545 -23 475 -10 413 15 C 350 41 296 79 252 129 C 207 179 172 240 148 314 C 123 387 111 471 111 567 C 111 646 119 723 135 798 C 151 872 175 942 205 1008 C 235 1074 271 1134 314 1189 C 356 1244 404 1291 456 1331 C 508 1370 564 1401 625 1423 C 685 1445 749 1456 815 1456 C 869 1456 919 1450 963 1439 C 1007 1427 1046 1411 1082 1389 C 1117 1367 1148 1341 1176 1310 C 1204 1278 1229 1243 1251 1204 L 1112 1118 Z M 1043 1516 L 875 1727 L 629 1516 L 496 1516 L 807 1843 L 979 1843 L 1172 1516 L 1043 1516 Z" unicode="Ĉ" />
<glyph horiz-adv-x="1006" d="M 840 844 C 810 878 776 907 736 930 C 696 953 649 965 594 965 C 541 965 493 951 450 925 C 406 899 369 862 339 816 C 308 769 284 714 267 650 C 250 586 242 516 242 440 C 242 332 266 250 314 194 C 362 138 430 111 520 111 C 566 111 608 120 645 139 C 682 158 717 183 750 213 L 827 113 C 775 66 724 32 673 10 C 621 -12 564 -23 502 -23 C 438 -23 381 -12 330 8 C 279 28 235 58 199 97 C 163 136 135 184 115 241 C 95 298 86 363 86 436 C 86 538 100 630 128 712 C 156 794 194 863 242 920 C 289 977 344 1021 406 1052 C 468 1082 534 1098 602 1098 C 645 1098 684 1094 718 1086 C 752 1078 783 1068 811 1055 C 838 1041 862 1026 884 1008 C 906 990 926 972 946 952 L 840 844 Z M 865 1200 L 697 1411 L 451 1200 L 318 1200 L 629 1527 L 801 1527 L 994 1200 L 865 1200 Z" unicode="ĉ" />
<glyph horiz-adv-x="1278" d="M 1112 1118 C 1094 1148 1075 1176 1055 1200 C 1035 1224 1012 1244 987 1260 C 962 1276 934 1289 902 1298 C 870 1306 834 1311 793 1311 C 716 1311 644 1288 576 1244 C 508 1199 452 1140 406 1067 C 360 993 326 915 304 833 C 281 751 270 665 270 575 C 270 503 278 440 296 384 C 314 328 338 281 370 242 C 402 203 440 173 484 153 C 528 133 577 123 631 123 C 700 123 764 137 822 167 C 880 197 940 245 1001 311 L 1098 209 C 1066 175 1033 143 998 115 C 962 86 925 61 886 41 C 846 21 804 5 760 -6 C 716 -17 669 -23 621 -23 C 545 -23 475 -10 413 15 C 350 41 296 79 252 129 C 207 179 172 240 148 314 C 123 387 111 471 111 567 C 111 646 119 723 135 798 C 151 872 175 942 205 1008 C 235 1074 271 1134 314 1189 C 356 1244 404 1291 456 1331 C 508 1370 564 1401 625 1423 C 685 1445 749 1456 815 1456 C 869 1456 919 1450 963 1439 C 1007 1427 1046 1411 1082 1389 C 1117 1367 1148 1341 1176 1310 C 1204 1278 1229 1243 1251 1204 L 1112 1118 Z M 979 1655 C 979 1639 976 1625 970 1611 C 964 1597 956 1585 946 1575 C 936 1565 924 1557 910 1551 C 896 1545 882 1542 867 1542 C 851 1542 837 1545 823 1551 C 809 1557 797 1565 787 1575 C 777 1585 769 1597 763 1611 C 757 1625 754 1639 754 1655 C 754 1670 757 1684 763 1698 C 769 1712 777 1724 787 1735 C 797 1745 809 1754 823 1760 C 837 1766 851 1769 867 1769 C 882 1769 896 1766 910 1760 C 924 1754 936 1745 946 1735 C 956 1724 964 1712 970 1698 C 976 1684 979 1670 979 1655 Z" unicode="Ċ" />
<glyph horiz-adv-x="1006" d="M 840 844 C 810 878 776 907 736 930 C 696 953 649 965 594 965 C 541 965 493 951 450 925 C 406 899 369 862 339 816 C 308 769 284 714 267 650 C 250 586 242 516 242 440 C 242 332 266 250 314 194 C 362 138 430 111 520 111 C 566 111 608 120 645 139 C 682 158 717 183 750 213 L 827 113 C 775 66 724 32 673 10 C 621 -12 564 -23 502 -23 C 438 -23 381 -12 330 8 C 279 28 235 58 199 97 C 163 136 135 184 115 241 C 95 298 86 363 86 436 C 86 538 100 630 128 712 C 156 794 194 863 242 920 C 289 977 344 1021 406 1052 C 468 1082 534 1098 602 1098 C 645 1098 684 1094 718 1086 C 752 1078 783 1068 811 1055 C 838 1041 862 1026 884 1008 C 906 990 926 972 946 952 L 840 844 Z M 770 1348 C 770 1332 767 1318 761 1304 C 755 1290 747 1278 737 1268 C 727 1258 715 1250 701 1244 C 687 1238 673 1235 658 1235 C 642 1235 628 1238 614 1244 C 600 1250 588 1258 578 1268 C 568 1278 560 1290 554 1304 C 548 1318 545 1332 545 1348 C 545 1363 548 1377 554 1391 C 560 1405 568 1417 578 1428 C 588 1438 600 1447 614 1453 C 628 1459 642 1462 658 1462 C 673 1462 687 1459 701 1453 C 715 1447 727 1438 737 1428 C 747 1417 755 1405 761 1391 C 767 1377 770 1363 770 1348 Z" unicode="ċ" />
<glyph horiz-adv-x="1278" d="M 1112 1118 C 1094 1148 1075 1176 1055 1200 C 1035 1224 1012 1244 987 1260 C 962 1276 934 1289 902 1298 C 870 1306 834 1311 793 1311 C 716 1311 644 1288 576 1244 C 508 1199 452 1140 406 1067 C 360 993 326 915 304 833 C 281 751 270 665 270 575 C 270 503 278 440 296 384 C 314 328 338 281 370 242 C 402 203 440 173 484 153 C 528 133 577 123 631 123 C 700 123 764 137 822 167 C 880 197 940 245 1001 311 L 1098 209 C 1066 175 1033 143 998 115 C 962 86 925 61 886 41 C 846 21 804 5 760 -6 C 716 -17 669 -23 621 -23 C 545 -23 475 -10 413 15 C 350 41 296 79 252 129 C 207 179 172 240 148 314 C 123 387 111 471 111 567 C 111 646 119 723 135 798 C 151 872 175 942 205 1008 C 235 1074 271 1134 314 1189 C 356 1244 404 1291 456 1331 C 508 1370 564 1401 625 1423 C 685 1445 749 1456 815 1456 C 869 1456 919 1450 963 1439 C 1007 1427 1046 1411 1082 1389 C 1117 1367 1148 1341 1176 1310 C 1204 1278 1229 1243 1251 1204 L 1112 1118 Z M 926 1526 L 754 1526 L 561 1853 L 690 1853 L 858 1642 L 1104 1853 L 1237 1853 L 926 1526 Z" unicode="Č" />
<glyph horiz-adv-x="1006" d="M 840 844 C 810 878 776 907 736 930 C 696 953 649 965 594 965 C 541 965 493 951 450 925 C 406 899 369 862 339 816 C 308 769 284 714 267 650 C 250 586 242 516 242 440 C 242 332 266 250 314 194 C 362 138 430 111 520 111 C 566 111 608 120 645 139 C 682 158 717 183 750 213 L 827 113 C 775 66 724 32 673 10 C 621 -12 564 -23 502 -23 C 438 -23 381 -12 330 8 C 279 28 235 58 199 97 C 163 136 135 184 115 241 C 95 298 86 363 86 436 C 86 538 100 630 128 712 C 156 794 194 863 242 920 C 289 977 344 1021 406 1052 C 468 1082 534 1098 602 1098 C 645 1098 684 1094 718 1086 C 752 1078 783 1068 811 1055 C 838 1041 862 1026 884 1008 C 906 990 926 972 946 952 L 840 844 Z M 686 1219 L 514 1219 L 321 1546 L 450 1546 L 618 1335 L 864 1546 L 997 1546 L 686 1219 Z" unicode="č" />
<glyph horiz-adv-x="1339" d="M 1231 854 C 1231 752 1219 661 1196 579 C 1173 497 1142 425 1102 362 C 1062 298 1015 244 962 199 C 908 153 851 116 790 86 C 729 56 666 35 601 21 C 535 7 471 0 408 0 L 61 0 L 315 1434 L 567 1434 C 663 1434 751 1423 833 1402 C 914 1380 984 1346 1043 1300 C 1102 1254 1148 1194 1181 1121 C 1214 1047 1231 958 1231 854 Z M 1067 846 C 1067 927 1055 996 1032 1052 C 1008 1108 975 1153 931 1188 C 887 1223 833 1248 769 1264 C 705 1280 633 1288 553 1288 L 449 1288 L 248 145 L 434 145 C 524 145 609 161 691 195 C 772 228 841 276 898 340 C 955 403 997 477 1025 562 C 1053 646 1067 741 1067 846 Z M 813 1526 L 641 1526 L 448 1853 L 577 1853 L 745 1642 L 991 1853 L 1124 1853 L 813 1526 Z" unicode="Ď" />
<glyph horiz-adv-x="1198" d="M 66 408 C 66 517 78 614 104 700 C 130 786 165 858 209 917 C 253 976 304 1021 363 1052 C 421 1082 484 1098 551 1098 C 587 1098 620 1093 650 1085 C 679 1077 706 1065 730 1051 C 754 1036 776 1018 796 998 C 816 978 834 956 852 932 L 936 1407 L 1106 1493 L 840 0 L 688 0 L 707 113 C 664 71 620 37 574 13 C 528 -10 474 -23 414 -23 C 366 -23 321 -14 279 3 C 237 21 200 47 168 83 C 136 119 111 164 93 218 C 75 272 66 335 66 408 Z M 219 424 C 219 322 239 245 281 191 C 322 137 382 111 461 111 C 486 111 510 114 533 120 C 555 126 577 136 599 148 C 620 160 641 174 663 192 C 685 209 707 229 731 252 L 825 780 C 811 806 796 831 779 854 C 761 876 741 896 719 912 C 696 928 670 941 642 951 C 614 960 582 965 547 965 C 499 965 456 953 416 929 C 376 905 341 871 312 825 C 282 779 259 723 243 656 C 227 588 219 511 219 424 Z M 1231 977 L 1119 977 L 1231 1434 L 1446 1434 L 1231 977 Z" unicode="ď" />
<glyph horiz-adv-x="1389" d="M 1280 854 C 1280 752 1268 661 1245 579 C 1222 497 1191 425 1151 362 C 1111 298 1065 244 1011 199 C 957 153 900 116 839 86 C 778 56 715 35 650 21 C 584 7 520 0 457 0 L 113 0 L 233 678 L 104 678 L 131 821 L 258 821 L 367 1434 L 616 1434 C 712 1434 800 1423 882 1402 C 963 1380 1033 1346 1092 1300 C 1151 1254 1197 1194 1230 1121 C 1263 1047 1280 958 1280 854 Z M 1116 846 C 1116 927 1104 996 1081 1052 C 1057 1108 1024 1153 980 1188 C 936 1223 882 1248 818 1264 C 754 1280 682 1288 602 1288 L 496 1288 L 414 821 L 705 821 L 678 678 L 389 678 L 295 145 L 483 145 C 536 145 589 151 641 163 C 693 175 743 193 790 218 C 837 242 880 274 920 312 C 960 350 994 394 1023 446 C 1052 498 1075 557 1091 623 C 1107 689 1116 764 1116 846 Z" unicode="Đ" />
<glyph horiz-adv-x="1137" d="M 825 780 C 811 806 796 831 779 854 C 761 876 741 896 719 912 C 696 928 670 941 642 951 C 614 960 582 965 547 965 C 499 965 456 953 416 929 C 376 905 341 871 312 825 C 282 779 259 723 243 656 C 227 588 219 511 219 424 C 219 322 239 245 281 191 C 322 137 382 111 461 111 C 486 111 510 114 533 120 C 555 126 577 136 599 148 C 620 160 641 174 663 192 C 685 209 707 229 731 252 L 825 780 Z M 1270 1280 L 1245 1137 L 1042 1137 L 840 0 L 688 0 L 707 113 C 685 91 663 72 641 56 C 619 39 596 25 573 13 C 549 1 525 -7 499 -13 C 473 -19 444 -23 414 -23 C 366 -23 321 -14 279 3 C 237 21 200 47 168 83 C 136 119 111 164 93 218 C 75 272 66 335 66 408 C 66 517 78 614 104 700 C 130 786 165 858 209 917 C 253 976 304 1021 363 1052 C 421 1082 484 1098 551 1098 C 587 1098 620 1093 650 1085 C 679 1077 706 1065 730 1051 C 754 1036 776 1018 796 998 C 816 978 834 956 852 932 L 889 1137 L 688 1137 L 713 1280 L 913 1280 L 936 1407 L 1106 1493 L 1067 1280 L 1270 1280 Z" unicode="đ" />
<glyph horiz-adv-x="1194" d="M 61 0 L 315 1434 L 1171 1434 L 1147 1288 L 449 1288 L 369 838 L 932 838 L 907 692 L 344 692 L 248 145 L 977 145 L 950 0 L 61 0 Z M 1045 1573 L 488 1573 L 512 1716 L 1069 1716 L 1045 1573 Z" unicode="Ē" />
<glyph horiz-adv-x="1098" d="M 977 668 C 977 632 975 598 971 566 C 967 534 962 507 956 485 L 240 485 C 236 427 238 376 248 330 C 257 284 273 244 297 212 C 321 179 351 154 388 137 C 425 119 469 111 520 111 C 569 111 615 118 659 134 C 702 149 746 170 791 197 L 848 80 C 788 44 731 18 675 2 C 619 -14 559 -23 496 -23 C 436 -23 381 -13 331 6 C 281 26 237 54 201 92 C 165 130 136 176 116 232 C 96 287 86 350 86 422 C 86 524 99 616 125 699 C 151 782 186 853 232 912 C 277 971 330 1017 392 1049 C 453 1081 519 1098 590 1098 C 652 1098 708 1087 756 1067 C 804 1046 844 1017 877 979 C 909 941 934 896 951 844 C 968 791 977 732 977 668 Z M 827 610 C 831 662 829 709 822 753 C 814 797 801 834 781 866 C 761 897 734 921 701 939 C 668 956 628 965 582 965 C 538 965 499 956 464 939 C 428 921 397 897 370 866 C 343 834 320 797 301 753 C 282 709 268 662 258 610 L 827 610 Z M 926 1266 L 369 1266 L 393 1409 L 950 1409 L 926 1266 Z" unicode="ē" />
<glyph horiz-adv-x="1194" d="M 61 0 L 315 1434 L 1171 1434 L 1147 1288 L 449 1288 L 369 838 L 932 838 L 907 692 L 344 692 L 248 145 L 977 145 L 950 0 L 61 0 Z M 1166 1853 C 1142 1750 1096 1670 1028 1612 C 960 1554 874 1526 770 1526 C 720 1526 675 1533 635 1548 C 595 1563 562 1585 536 1613 C 510 1641 491 1675 480 1715 C 468 1755 466 1801 473 1853 L 598 1853 C 590 1781 603 1727 637 1692 C 671 1657 722 1640 791 1640 C 850 1640 901 1657 945 1691 C 988 1725 1019 1779 1039 1853 L 1166 1853 Z" unicode="Ĕ" />
<glyph horiz-adv-x="1098" d="M 977 668 C 977 632 975 598 971 566 C 967 534 962 507 956 485 L 240 485 C 236 427 238 376 248 330 C 257 284 273 244 297 212 C 321 179 351 154 388 137 C 425 119 469 111 520 111 C 569 111 615 118 659 134 C 702 149 746 170 791 197 L 848 80 C 788 44 731 18 675 2 C 619 -14 559 -23 496 -23 C 436 -23 381 -13 331 6 C 281 26 237 54 201 92 C 165 130 136 176 116 232 C 96 287 86 350 86 422 C 86 524 99 616 125 699 C 151 782 186 853 232 912 C 277 971 330 1017 392 1049 C 453 1081 519 1098 590 1098 C 652 1098 708 1087 756 1067 C 804 1046 844 1017 877 979 C 909 941 934 896 951 844 C 968 791 977 732 977 668 Z M 827 610 C 831 662 829 709 822 753 C 814 797 801 834 781 866 C 761 897 734 921 701 939 C 668 956 628 965 582 965 C 538 965 499 956 464 939 C 428 921 397 897 370 866 C 343 834 320 797 301 753 C 282 709 268 662 258 610 L 827 610 Z M 1049 1546 C 1025 1443 979 1363 911 1305 C 843 1247 757 1219 653 1219 C 603 1219 558 1226 518 1241 C 478 1256 445 1278 419 1306 C 393 1334 374 1368 363 1408 C 351 1448 349 1494 356 1546 L 481 1546 C 473 1474 486 1420 520 1385 C 554 1350 605 1333 674 1333 C 733 1333 784 1350 828 1384 C 871 1418 902 1472 922 1546 L 1049 1546 Z" unicode="ĕ" />
<glyph horiz-adv-x="1194" d="M 61 0 L 315 1434 L 1171 1434 L 1147 1288 L 449 1288 L 369 838 L 932 838 L 907 692 L 344 692 L 248 145 L 977 145 L 950 0 L 61 0 Z M 889 1655 C 889 1639 886 1625 880 1611 C 874 1597 866 1585 856 1575 C 846 1565 834 1557 820 1551 C 806 1545 792 1542 777 1542 C 761 1542 747 1545 733 1551 C 719 1557 707 1565 697 1575 C 687 1585 679 1597 673 1611 C 667 1625 664 1639 664 1655 C 664 1670 667 1684 673 1698 C 679 1712 687 1724 697 1735 C 707 1745 719 1754 733 1760 C 747 1766 761 1769 777 1769 C 792 1769 806 1766 820 1760 C 834 1754 846 1745 856 1735 C 866 1724 874 1712 880 1698 C 886 1684 889 1670 889 1655 Z" unicode="Ė" />
<glyph horiz-adv-x="1098" d="M 977 668 C 977 632 975 598 971 566 C 967 534 962 507 956 485 L 240 485 C 236 427 238 376 248 330 C 257 284 273 244 297 212 C 321 179 351 154 388 137 C 425 119 469 111 520 111 C 569 111 615 118 659 134 C 702 149 746 170 791 197 L 848 80 C 788 44 731 18 675 2 C 619 -14 559 -23 496 -23 C 436 -23 381 -13 331 6 C 281 26 237 54 201 92 C 165 130 136 176 116 232 C 96 287 86 350 86 422 C 86 524 99 616 125 699 C 151 782 186 853 232 912 C 277 971 330 1017 392 1049 C 453 1081 519 1098 590 1098 C 652 1098 708 1087 756 1067 C 804 1046 844 1017 877 979 C 909 941 934 896 951 844 C 968 791 977 732 977 668 Z M 827 610 C 831 662 829 709 822 753 C 814 797 801 834 781 866 C 761 897 734 921 701 939 C 668 956 628 965 582 965 C 538 965 499 956 464 939 C 428 921 397 897 370 866 C 343 834 320 797 301 753 C 282 709 268 662 258 610 L 827 610 Z M 734 1348 C 734 1332 731 1318 725 1304 C 719 1290 711 1278 701 1268 C 691 1258 679 1250 665 1244 C 651 1238 637 1235 622 1235 C 606 1235 592 1238 578 1244 C 564 1250 552 1258 542 1268 C 532 1278 524 1290 518 1304 C 512 1318 509 1332 509 1348 C 509 1363 512 1377 518 1391 C 524 1405 532 1417 542 1428 C 552 1438 564 1447 578 1453 C 592 1459 606 1462 622 1462 C 637 1462 651 1459 665 1453 C 679 1447 691 1438 701 1428 C 711 1417 719 1405 725 1391 C 731 1377 734 1363 734 1348 Z" unicode="ė" />
<glyph horiz-adv-x="1194" d="M 61 0 L 315 1434 L 1171 1434 L 1147 1288 L 449 1288 L 369 838 L 932 838 L 907 692 L 344 692 L 248 145 L 977 145 L 950 0 L 61 0 Z M 949 0 C 927 -9 904 -20 879 -34 C 853 -48 828 -64 803 -83 C 778 -102 758 -124 742 -149 C 726 -173 719 -199 719 -225 C 719 -242 722 -255 730 -263 C 737 -271 747 -276 759 -276 C 771 -276 781 -272 789 -266 C 797 -259 803 -250 808 -238 L 896 -285 C 882 -321 862 -351 835 -375 C 808 -398 772 -410 728 -410 C 678 -410 640 -396 614 -370 C 588 -343 576 -311 576 -274 C 576 -239 582 -208 595 -181 C 608 -153 626 -128 648 -104 C 670 -80 695 -60 721 -43 C 747 -26 772 -12 798 0 L 949 0 Z" unicode="Ę" />
<glyph horiz-adv-x="1098" d="M 827 610 C 831 662 829 709 822 753 C 814 797 801 834 781 866 C 761 897 734 921 701 939 C 668 956 628 965 582 965 C 538 965 499 956 464 939 C 428 921 397 897 370 865 C 342 833 319 796 301 752 C 282 708 268 661 258 610 L 827 610 Z M 432 -231 C 432 -248 436 -260 446 -266 C 455 -272 463 -276 471 -276 C 482 -276 492 -272 502 -264 C 511 -256 518 -247 522 -238 L 610 -285 C 596 -321 576 -351 550 -375 C 524 -398 491 -410 451 -410 C 428 -410 407 -406 387 -400 C 367 -394 350 -385 336 -373 C 322 -361 310 -346 302 -329 C 294 -312 290 -293 290 -272 C 290 -244 295 -217 305 -192 C 315 -166 328 -143 344 -122 C 360 -100 379 -81 400 -65 C 421 -48 443 -34 465 -23 C 409 -19 357 -6 311 15 C 265 36 225 65 192 103 C 158 141 132 186 114 240 C 95 293 86 354 86 422 C 86 524 99 616 125 699 C 151 782 186 853 232 912 C 277 971 330 1017 392 1049 C 453 1081 519 1098 590 1098 C 652 1098 708 1087 756 1067 C 804 1046 844 1017 877 979 C 909 941 934 896 951 844 C 968 791 977 732 977 668 C 977 632 975 598 971 566 C 967 534 962 507 956 485 L 240 485 C 236 427 238 376 248 330 C 258 284 274 244 298 212 C 321 179 351 154 388 137 C 425 119 469 111 520 111 C 566 111 609 117 650 131 C 690 144 737 166 791 197 L 848 80 C 811 61 775 45 740 31 C 704 17 669 1 634 -16 C 608 -28 582 -43 558 -59 C 534 -75 512 -93 494 -111 C 475 -129 460 -148 449 -168 C 437 -188 432 -209 432 -231 Z" unicode="ę" />
<glyph horiz-adv-x="1194" d="M 61 0 L 315 1434 L 1171 1434 L 1147 1288 L 449 1288 L 369 838 L 932 838 L 907 692 L 344 692 L 248 145 L 977 145 L 950 0 L 61 0 Z M 846 1526 L 674 1526 L 481 1853 L 610 1853 L 778 1642 L 1024 1853 L 1157 1853 L 846 1526 Z" unicode="Ě" />
<glyph horiz-adv-x="1098" d="M 977 668 C 977 632 975 598 971 566 C 967 534 962 507 956 485 L 240 485 C 236 427 238 376 248 330 C 257 284 273 244 297 212 C 321 179 351 154 388 137 C 425 119 469 111 520 111 C 569 111 615 118 659 134 C 702 149 746 170 791 197 L 848 80 C 788 44 731 18 675 2 C 619 -14 559 -23 496 -23 C 436 -23 381 -13 331 6 C 281 26 237 54 201 92 C 165 130 136 176 116 232 C 96 287 86 350 86 422 C 86 524 99 616 125 699 C 151 782 186 853 232 912 C 277 971 330 1017 392 1049 C 453 1081 519 1098 590 1098 C 652 1098 708 1087 756 1067 C 804 1046 844 1017 877 979 C 909 941 934 896 951 844 C 968 791 977 732 977 668 Z M 827 610 C 831 662 829 709 822 753 C 814 797 801 834 781 866 C 761 897 734 921 701 939 C 668 956 628 965 582 965 C 538 965 499 956 464 939 C 428 921 397 897 370 866 C 343 834 320 797 301 753 C 282 709 268 662 258 610 L 827 610 Z M 713 1219 L 541 1219 L 348 1546 L 477 1546 L 645 1335 L 891 1546 L 1024 1546 L 713 1219 Z" unicode="ě" />
<glyph horiz-adv-x="1341" d="M 1112 1116 C 1094 1147 1074 1175 1054 1199 C 1033 1223 1010 1244 985 1260 C 959 1276 931 1289 900 1298 C 869 1306 834 1311 795 1311 C 727 1311 661 1292 597 1256 C 532 1220 474 1166 424 1095 C 373 1024 335 944 309 856 C 283 768 270 676 270 580 C 270 508 278 443 295 387 C 312 331 337 283 369 244 C 401 204 439 174 485 154 C 530 133 581 123 637 123 C 748 123 838 158 906 230 C 974 301 1020 408 1044 551 L 1047 563 L 788 563 L 815 711 L 1229 711 L 1204 571 C 1186 469 1159 380 1123 306 C 1087 231 1043 169 992 121 C 941 72 884 36 820 12 C 756 -11 688 -23 616 -23 C 540 -23 472 -9 410 17 C 348 43 294 82 250 132 C 206 182 171 243 147 315 C 123 387 111 469 111 561 C 111 643 119 722 135 798 C 151 874 175 946 205 1012 C 235 1078 272 1139 315 1193 C 357 1247 405 1294 457 1333 C 509 1372 566 1402 627 1424 C 687 1445 751 1456 817 1456 C 922 1456 1011 1433 1083 1388 C 1155 1343 1211 1282 1251 1204 L 1112 1116 Z M 1043 1516 L 875 1727 L 629 1516 L 496 1516 L 807 1843 L 979 1843 L 1172 1516 L 1043 1516 Z" unicode="Ĝ" />
<glyph horiz-adv-x="1137" d="M 414 -23 C 366 -23 321 -14 279 3 C 237 21 200 47 168 83 C 136 119 111 164 93 218 C 75 272 66 335 66 408 C 66 517 78 614 104 700 C 130 786 165 858 209 917 C 253 976 304 1021 363 1052 C 421 1082 484 1098 551 1098 C 587 1098 620 1093 650 1085 C 679 1077 706 1065 730 1051 C 754 1036 776 1018 796 998 C 816 978 834 956 852 932 L 879 1075 L 1030 1075 L 856 86 C 835 -18 809 -98 778 -152 C 747 -206 711 -248 670 -280 C 629 -311 571 -337 496 -359 C 421 -380 321 -392 195 -395 L 176 -272 C 286 -272 371 -266 431 -252 C 491 -238 537 -218 569 -192 C 601 -166 627 -132 649 -92 C 671 -51 687 2 698 70 L 707 113 C 657 66 610 32 564 10 C 518 -12 468 -23 414 -23 Z M 219 424 C 219 322 239 245 281 191 C 322 137 382 111 461 111 C 486 111 510 114 533 120 C 555 126 577 136 599 148 C 620 160 641 174 663 192 C 685 209 707 229 731 252 L 825 780 C 811 806 796 831 779 854 C 761 876 741 896 719 912 C 696 928 670 941 642 951 C 614 960 582 965 547 965 C 499 965 456 953 416 929 C 376 905 341 871 312 825 C 282 779 259 723 243 656 C 227 588 219 511 219 424 Z M 858 1200 L 690 1411 L 444 1200 L 311 1200 L 622 1527 L 794 1527 L 987 1200 L 858 1200 Z" unicode="ĝ" />
<glyph horiz-adv-x="1341" d="M 1112 1116 C 1094 1147 1074 1175 1054 1199 C 1033 1223 1010 1244 985 1260 C 959 1276 931 1289 900 1298 C 869 1306 834 1311 795 1311 C 727 1311 661 1292 597 1256 C 532 1220 474 1166 424 1095 C 373 1024 335 944 309 856 C 283 768 270 676 270 580 C 270 508 278 443 295 387 C 312 331 337 283 369 244 C 401 204 439 174 485 154 C 530 133 581 123 637 123 C 748 123 838 158 906 230 C 974 301 1020 408 1044 551 L 1047 563 L 788 563 L 815 711 L 1229 711 L 1204 571 C 1186 469 1159 380 1123 306 C 1087 231 1043 169 992 121 C 941 72 884 36 820 12 C 756 -11 688 -23 616 -23 C 540 -23 472 -9 410 17 C 348 43 294 82 250 132 C 206 182 171 243 147 315 C 123 387 111 469 111 561 C 111 643 119 722 135 798 C 151 874 175 946 205 1012 C 235 1078 272 1139 315 1193 C 357 1247 405 1294 457 1333 C 509 1372 566 1402 627 1424 C 687 1445 751 1456 817 1456 C 922 1456 1011 1433 1083 1388 C 1155 1343 1211 1282 1251 1204 L 1112 1116 Z M 1246 1853 C 1222 1750 1176 1670 1108 1612 C 1040 1554 954 1526 850 1526 C 800 1526 755 1533 715 1548 C 675 1563 642 1585 616 1613 C 590 1641 571 1675 560 1715 C 548 1755 546 1801 553 1853 L 678 1853 C 670 1781 683 1727 717 1692 C 751 1657 802 1640 871 1640 C 930 1640 981 1657 1025 1691 C 1068 1725 1099 1779 1119 1853 L 1246 1853 Z" unicode="Ğ" />
<glyph horiz-adv-x="1137" d="M 414 -23 C 366 -23 321 -14 279 3 C 237 21 200 47 168 83 C 136 119 111 164 93 218 C 75 272 66 335 66 408 C 66 517 78 614 104 700 C 130 786 165 858 209 917 C 253 976 304 1021 363 1052 C 421 1082 484 1098 551 1098 C 587 1098 620 1093 650 1085 C 679 1077 706 1065 730 1051 C 754 1036 776 1018 796 998 C 816 978 834 956 852 932 L 879 1075 L 1030 1075 L 856 86 C 835 -18 809 -98 778 -152 C 747 -206 711 -248 670 -280 C 629 -311 571 -337 496 -359 C 421 -380 321 -392 195 -395 L 176 -272 C 286 -272 371 -266 431 -252 C 491 -238 537 -218 569 -192 C 601 -166 627 -132 649 -92 C 671 -51 687 2 698 70 L 707 113 C 657 66 610 32 564 10 C 518 -12 468 -23 414 -23 Z M 219 424 C 219 322 239 245 281 191 C 322 137 382 111 461 111 C 486 111 510 114 533 120 C 555 126 577 136 599 148 C 620 160 641 174 663 192 C 685 209 707 229 731 252 L 825 780 C 811 806 796 831 779 854 C 761 876 741 896 719 912 C 696 928 670 941 642 951 C 614 960 582 965 547 965 C 499 965 456 953 416 929 C 376 905 341 871 312 825 C 282 779 259 723 243 656 C 227 588 219 511 219 424 Z M 1059 1546 C 1035 1443 989 1363 921 1305 C 853 1247 767 1219 663 1219 C 613 1219 568 1226 528 1241 C 488 1256 455 1278 429 1306 C 403 1334 384 1368 373 1408 C 361 1448 359 1494 366 1546 L 491 1546 C 483 1474 496 1420 530 1385 C 564 1350 615 1333 684 1333 C 743 1333 794 1350 838 1384 C 881 1418 912 1472 932 1546 L 1059 1546 Z" unicode="ğ" />
<glyph horiz-adv-x="1341" d="M 1112 1116 C 1094 1147 1074 1175 1054 1199 C 1033 1223 1010 1244 985 1260 C 959 1276 931 1289 900 1298 C 869 1306 834 1311 795 1311 C 727 1311 661 1292 597 1256 C 532 1220 474 1166 424 1095 C 373 1024 335 944 309 856 C 283 768 270 676 270 580 C 270 508 278 443 295 387 C 312 331 337 283 369 244 C 401 204 439 174 485 154 C 530 133 581 123 637 123 C 748 123 838 158 906 230 C 974 301 1020 408 1044 551 L 1047 563 L 788 563 L 815 711 L 1229 711 L 1204 571 C 1186 469 1159 380 1123 306 C 1087 231 1043 169 992 121 C 941 72 884 36 820 12 C 756 -11 688 -23 616 -23 C 540 -23 472 -9 410 17 C 348 43 294 82 250 132 C 206 182 171 243 147 315 C 123 387 111 469 111 561 C 111 643 119 722 135 798 C 151 874 175 946 205 1012 C 235 1078 272 1139 315 1193 C 357 1247 405 1294 457 1333 C 509 1372 566 1402 627 1424 C 687 1445 751 1456 817 1456 C 922 1456 1011 1433 1083 1388 C 1155 1343 1211 1282 1251 1204 L 1112 1116 Z M 979 1655 C 979 1639 976 1625 970 1611 C 964 1597 956 1585 946 1575 C 936 1565 924 1557 910 1551 C 896 1545 882 1542 867 1542 C 851 1542 837 1545 823 1551 C 809 1557 797 1565 787 1575 C 777 1585 769 1597 763 1611 C 757 1625 754 1639 754 1655 C 754 1670 757 1684 763 1698 C 769 1712 777 1724 787 1735 C 797 1745 809 1754 823 1760 C 837 1766 851 1769 867 1769 C 882 1769 896 1766 910 1760 C 924 1754 936 1745 946 1735 C 956 1724 964 1712 970 1698 C 976 1684 979 1670 979 1655 Z" unicode="Ġ" />
<glyph horiz-adv-x="1137" d="M 414 -23 C 366 -23 321 -14 279 3 C 237 21 200 47 168 83 C 136 119 111 164 93 218 C 75 272 66 335 66 408 C 66 517 78 614 104 700 C 130 786 165 858 209 917 C 253 976 304 1021 363 1052 C 421 1082 484 1098 551 1098 C 587 1098 620 1093 650 1085 C 679 1077 706 1065 730 1051 C 754 1036 776 1018 796 998 C 816 978 834 956 852 932 L 879 1075 L 1030 1075 L 856 86 C 835 -18 809 -98 778 -152 C 747 -206 711 -248 670 -280 C 629 -311 571 -337 496 -359 C 421 -380 321 -392 195 -395 L 176 -272 C 286 -272 371 -266 431 -252 C 491 -238 537 -218 569 -192 C 601 -166 627 -132 649 -92 C 671 -51 687 2 698 70 L 707 113 C 657 66 610 32 564 10 C 518 -12 468 -23 414 -23 Z M 219 424 C 219 322 239 245 281 191 C 322 137 382 111 461 111 C 486 111 510 114 533 120 C 555 126 577 136 599 148 C 620 160 641 174 663 192 C 685 209 707 229 731 252 L 825 780 C 811 806 796 831 779 854 C 761 876 741 896 719 912 C 696 928 670 941 642 951 C 614 960 582 965 547 965 C 499 965 456 953 416 929 C 376 905 341 871 312 825 C 282 779 259 723 243 656 C 227 588 219 511 219 424 Z M 766 1348 C 766 1332 763 1318 757 1304 C 751 1290 743 1278 733 1268 C 723 1258 711 1250 697 1244 C 683 1238 669 1235 654 1235 C 638 1235 624 1238 610 1244 C 596 1250 584 1258 574 1268 C 564 1278 556 1290 550 1304 C 544 1318 541 1332 541 1348 C 541 1363 544 1377 550 1391 C 556 1405 564 1417 574 1428 C 584 1438 596 1447 610 1453 C 624 1459 638 1462 654 1462 C 669 1462 683 1459 697 1453 C 711 1447 723 1438 733 1428 C 743 1417 751 1405 757 1391 C 763 1377 766 1363 766 1348 Z" unicode="ġ" />
<glyph horiz-adv-x="1341" d="M 1112 1116 C 1094 1147 1074 1175 1054 1199 C 1033 1223 1010 1244 985 1260 C 959 1276 931 1289 900 1298 C 869 1306 834 1311 795 1311 C 727 1311 661 1292 597 1256 C 532 1220 474 1166 424 1095 C 373 1024 335 944 309 856 C 283 768 270 676 270 580 C 270 508 278 443 295 387 C 312 331 337 283 369 244 C 401 204 439 174 485 154 C 530 133 581 123 637 123 C 748 123 838 158 906 230 C 974 301 1020 408 1044 551 L 1047 563 L 788 563 L 815 711 L 1229 711 L 1204 571 C 1186 469 1159 380 1123 306 C 1087 231 1043 169 992 121 C 941 72 884 36 820 12 C 756 -11 688 -23 616 -23 C 540 -23 472 -9 410 17 C 348 43 294 82 250 132 C 206 182 171 243 147 315 C 123 387 111 469 111 561 C 111 643 119 722 135 798 C 151 874 175 946 205 1012 C 235 1078 272 1139 315 1193 C 357 1247 405 1294 457 1333 C 509 1372 566 1402 627 1424 C 687 1445 751 1456 817 1456 C 922 1456 1011 1433 1083 1388 C 1155 1343 1211 1282 1251 1204 L 1112 1116 Z M 503 -471 L 413 -471 L 505 -86 L 681 -86 L 503 -471 Z" unicode="Ģ" />
<glyph horiz-adv-x="1137" d="M 414 -23 C 366 -23 321 -14 279 3 C 237 21 200 47 168 83 C 136 119 111 164 93 218 C 75 272 66 335 66 408 C 66 517 78 614 104 700 C 130 786 165 858 209 917 C 253 976 304 1021 363 1052 C 421 1082 484 1098 551 1098 C 587 1098 620 1093 650 1085 C 679 1077 706 1065 730 1051 C 754 1036 776 1018 796 998 C 816 978 834 956 852 932 L 879 1075 L 1030 1075 L 856 86 C 835 -18 809 -98 778 -152 C 747 -206 711 -248 670 -280 C 629 -311 571 -337 496 -359 C 421 -380 321 -392 195 -395 L 176 -272 C 286 -272 371 -266 431 -252 C 491 -238 537 -218 569 -192 C 601 -166 627 -132 649 -92 C 671 -51 687 2 698 70 L 707 113 C 657 66 610 32 564 10 C 518 -12 468 -23 414 -23 Z M 219 424 C 219 322 239 245 281 191 C 322 137 382 111 461 111 C 486 111 510 114 533 120 C 555 126 577 136 599 148 C 620 160 641 174 663 192 C 685 209 707 229 731 252 L 825 780 C 811 806 796 831 779 854 C 761 876 741 896 719 912 C 696 928 670 941 642 951 C 614 960 582 965 547 965 C 499 965 456 953 416 929 C 376 905 341 871 312 825 C 282 779 259 723 243 656 C 227 588 219 511 219 424 Z M 711 1726 L 822 1726 L 709 1252 L 492 1252 L 711 1726 Z" unicode="ģ" />
<glyph horiz-adv-x="1401" d="M 1085 0 L 926 0 L 1047 676 L 342 676 L 221 0 L 61 0 L 315 1434 L 475 1434 L 367 821 L 1071 821 L 1180 1434 L 1339 1434 L 1085 0 Z M 1047 1526 L 879 1737 L 633 1526 L 500 1526 L 811 1853 L 983 1853 L 1176 1526 L 1047 1526 Z" unicode="Ĥ" />
<glyph horiz-adv-x="1153" d="M 989 764 C 989 744 988 723 986 701 C 984 678 981 656 977 635 L 862 0 L 709 0 L 819 618 C 822 637 824 657 826 678 C 828 698 829 717 829 735 C 829 811 812 869 779 909 C 746 949 693 969 621 969 C 583 969 548 961 514 945 C 480 929 450 905 422 875 C 394 844 370 806 350 761 C 330 716 315 665 305 608 L 197 0 L 43 0 L 293 1407 L 463 1493 L 367 954 C 404 998 447 1033 495 1059 C 543 1085 598 1098 662 1098 C 708 1098 752 1091 792 1077 C 832 1063 866 1042 896 1014 C 925 986 948 952 964 910 C 980 868 989 820 989 764 Z M 932 1512 L 764 1723 L 518 1512 L 385 1512 L 696 1839 L 868 1839 L 1061 1512 L 932 1512 Z" unicode="ĥ" />
<glyph horiz-adv-x="1401" d="M 175 1224 L 277 1224 L 315 1434 L 475 1434 L 438 1224 L 1142 1224 L 1180 1434 L 1339 1434 L 1302 1224 L 1405 1224 L 1381 1079 L 1276 1079 L 1085 0 L 926 0 L 1047 676 L 342 676 L 221 0 L 61 0 L 252 1079 L 150 1079 L 175 1224 Z M 1071 821 L 1117 1079 L 412 1079 L 367 821 L 1071 821 Z" unicode="Ħ" />
<glyph horiz-adv-x="1153" d="M 600 1167 L 403 1167 L 367 954 C 384 974 402 992 422 1010 C 442 1027 464 1042 488 1055 C 512 1068 538 1078 566 1086 C 594 1094 626 1098 662 1098 C 708 1098 752 1091 792 1077 C 832 1063 866 1042 896 1014 C 925 986 948 952 964 910 C 980 868 989 820 989 764 C 989 744 988 723 986 701 C 984 678 981 656 977 635 L 862 0 L 709 0 L 819 618 C 822 637 824 657 826 678 C 828 698 829 717 829 735 C 829 811 812 869 779 909 C 746 949 693 969 621 969 C 583 969 548 961 514 945 C 480 929 450 905 422 875 C 394 844 370 806 350 761 C 330 716 315 665 305 608 L 197 0 L 43 0 L 250 1167 L 63 1167 L 86 1294 L 272 1294 L 293 1407 L 463 1493 L 426 1294 L 623 1294 L 600 1167 Z" unicode="ħ" />
<glyph horiz-adv-x="557" d="M 231 0 L 72 0 L 326 1434 L 485 1434 L 231 0 Z M 837 1806 C 828 1756 816 1714 801 1680 C 786 1646 769 1618 749 1598 C 729 1577 708 1562 684 1553 C 660 1544 634 1540 607 1540 C 563 1540 526 1548 496 1565 C 466 1582 441 1598 423 1613 C 405 1626 384 1641 360 1658 C 336 1674 311 1683 286 1683 C 266 1683 249 1672 233 1652 C 217 1632 202 1596 190 1546 L 63 1546 C 71 1596 83 1638 98 1672 C 112 1706 129 1733 149 1754 C 169 1774 191 1789 215 1798 C 239 1807 264 1812 292 1812 C 335 1812 371 1804 400 1788 C 428 1772 454 1755 476 1738 C 493 1725 514 1710 538 1694 C 562 1677 587 1669 613 1669 C 632 1669 650 1679 666 1699 C 682 1719 696 1754 710 1806 L 837 1806 Z" unicode="Ĩ" />
<glyph horiz-adv-x="514" d="M 207 0 L 53 0 L 244 1075 L 397 1075 L 207 0 Z M 757 1491 C 748 1441 736 1399 721 1365 C 706 1331 689 1303 669 1283 C 649 1262 628 1247 604 1238 C 580 1229 554 1225 527 1225 C 483 1225 446 1233 416 1250 C 386 1267 361 1283 343 1298 C 325 1311 304 1326 280 1343 C 256 1359 231 1368 206 1368 C 186 1368 169 1357 153 1337 C 137 1317 122 1281 110 1231 L -17 1231 C -8 1281 3 1323 18 1357 C 32 1391 49 1418 69 1439 C 89 1459 111 1474 135 1483 C 159 1492 184 1497 212 1497 C 255 1497 291 1489 320 1473 C 348 1457 374 1440 396 1423 C 413 1410 434 1395 458 1379 C 482 1362 507 1354 533 1354 C 552 1354 570 1364 586 1384 C 602 1404 616 1439 630 1491 L 757 1491 Z" unicode="ĩ" />
<glyph horiz-adv-x="557" d="M 231 0 L 72 0 L 326 1434 L 485 1434 L 231 0 Z M 697 1573 L 140 1573 L 164 1716 L 721 1716 L 697 1573 Z" unicode="Ī" />
<glyph horiz-adv-x="514" d="M 207 0 L 53 0 L 244 1075 L 397 1075 L 207 0 Z M 634 1266 L 77 1266 L 101 1409 L 658 1409 L 634 1266 Z" unicode="ī" />
<glyph horiz-adv-x="557" d="M 231 0 L 72 0 L 326 1434 L 485 1434 L 231 0 Z M 827 1853 C 803 1750 757 1670 689 1612 C 621 1554 535 1526 431 1526 C 381 1526 336 1533 296 1548 C 256 1563 223 1585 197 1613 C 171 1641 152 1675 141 1715 C 129 1755 127 1801 134 1853 L 259 1853 C 251 1781 264 1727 298 1692 C 332 1657 383 1640 452 1640 C 511 1640 562 1657 606 1691 C 649 1725 680 1779 700 1853 L 827 1853 Z" unicode="Ĭ" />
<glyph horiz-adv-x="514" d="M 207 0 L 53 0 L 244 1075 L 397 1075 L 207 0 Z M 751 1546 C 727 1443 681 1363 613 1305 C 545 1247 459 1219 355 1219 C 305 1219 260 1226 220 1241 C 180 1256 147 1278 121 1306 C 95 1334 76 1368 65 1408 C 53 1448 51 1494 58 1546 L 183 1546 C 175 1474 188 1420 222 1385 C 256 1350 307 1333 376 1333 C 435 1333 486 1350 530 1384 C 573 1418 604 1472 624 1546 L 751 1546 Z" unicode="ĭ" />
<glyph horiz-adv-x="557" d="M 231 0 L 72 0 L 326 1434 L 485 1434 L 231 0 Z M 224 0 C 202 -9 179 -20 154 -34 C 128 -48 103 -64 78 -83 C 53 -102 33 -124 17 -149 C 1 -173 -6 -199 -6 -225 C -6 -242 -2 -255 5 -263 C 12 -271 22 -276 34 -276 C 46 -276 56 -272 64 -266 C 72 -259 78 -250 83 -238 L 171 -285 C 157 -321 137 -351 110 -375 C 83 -398 47 -410 3 -410 C -47 -410 -84 -396 -110 -370 C -136 -343 -149 -311 -149 -274 C -149 -239 -142 -208 -129 -181 C -116 -153 -98 -128 -76 -104 C -54 -80 -30 -60 -4 -43 C 22 -26 47 -12 73 0 L 224 0 Z" unicode="Į" />
<glyph horiz-adv-x="514" d="M 477 1376 C 477 1361 474 1347 468 1334 C 462 1321 455 1310 445 1300 C 435 1290 424 1282 411 1276 C 398 1270 385 1268 371 1268 C 355 1268 340 1270 326 1276 C 312 1282 300 1290 290 1300 C 280 1310 272 1321 266 1334 C 260 1347 258 1361 258 1376 C 258 1391 260 1405 266 1419 C 272 1433 280 1445 290 1455 C 300 1465 312 1472 326 1478 C 340 1484 355 1487 371 1487 C 385 1487 398 1484 411 1478 C 424 1472 435 1465 445 1455 C 455 1445 462 1433 468 1419 C 474 1405 477 1391 477 1376 Z M 207 0 L 53 0 L 244 1075 L 397 1075 L 207 0 Z M 205 0 C 183 -9 160 -20 135 -34 C 109 -48 84 -64 59 -83 C 34 -102 14 -124 -1 -149 C -17 -173 -25 -199 -25 -225 C -25 -242 -21 -255 -14 -263 C -6 -271 3 -276 15 -276 C 27 -276 37 -272 45 -266 C 53 -259 59 -250 64 -238 L 152 -285 C 138 -321 118 -351 91 -375 C 64 -398 28 -410 -16 -410 C -66 -410 -103 -396 -129 -370 C -155 -343 -168 -311 -168 -274 C -168 -239 -161 -208 -148 -181 C -135 -153 -117 -128 -95 -104 C -73 -80 -49 -60 -23 -43 C 3 -26 28 -12 54 0 L 205 0 Z" unicode="į" />
<glyph horiz-adv-x="557" d="M 231 0 L 72 0 L 326 1434 L 485 1434 L 231 0 Z M 545 1655 C 545 1639 542 1625 536 1611 C 530 1597 522 1585 512 1575 C 502 1565 490 1557 476 1551 C 462 1545 448 1542 433 1542 C 417 1542 403 1545 389 1551 C 375 1557 363 1565 353 1575 C 343 1585 335 1597 329 1611 C 323 1625 320 1639 320 1655 C 320 1670 323 1684 329 1698 C 335 1712 343 1724 353 1735 C 363 1745 375 1754 389 1760 C 403 1766 417 1769 433 1769 C 448 1769 462 1766 476 1760 C 490 1754 502 1745 512 1735 C 522 1724 530 1712 536 1698 C 542 1684 545 1670 545 1655 Z" unicode="İ" />
<glyph horiz-adv-x="514" d="M 207 0 L 53 0 L 244 1075 L 397 1075 L 207 0 Z" unicode="ı" />
<glyph horiz-adv-x="1733" d="M 231 0 L 72 0 L 326 1434 L 485 1434 L 231 0 Z M 1526 559 C 1506 440 1477 340 1439 258 C 1401 176 1346 110 1274 61 C 1190 5 1095 -23 987 -23 C 917 -23 856 -13 804 6 C 752 25 709 51 673 83 C 637 115 609 153 589 196 C 568 239 554 284 547 332 L 700 373 C 710 333 722 298 737 268 C 751 237 770 211 792 189 C 814 167 842 151 874 140 C 906 128 945 123 991 123 C 1043 123 1089 131 1130 147 C 1170 163 1206 189 1236 224 C 1266 258 1292 302 1313 355 C 1334 408 1351 471 1364 545 L 1520 1434 L 1679 1434 L 1526 559 Z" unicode="Ĳ" />
<glyph horiz-adv-x="1028" d="M 477 1376 C 477 1361 474 1347 468 1334 C 462 1321 455 1310 445 1300 C 435 1290 424 1282 411 1276 C 398 1270 385 1268 371 1268 C 355 1268 340 1270 326 1276 C 312 1282 300 1290 290 1300 C 280 1310 272 1321 266 1334 C 260 1347 258 1361 258 1376 C 258 1391 260 1405 266 1419 C 272 1433 280 1445 290 1455 C 300 1465 312 1472 326 1478 C 340 1484 355 1487 371 1487 C 385 1487 398 1484 411 1478 C 424 1472 435 1465 445 1455 C 455 1445 462 1433 468 1419 C 474 1405 477 1391 477 1376 Z M 207 0 L 53 0 L 244 1075 L 397 1075 L 207 0 Z M 991 1376 C 991 1361 988 1347 982 1334 C 976 1321 969 1310 959 1300 C 949 1290 938 1282 925 1276 C 912 1270 899 1268 885 1268 C 869 1268 854 1270 840 1276 C 826 1282 814 1290 804 1300 C 794 1310 786 1321 780 1334 C 774 1347 772 1361 772 1376 C 772 1391 774 1405 780 1419 C 786 1433 794 1445 804 1455 C 814 1465 826 1472 840 1478 C 854 1484 869 1487 885 1487 C 899 1487 912 1484 925 1478 C 938 1472 949 1465 959 1455 C 969 1445 976 1433 982 1419 C 988 1405 991 1391 991 1376 Z M 723 14 C 711 -47 697 -100 679 -146 C 661 -192 638 -231 608 -264 C 578 -296 540 -323 496 -345 C 451 -366 396 -383 332 -395 L 299 -272 C 345 -262 384 -250 415 -236 C 446 -222 472 -205 492 -183 C 512 -161 527 -133 539 -99 C 551 -65 561 -23 571 27 L 758 1075 L 911 1075 L 723 14 Z" unicode="ĳ" />
<glyph horiz-adv-x="1176" d="M 969 559 C 949 440 920 340 882 258 C 844 176 789 110 717 61 C 633 5 538 -23 430 -23 C 360 -23 299 -13 247 6 C 195 25 152 51 116 83 C 80 115 52 153 32 196 C 11 239 -2 284 -10 332 L 143 373 C 153 333 165 298 180 268 C 194 237 213 211 235 189 C 257 167 285 151 317 140 C 349 128 388 123 434 123 C 486 123 532 131 573 147 C 613 163 649 189 679 224 C 709 258 735 302 756 355 C 777 408 794 471 807 545 L 963 1434 L 1122 1434 L 969 559 Z M 1252 1516 L 1084 1727 L 838 1516 L 705 1516 L 1016 1843 L 1188 1843 L 1381 1516 L 1252 1516 Z" unicode="Ĵ" />
<glyph horiz-adv-x="514" d="M 209 14 C 197 -47 183 -100 165 -146 C 147 -192 124 -231 94 -264 C 64 -296 26 -323 -18 -345 C -62 -366 -117 -383 -182 -395 L -215 -272 C -168 -262 -129 -250 -98 -236 C -67 -222 -42 -205 -22 -183 C -2 -161 13 -133 25 -99 C 37 -65 47 -23 57 27 L 244 1075 L 397 1075 L 209 14 Z M 543 1219 L 375 1430 L 129 1219 L -4 1219 L 307 1546 L 479 1546 L 672 1219 L 543 1219 Z" unicode="ĵ" />
<glyph horiz-adv-x="1307" d="M 754 895 L 1092 0 L 922 0 L 633 772 L 295 412 L 221 0 L 61 0 L 315 1434 L 475 1434 L 336 640 L 1081 1434 L 1264 1434 L 754 895 Z M 455 -471 L 365 -471 L 457 -86 L 633 -86 L 455 -471 Z" unicode="Ķ" />
<glyph horiz-adv-x="1026" d="M 600 692 L 815 0 L 659 0 L 487 571 L 252 309 L 197 0 L 43 0 L 293 1407 L 463 1493 L 287 512 L 776 1075 L 948 1075 L 600 692 Z M 322 -471 L 232 -471 L 324 -86 L 500 -86 L 322 -471 Z" unicode="ķ" />
<glyph horiz-adv-x="1026" d="M 600 692 L 815 0 L 659 0 L 487 571 L 252 309 L 197 0 L 43 0 L 233 1075 L 389 1075 L 289 514 L 776 1075 L 948 1075 L 600 692 Z" unicode="ĸ" />
<glyph horiz-adv-x="1169" d="M 924 0 L 61 0 L 315 1434 L 475 1434 L 248 145 L 950 145 L 924 0 Z M 466 1526 L 328 1526 L 597 1853 L 832 1853 L 466 1526 Z" unicode="Ĺ" />
<glyph horiz-adv-x="514" d="M 207 0 L 53 0 L 303 1407 L 473 1493 L 207 0 Z M 450 1526 L 312 1526 L 581 1853 L 816 1853 L 450 1526 Z" unicode="ĺ" />
<glyph horiz-adv-x="1169" d="M 924 0 L 61 0 L 315 1434 L 475 1434 L 248 145 L 950 145 L 924 0 Z M 396 -471 L 306 -471 L 398 -86 L 574 -86 L 396 -471 Z" unicode="Ļ" />
<glyph horiz-adv-x="514" d="M 207 0 L 53 0 L 303 1407 L 473 1493 L 207 0 Z M 31 -471 L -59 -471 L 33 -86 L 209 -86 L 31 -471 Z" unicode="ļ" />
<glyph horiz-adv-x="1169" d="M 924 0 L 61 0 L 315 1434 L 475 1434 L 248 145 L 950 145 L 924 0 Z M 747 1182 L 635 1182 L 747 1639 L 962 1639 L 747 1182 Z" unicode="Ľ" />
<glyph horiz-adv-x="545" d="M 207 0 L 53 0 L 303 1407 L 473 1493 L 207 0 Z M 577 977 L 465 977 L 577 1434 L 792 1434 L 577 977 Z" unicode="ľ" />
<glyph horiz-adv-x="1169" d="M 924 0 L 61 0 L 315 1434 L 475 1434 L 248 145 L 950 145 L 924 0 Z M 911 751 C 911 733 907 716 900 700 C 893 684 884 670 872 658 C 860 646 846 637 830 630 C 814 623 797 620 780 620 C 762 620 745 623 729 630 C 713 637 699 646 687 658 C 675 670 666 684 659 700 C 652 716 649 733 649 751 C 649 769 652 786 659 802 C 666 818 675 832 687 845 C 699 857 713 867 729 875 C 745 882 762 886 780 886 C 797 886 814 882 830 875 C 846 867 860 857 872 845 C 884 832 893 818 900 802 C 907 786 911 769 911 751 Z" unicode="Ŀ" />
<glyph horiz-adv-x="1006" d="M 207 0 L 53 0 L 303 1407 L 473 1493 L 207 0 Z M 899 752 C 899 734 895 717 888 701 C 881 685 872 671 860 659 C 848 647 834 638 818 631 C 802 624 785 621 768 621 C 750 621 733 624 717 631 C 701 638 687 647 675 659 C 663 671 654 685 647 701 C 640 717 637 734 637 752 C 637 770 640 787 647 803 C 654 819 663 833 675 846 C 687 858 701 868 717 876 C 733 883 750 887 768 887 C 785 887 802 883 818 876 C 834 868 848 858 860 846 C 872 833 881 819 888 803 C 895 787 899 770 899 752 Z" unicode="ŀ" />
<glyph horiz-adv-x="1190" d="M 944 0 L 82 0 L 170 494 L 23 377 L 53 559 L 203 676 L 336 1434 L 496 1434 L 381 788 L 762 1075 L 729 893 L 348 606 L 268 145 L 971 145 L 944 0 Z" unicode="Ł" />
<glyph horiz-adv-x="535" d="M 365 827 L 481 922 L 449 735 L 332 641 L 217 0 L 63 0 L 158 530 L 41 436 L 74 623 L 190 717 L 313 1407 L 483 1493 L 365 827 Z" unicode="ł" />
<glyph horiz-adv-x="1401" d="M 1085 0 L 936 0 L 425 1181 L 215 0 L 61 0 L 315 1434 L 471 1434 L 977 264 L 1186 1434 L 1339 1434 L 1085 0 Z M 811 1526 L 673 1526 L 942 1853 L 1177 1853 L 811 1526 Z" unicode="Ń" />
<glyph horiz-adv-x="1153" d="M 989 764 C 989 744 988 723 986 701 C 984 678 981 656 977 635 L 862 0 L 709 0 L 819 618 C 822 637 824 657 826 678 C 828 698 829 717 829 735 C 829 811 812 869 779 909 C 746 949 693 969 621 969 C 583 969 548 960 514 944 C 480 928 450 904 423 874 C 395 844 371 806 351 761 C 330 716 315 665 305 608 L 197 0 L 43 0 L 233 1075 L 385 1075 L 367 954 C 405 998 448 1033 496 1059 C 544 1085 599 1098 662 1098 C 764 1098 844 1068 902 1008 C 960 948 989 867 989 764 Z M 645 1219 L 507 1219 L 776 1546 L 1011 1546 L 645 1219 Z" unicode="ń" />
<glyph horiz-adv-x="1401" d="M 1085 0 L 936 0 L 425 1181 L 215 0 L 61 0 L 315 1434 L 471 1434 L 977 264 L 1186 1434 L 1339 1434 L 1085 0 Z M 494 -471 L 404 -471 L 496 -86 L 672 -86 L 494 -471 Z" unicode="Ņ" />
<glyph horiz-adv-x="1153" d="M 989 764 C 989 744 988 723 986 701 C 984 678 981 656 977 635 L 862 0 L 709 0 L 819 618 C 822 637 824 657 826 678 C 828 698 829 717 829 735 C 829 811 812 869 779 909 C 746 949 693 969 621 969 C 583 969 548 960 514 944 C 480 928 450 904 423 874 C 395 844 371 806 351 761 C 330 716 315 665 305 608 L 197 0 L 43 0 L 233 1075 L 385 1075 L 367 954 C 405 998 448 1033 496 1059 C 544 1085 599 1098 662 1098 C 764 1098 844 1068 902 1008 C 960 948 989 867 989 764 Z M 348 -471 L 258 -471 L 350 -86 L 526 -86 L 348 -471 Z" unicode="ņ" />
<glyph horiz-adv-x="1401" d="M 1085 0 L 936 0 L 425 1181 L 215 0 L 61 0 L 315 1434 L 471 1434 L 977 264 L 1186 1434 L 1339 1434 L 1085 0 Z M 926 1526 L 754 1526 L 561 1853 L 690 1853 L 858 1642 L 1104 1853 L 1237 1853 L 926 1526 Z" unicode="Ň" />
<glyph horiz-adv-x="1153" d="M 989 764 C 989 744 988 723 986 701 C 984 678 981 656 977 635 L 862 0 L 709 0 L 819 618 C 822 637 824 657 826 678 C 828 698 829 717 829 735 C 829 811 812 869 779 909 C 746 949 693 969 621 969 C 583 969 548 960 514 944 C 480 928 450 904 423 874 C 395 844 371 806 351 761 C 330 716 315 665 305 608 L 197 0 L 43 0 L 233 1075 L 385 1075 L 367 954 C 405 998 448 1033 496 1059 C 544 1085 599 1098 662 1098 C 764 1098 844 1068 902 1008 C 960 948 989 867 989 764 Z M 739 1219 L 567 1219 L 374 1546 L 503 1546 L 671 1335 L 917 1546 L 1050 1546 L 739 1219 Z" unicode="ň" />
<glyph horiz-adv-x="1614" d="M 1450 764 C 1450 744 1449 723 1447 701 C 1445 678 1442 656 1438 635 L 1323 0 L 1170 0 L 1280 618 C 1283 637 1285 657 1287 678 C 1289 698 1290 717 1290 735 C 1290 811 1273 869 1240 909 C 1207 949 1154 969 1082 969 C 1044 969 1009 960 975 944 C 941 928 911 904 884 874 C 856 844 832 806 812 761 C 791 716 776 665 766 608 L 658 0 L 504 0 L 694 1075 L 846 1075 L 828 954 C 866 998 909 1033 957 1059 C 1005 1085 1060 1098 1123 1098 C 1225 1098 1305 1068 1363 1008 C 1421 948 1450 867 1450 764 Z M 307 977 L 195 977 L 307 1434 L 522 1434 L 307 977 Z" unicode="ŉ" />
<glyph horiz-adv-x="1401" d="M 1085 0 C 1073 -58 1059 -110 1041 -154 C 1023 -198 999 -235 969 -267 C 939 -299 902 -325 858 -346 C 814 -366 760 -383 696 -395 L 664 -272 C 709 -262 747 -250 777 -237 C 807 -224 833 -207 853 -187 C 873 -166 888 -140 900 -109 C 912 -77 922 -38 932 8 L 425 1181 L 215 0 L 61 0 L 315 1434 L 471 1434 L 977 264 L 1186 1434 L 1339 1434 L 1085 0 Z" unicode="Ŋ" />
<glyph horiz-adv-x="1153" d="M 989 764 C 989 744 988 723 986 701 C 984 678 981 656 977 635 L 862 0 C 850 -59 835 -110 817 -154 C 799 -198 775 -235 745 -267 C 715 -299 678 -325 634 -346 C 590 -366 536 -383 473 -395 L 440 -272 C 487 -262 526 -250 557 -236 C 587 -222 613 -205 633 -183 C 653 -161 669 -133 681 -99 C 693 -65 703 -23 713 27 L 819 618 C 822 637 824 657 826 678 C 828 698 829 717 829 735 C 829 811 812 869 779 909 C 746 949 693 969 621 969 C 583 969 548 961 514 945 C 480 929 450 905 422 875 C 394 844 370 806 350 761 C 330 716 315 665 305 608 L 197 0 L 43 0 L 233 1075 L 385 1075 L 367 954 C 384 974 402 992 422 1010 C 442 1027 464 1042 488 1055 C 512 1068 538 1078 566 1086 C 594 1094 626 1098 662 1098 C 708 1098 752 1091 792 1077 C 832 1063 866 1042 896 1014 C 925 986 948 952 964 910 C 980 868 989 820 989 764 Z" unicode="ŋ" />
<glyph horiz-adv-x="1436" d="M 1325 881 C 1325 797 1316 716 1300 639 C 1284 562 1260 490 1230 423 C 1200 356 1163 295 1121 240 C 1078 185 1030 138 978 99 C 926 60 869 30 808 9 C 747 -12 684 -23 618 -23 C 540 -23 469 -9 407 17 C 345 44 292 83 248 133 C 204 183 170 243 146 314 C 122 385 111 465 111 553 C 111 636 119 716 135 794 C 151 871 175 943 205 1010 C 235 1077 272 1138 315 1193 C 357 1247 405 1294 457 1333 C 509 1372 566 1402 627 1424 C 687 1445 751 1456 817 1456 C 895 1456 965 1442 1028 1415 C 1090 1388 1144 1350 1188 1300 C 1232 1250 1265 1190 1289 1119 C 1313 1048 1325 969 1325 881 Z M 1165 852 C 1165 921 1157 984 1141 1041 C 1125 1097 1101 1146 1070 1186 C 1038 1226 1000 1256 954 1278 C 908 1300 854 1311 794 1311 C 723 1311 656 1292 592 1254 C 528 1216 472 1164 424 1098 C 376 1032 339 955 311 867 C 283 778 270 683 270 582 C 270 512 278 448 294 392 C 310 336 333 288 365 248 C 397 208 436 177 482 155 C 528 133 581 123 641 123 C 713 123 780 142 844 180 C 907 218 962 269 1010 335 C 1058 401 1095 478 1123 567 C 1151 655 1165 750 1165 852 Z M 1129 1573 L 572 1573 L 596 1716 L 1153 1716 L 1129 1573 Z" unicode="Ō" />
<glyph horiz-adv-x="1151" d="M 86 436 C 86 538 100 630 128 712 C 156 794 194 863 242 920 C 289 977 344 1021 406 1052 C 468 1082 534 1098 602 1098 C 666 1098 725 1087 778 1066 C 831 1044 876 1014 913 974 C 950 934 979 886 999 830 C 1019 773 1030 709 1030 639 C 1030 536 1015 444 987 362 C 959 280 921 211 874 154 C 826 97 771 53 709 23 C 647 -7 582 -23 514 -23 C 448 -23 389 -12 337 9 C 284 30 239 60 202 100 C 165 140 136 188 116 245 C 96 301 86 365 86 436 Z M 242 440 C 242 386 248 339 261 298 C 274 257 293 222 319 194 C 345 165 376 144 412 131 C 448 117 486 111 528 111 C 578 111 625 124 667 150 C 709 176 746 212 777 258 C 807 304 831 360 848 424 C 865 488 874 559 874 635 C 874 681 868 725 857 766 C 845 807 827 843 802 873 C 777 903 746 926 710 942 C 673 957 632 965 588 965 C 537 965 490 952 448 926 C 406 900 369 863 339 817 C 308 770 284 714 267 650 C 250 586 242 516 242 440 Z M 952 1266 L 395 1266 L 419 1409 L 976 1409 L 952 1266 Z" unicode="ō" />
<glyph horiz-adv-x="1436" d="M 1325 881 C 1325 797 1316 716 1300 639 C 1284 562 1260 490 1230 423 C 1200 356 1163 295 1121 240 C 1078 185 1030 138 978 99 C 926 60 869 30 808 9 C 747 -12 684 -23 618 -23 C 540 -23 469 -9 407 17 C 345 44 292 83 248 133 C 204 183 170 243 146 314 C 122 385 111 465 111 553 C 111 636 119 716 135 794 C 151 871 175 943 205 1010 C 235 1077 272 1138 315 1193 C 357 1247 405 1294 457 1333 C 509 1372 566 1402 627 1424 C 687 1445 751 1456 817 1456 C 895 1456 965 1442 1028 1415 C 1090 1388 1144 1350 1188 1300 C 1232 1250 1265 1190 1289 1119 C 1313 1048 1325 969 1325 881 Z M 1165 852 C 1165 921 1157 984 1141 1041 C 1125 1097 1101 1146 1070 1186 C 1038 1226 1000 1256 954 1278 C 908 1300 854 1311 794 1311 C 723 1311 656 1292 592 1254 C 528 1216 472 1164 424 1098 C 376 1032 339 955 311 867 C 283 778 270 683 270 582 C 270 512 278 448 294 392 C 310 336 333 288 365 248 C 397 208 436 177 482 155 C 528 133 581 123 641 123 C 713 123 780 142 844 180 C 907 218 962 269 1010 335 C 1058 401 1095 478 1123 567 C 1151 655 1165 750 1165 852 Z M 1264 1843 C 1240 1740 1194 1660 1126 1602 C 1058 1544 972 1516 868 1516 C 818 1516 773 1523 733 1538 C 693 1553 660 1575 634 1603 C 608 1631 589 1665 578 1705 C 566 1745 564 1791 571 1843 L 696 1843 C 688 1771 701 1717 735 1682 C 769 1647 820 1630 889 1630 C 948 1630 999 1647 1043 1681 C 1086 1715 1117 1769 1137 1843 L 1264 1843 Z" unicode="Ŏ" />
<glyph horiz-adv-x="1151" d="M 86 436 C 86 538 100 630 128 712 C 156 794 194 863 242 920 C 289 977 344 1021 406 1052 C 468 1082 534 1098 602 1098 C 666 1098 725 1087 778 1066 C 831 1044 876 1014 913 974 C 950 934 979 886 999 830 C 1019 773 1030 709 1030 639 C 1030 536 1015 444 987 362 C 959 280 921 211 874 154 C 826 97 771 53 709 23 C 647 -7 582 -23 514 -23 C 448 -23 389 -12 337 9 C 284 30 239 60 202 100 C 165 140 136 188 116 245 C 96 301 86 365 86 436 Z M 242 440 C 242 386 248 339 261 298 C 274 257 293 222 319 194 C 345 165 376 144 412 131 C 448 117 486 111 528 111 C 578 111 625 124 667 150 C 709 176 746 212 777 258 C 807 304 831 360 848 424 C 865 488 874 559 874 635 C 874 681 868 725 857 766 C 845 807 827 843 802 873 C 777 903 746 926 710 942 C 673 957 632 965 588 965 C 537 965 490 952 448 926 C 406 900 369 863 339 817 C 308 770 284 714 267 650 C 250 586 242 516 242 440 Z M 1084 1546 C 1060 1443 1014 1363 946 1305 C 878 1247 792 1219 688 1219 C 638 1219 593 1226 553 1241 C 513 1256 480 1278 454 1306 C 428 1334 409 1368 398 1408 C 386 1448 384 1494 391 1546 L 516 1546 C 508 1474 521 1420 555 1385 C 589 1350 640 1333 709 1333 C 768 1333 819 1350 863 1384 C 906 1418 937 1472 957 1546 L 1084 1546 Z" unicode="ŏ" />
<glyph horiz-adv-x="1436" d="M 1325 881 C 1325 797 1316 716 1300 639 C 1284 562 1260 490 1230 423 C 1200 356 1163 295 1121 240 C 1078 185 1030 138 978 99 C 926 60 869 30 808 9 C 747 -12 684 -23 618 -23 C 540 -23 469 -9 407 17 C 345 44 292 83 248 133 C 204 183 170 243 146 314 C 122 385 111 465 111 553 C 111 636 119 716 135 794 C 151 871 175 943 205 1010 C 235 1077 272 1138 315 1193 C 357 1247 405 1294 457 1333 C 509 1372 566 1402 627 1424 C 687 1445 751 1456 817 1456 C 895 1456 965 1442 1028 1415 C 1090 1388 1144 1350 1188 1300 C 1232 1250 1265 1190 1289 1119 C 1313 1048 1325 969 1325 881 Z M 1165 852 C 1165 921 1157 984 1141 1041 C 1125 1097 1101 1146 1070 1186 C 1038 1226 1000 1256 954 1278 C 908 1300 854 1311 794 1311 C 723 1311 656 1292 592 1254 C 528 1216 472 1164 424 1098 C 376 1032 339 955 311 867 C 283 778 270 683 270 582 C 270 512 278 448 294 392 C 310 336 333 288 365 248 C 397 208 436 177 482 155 C 528 133 581 123 641 123 C 713 123 780 142 844 180 C 907 218 962 269 1010 335 C 1058 401 1095 478 1123 567 C 1151 655 1165 750 1165 852 Z M 1040 1526 L 911 1526 L 1179 1853 L 1407 1853 L 1040 1526 Z M 676 1526 L 547 1526 L 815 1853 L 1042 1853 L 676 1526 Z" unicode="Ő" />
<glyph horiz-adv-x="1151" d="M 86 436 C 86 538 100 630 128 712 C 156 794 194 863 242 920 C 289 977 344 1021 406 1052 C 468 1082 534 1098 602 1098 C 666 1098 725 1087 778 1066 C 831 1044 876 1014 913 974 C 950 934 979 886 999 830 C 1019 773 1030 709 1030 639 C 1030 536 1015 444 987 362 C 959 280 921 211 874 154 C 826 97 771 53 709 23 C 647 -7 582 -23 514 -23 C 448 -23 389 -12 337 9 C 284 30 239 60 202 100 C 165 140 136 188 116 245 C 96 301 86 365 86 436 Z M 242 440 C 242 386 248 339 261 298 C 274 257 293 222 319 194 C 345 165 376 144 412 131 C 448 117 486 111 528 111 C 578 111 625 124 667 150 C 709 176 746 212 777 258 C 807 304 831 360 848 424 C 865 488 874 559 874 635 C 874 681 868 725 857 766 C 845 807 827 843 802 873 C 777 903 746 926 710 942 C 673 957 632 965 588 965 C 537 965 490 952 448 926 C 406 900 369 863 339 817 C 308 770 284 714 267 650 C 250 586 242 516 242 440 Z M 858 1219 L 729 1219 L 997 1546 L 1225 1546 L 858 1219 Z M 494 1219 L 365 1219 L 633 1546 L 860 1546 L 494 1219 Z" unicode="ő" />
<glyph horiz-adv-x="2128" d="M 1151 872 C 1151 940 1143 1001 1127 1055 C 1111 1109 1087 1156 1057 1194 C 1026 1232 988 1261 942 1281 C 896 1301 844 1311 786 1311 C 718 1311 652 1292 588 1254 C 524 1216 469 1163 421 1095 C 373 1026 336 948 310 860 C 283 772 270 680 270 582 C 270 512 277 448 293 392 C 309 336 332 288 363 248 C 393 208 431 177 476 155 C 521 133 573 123 633 123 C 706 123 775 144 841 187 C 907 229 963 287 1010 361 C 1056 434 1091 514 1115 601 C 1139 687 1151 778 1151 872 Z M 1182 145 L 1911 145 L 1884 0 L 1012 0 L 1051 217 C 1025 182 997 150 968 121 C 939 91 907 66 872 45 C 837 23 799 7 757 -5 C 715 -17 668 -23 616 -23 C 538 -23 467 -9 405 17 C 343 44 290 83 246 133 C 202 183 169 243 146 314 C 122 385 111 465 111 553 C 111 636 119 716 135 794 C 151 871 175 943 205 1010 C 235 1077 271 1138 314 1193 C 356 1247 404 1294 456 1333 C 508 1372 564 1402 625 1424 C 685 1445 749 1456 815 1456 C 868 1456 917 1449 961 1436 C 1005 1422 1044 1404 1079 1381 C 1113 1358 1143 1331 1167 1300 C 1191 1269 1211 1236 1225 1202 L 1266 1434 L 2105 1434 L 2081 1288 L 1382 1288 L 1303 838 L 1866 838 L 1841 692 L 1278 692 L 1182 145 Z" unicode="Œ" />
<glyph horiz-adv-x="1827" d="M 977 485 C 973 427 976 376 986 330 C 996 284 1012 244 1036 212 C 1059 179 1089 154 1126 137 C 1162 119 1205 111 1255 111 C 1304 111 1350 119 1394 135 C 1438 151 1480 171 1520 197 L 1577 80 C 1519 44 1464 18 1410 2 C 1356 -14 1296 -23 1231 -23 C 1153 -23 1080 0 1013 47 C 946 94 901 153 879 223 C 829 136 772 73 709 35 C 645 -3 576 -23 500 -23 C 436 -23 379 -12 328 9 C 277 30 234 60 198 100 C 162 140 134 188 115 245 C 95 301 86 365 86 436 C 86 538 99 630 127 712 C 155 794 192 863 239 920 C 285 977 339 1021 401 1052 C 463 1082 528 1098 596 1098 C 682 1098 754 1078 813 1038 C 871 998 917 936 950 854 C 969 890 991 922 1016 952 C 1040 982 1068 1007 1098 1029 C 1128 1051 1162 1068 1200 1080 C 1238 1092 1279 1098 1325 1098 C 1386 1098 1440 1087 1488 1067 C 1535 1046 1575 1017 1607 979 C 1639 941 1664 896 1681 844 C 1697 791 1706 732 1706 668 C 1706 632 1704 598 1700 566 C 1696 534 1692 507 1686 485 L 977 485 Z M 1556 610 C 1560 662 1558 709 1551 753 C 1543 797 1530 834 1511 866 C 1491 897 1465 921 1433 939 C 1401 956 1362 965 1317 965 C 1274 965 1235 956 1200 939 C 1165 921 1134 897 1107 866 C 1080 834 1057 797 1038 753 C 1019 709 1005 662 995 610 L 1556 610 Z M 242 440 C 242 389 247 343 259 303 C 271 262 288 227 310 199 C 332 171 360 149 393 134 C 426 118 464 111 508 111 C 558 111 604 124 646 150 C 688 176 724 212 755 258 C 786 304 810 360 828 424 C 845 488 854 559 854 635 C 854 685 848 731 836 772 C 824 812 807 847 784 876 C 761 904 732 926 698 942 C 664 957 624 965 580 965 C 530 965 484 951 443 925 C 401 898 366 861 336 814 C 306 767 283 712 267 648 C 250 584 242 514 242 440 Z" unicode="œ" />
<glyph horiz-adv-x="1323" d="M 1245 1069 C 1245 995 1233 933 1209 881 C 1185 829 1153 785 1114 750 C 1075 715 1031 687 981 667 C 931 646 881 631 831 621 L 1047 0 L 877 0 L 666 610 L 330 610 L 221 0 L 61 0 L 315 1434 L 791 1434 C 859 1434 921 1426 977 1412 C 1033 1397 1080 1375 1120 1345 C 1160 1315 1190 1277 1212 1231 C 1234 1185 1245 1131 1245 1069 Z M 1083 1063 C 1083 1136 1058 1192 1009 1230 C 959 1268 880 1288 772 1288 L 449 1288 L 354 754 L 733 754 C 845 754 932 781 992 836 C 1052 890 1083 966 1083 1063 Z M 732 1526 L 594 1526 L 863 1853 L 1098 1853 L 732 1526 Z" unicode="Ŕ" />
<glyph horiz-adv-x="829" d="M 756 928 C 739 937 720 944 698 949 C 676 953 649 956 616 956 C 579 956 544 949 512 937 C 479 924 449 904 422 877 C 394 849 371 814 352 772 C 332 730 317 679 307 621 L 197 0 L 43 0 L 233 1075 L 385 1075 L 365 948 C 397 990 440 1026 492 1055 C 544 1083 597 1098 653 1098 C 693 1098 725 1095 751 1090 C 777 1085 798 1079 815 1071 L 756 928 Z M 565 1219 L 427 1219 L 696 1546 L 931 1546 L 565 1219 Z" unicode="ŕ" />
<glyph horiz-adv-x="1323" d="M 1245 1069 C 1245 995 1233 933 1209 881 C 1185 829 1153 785 1114 750 C 1075 715 1031 687 981 667 C 931 646 881 631 831 621 L 1047 0 L 877 0 L 666 610 L 330 610 L 221 0 L 61 0 L 315 1434 L 791 1434 C 859 1434 921 1426 977 1412 C 1033 1397 1080 1375 1120 1345 C 1160 1315 1190 1277 1212 1231 C 1234 1185 1245 1131 1245 1069 Z M 1083 1063 C 1083 1136 1058 1192 1009 1230 C 959 1268 880 1288 772 1288 L 449 1288 L 354 754 L 733 754 C 845 754 932 781 992 836 C 1052 890 1083 966 1083 1063 Z M 434 -471 L 344 -471 L 436 -86 L 612 -86 L 434 -471 Z" unicode="Ŗ" />
<glyph horiz-adv-x="829" d="M 756 928 C 739 937 720 944 698 949 C 676 953 649 956 616 956 C 579 956 544 949 512 937 C 479 924 449 904 422 877 C 394 849 371 814 352 772 C 332 730 317 679 307 621 L 197 0 L 43 0 L 233 1075 L 385 1075 L 365 948 C 397 990 440 1026 492 1055 C 544 1083 597 1098 653 1098 C 693 1098 725 1095 751 1090 C 777 1085 798 1079 815 1071 L 756 928 Z M 26 -471 L -64 -471 L 28 -86 L 204 -86 L 26 -471 Z" unicode="ŗ" />
<glyph horiz-adv-x="1323" d="M 1245 1069 C 1245 995 1233 933 1209 881 C 1185 829 1153 785 1114 750 C 1075 715 1031 687 981 667 C 931 646 881 631 831 621 L 1047 0 L 877 0 L 666 610 L 330 610 L 221 0 L 61 0 L 315 1434 L 791 1434 C 859 1434 921 1426 977 1412 C 1033 1397 1080 1375 1120 1345 C 1160 1315 1190 1277 1212 1231 C 1234 1185 1245 1131 1245 1069 Z M 1083 1063 C 1083 1136 1058 1192 1009 1230 C 959 1268 880 1288 772 1288 L 449 1288 L 354 754 L 733 754 C 845 754 932 781 992 836 C 1052 890 1083 966 1083 1063 Z M 828 1526 L 656 1526 L 463 1853 L 592 1853 L 760 1642 L 1006 1853 L 1139 1853 L 828 1526 Z" unicode="Ř" />
<glyph horiz-adv-x="829" d="M 756 928 C 739 937 720 944 698 949 C 676 953 649 956 616 956 C 579 956 544 949 512 937 C 479 924 449 904 422 877 C 394 849 371 814 352 772 C 332 730 317 679 307 621 L 197 0 L 43 0 L 233 1075 L 385 1075 L 365 948 C 397 990 440 1026 492 1055 C 544 1083 597 1098 653 1098 C 693 1098 725 1095 751 1090 C 777 1085 798 1079 815 1071 L 756 928 Z M 579 1219 L 407 1219 L 214 1546 L 343 1546 L 511 1335 L 757 1546 L 890 1546 L 579 1219 Z" unicode="ř" />
</font>
</defs>
</svg>
