<?xml version="1.0" standalone="yes"?><svg version="1.1" xmlns = 'http://www.w3.org/2000/svg'><defs><font id='web' horiz-adv-x="1000">
<font-face font-family="web" descent="-410" cap-height="1434" units-per-em="2048" bbox="-451,-490,2730,2181" x-height="1075" ascent="1638" />
<missing-glyph horiz-adv-x="1024" d="" /><glyph horiz-adv-x="942" d="M 113 651 L 113 848 L 829 848 L 829 651 L 113 651 Z" unicode="–" />
<glyph horiz-adv-x="1270" d="M 113 651 L 113 848 L 1157 848 L 1157 651 L 113 651 Z" unicode="—" />
<glyph horiz-adv-x="543" d="M 381 920 L 113 920 L 268 1434 L 410 1434 L 381 920 Z" unicode="‘" />
<glyph horiz-adv-x="543" d="M 274 920 L 133 920 L 162 1434 L 430 1434 L 274 920 Z" unicode="’" />
<glyph horiz-adv-x="543" d="M 274 -229 L 133 -229 L 162 285 L 430 285 L 274 -229 Z" unicode="‚" />
<glyph horiz-adv-x="1024" d="M 862 920 L 594 920 L 750 1434 L 891 1434 L 862 920 Z M 381 920 L 113 920 L 268 1434 L 410 1434 L 381 920 Z" unicode="“" />
<glyph horiz-adv-x="1024" d="M 756 920 L 614 920 L 643 1434 L 911 1434 L 756 920 Z M 274 920 L 133 920 L 162 1434 L 430 1434 L 274 920 Z" unicode="”" />
<glyph horiz-adv-x="1024" d="M 756 -229 L 614 -229 L 643 285 L 911 285 L 756 -229 Z M 274 -229 L 133 -229 L 162 285 L 430 285 L 274 -229 Z" unicode="„" />
<glyph horiz-adv-x="553" d="" unicode=" " />
<glyph horiz-adv-x="610" d="M 373 414 L 238 414 L 197 797 L 197 1434 L 414 1434 L 414 797 L 373 414 Z M 459 131 C 459 109 454 89 446 71 C 438 52 427 36 413 22 C 399 8 382 -3 364 -11 C 345 -19 325 -23 305 -23 C 283 -23 263 -19 245 -11 C 227 -3 211 8 197 22 C 183 36 172 52 164 71 C 156 89 152 109 152 131 C 152 151 156 171 164 190 C 172 209 183 226 197 240 C 211 254 227 266 245 274 C 263 282 283 287 305 287 C 325 287 345 282 364 274 C 382 266 399 254 413 240 C 427 226 438 209 446 190 C 454 171 459 151 459 131 Z" unicode="!" />
<glyph horiz-adv-x="1004" d="M 805 764 L 651 764 L 600 1434 L 856 1434 L 805 764 Z M 352 764 L 199 764 L 147 1434 L 403 1434 L 352 764 Z" unicode="&#x22;" />
<glyph horiz-adv-x="1270" d="M 971 340 L 971 0 L 782 0 L 782 340 L 487 340 L 487 0 L 299 0 L 299 340 L 94 340 L 94 508 L 299 508 L 299 926 L 94 926 L 94 1094 L 299 1094 L 299 1434 L 487 1434 L 487 1094 L 782 1094 L 782 1434 L 971 1434 L 971 1094 L 1176 1094 L 1176 926 L 971 926 L 971 508 L 1176 508 L 1176 340 L 971 340 Z M 786 928 L 483 928 L 483 506 L 786 506 L 786 928 Z" unicode="#" />
<glyph horiz-adv-x="1270" d="M 1139 406 C 1139 350 1129 300 1111 255 C 1092 209 1065 169 1030 135 C 995 101 952 73 902 51 C 852 29 795 14 733 6 L 733 -203 L 522 -203 L 522 6 C 480 10 440 18 402 29 C 363 40 326 53 291 69 C 255 84 222 101 190 121 C 158 140 130 160 104 182 L 229 348 C 258 324 289 303 321 284 C 353 264 386 247 420 233 C 454 219 488 208 524 200 C 559 192 595 188 631 188 C 722 188 793 205 844 240 C 894 275 920 326 920 393 C 920 421 914 446 904 468 C 894 490 876 510 851 529 C 826 547 792 565 750 582 C 708 599 655 617 592 637 C 510 662 440 687 383 713 C 326 739 280 767 244 799 C 208 831 183 867 167 908 C 151 949 143 998 143 1055 C 143 1107 152 1155 170 1198 C 188 1240 213 1277 246 1309 C 279 1341 319 1366 366 1386 C 412 1406 464 1419 522 1427 L 522 1636 L 735 1636 L 735 1430 C 773 1426 808 1421 842 1413 C 875 1405 907 1394 937 1382 C 967 1370 996 1355 1024 1339 C 1052 1323 1080 1305 1108 1286 L 985 1116 C 955 1136 925 1155 897 1171 C 869 1187 840 1201 811 1212 C 781 1222 751 1230 719 1236 C 687 1242 654 1245 618 1245 C 572 1245 533 1240 501 1231 C 469 1222 442 1210 422 1194 C 402 1178 387 1159 378 1138 C 369 1116 365 1093 365 1069 C 365 1043 369 1021 377 1001 C 385 981 400 962 424 944 C 448 926 481 909 523 891 C 565 873 620 854 688 834 C 772 808 843 781 901 755 C 958 728 1004 698 1040 666 C 1075 633 1100 596 1116 554 C 1131 512 1139 462 1139 406 Z" unicode="$" />
<glyph horiz-adv-x="1270" d="M 524 1059 C 524 937 503 841 463 771 C 422 701 367 666 297 666 C 228 666 174 699 134 765 C 94 831 74 929 74 1059 C 74 1190 95 1289 137 1356 C 179 1422 233 1456 297 1456 C 371 1456 428 1421 466 1351 C 504 1281 524 1183 524 1059 Z M 381 1059 C 381 1145 374 1211 360 1256 C 346 1300 325 1323 297 1323 C 268 1323 247 1301 234 1258 C 221 1214 215 1149 215 1063 C 215 976 222 910 236 866 C 250 821 272 799 301 799 C 328 799 348 821 361 865 C 374 909 381 974 381 1059 Z M 360 0 L 219 0 L 909 1434 L 1051 1434 L 360 0 Z M 1196 375 C 1196 249 1175 151 1135 82 C 1094 12 1039 -22 971 -23 C 899 -22 843 12 804 82 C 764 151 745 247 745 371 C 745 499 766 597 808 665 C 850 733 905 768 971 768 C 1042 768 1097 734 1137 667 C 1176 600 1196 503 1196 375 Z M 1055 371 C 1055 461 1047 527 1033 570 C 1018 613 997 635 970 635 C 941 635 920 613 908 570 C 895 526 889 461 889 375 C 889 288 896 222 910 178 C 924 133 945 111 974 111 C 1002 111 1023 133 1036 177 C 1048 221 1055 286 1055 371 Z" unicode="%" />
<glyph horiz-adv-x="1393" d="M 1331 0 L 1085 0 L 973 133 C 919 85 858 47 791 19 C 724 -8 650 -23 569 -23 C 493 -23 426 -13 370 5 C 313 24 266 51 229 85 C 192 119 164 160 146 208 C 128 256 119 309 119 367 C 119 415 125 459 138 499 C 150 539 169 575 195 609 C 220 643 251 674 289 704 C 326 734 370 763 420 791 L 393 823 C 369 852 349 879 332 905 C 315 930 301 955 290 979 C 279 1003 271 1026 266 1050 C 260 1074 258 1099 258 1126 C 258 1178 267 1224 286 1265 C 304 1305 331 1340 365 1368 C 399 1396 441 1418 490 1433 C 539 1448 594 1456 655 1456 C 721 1456 786 1444 850 1421 C 914 1398 977 1365 1040 1321 L 940 1149 C 912 1169 885 1185 861 1199 C 836 1213 812 1224 788 1233 C 764 1241 739 1247 715 1251 C 691 1255 665 1257 637 1257 C 581 1257 539 1245 513 1223 C 486 1201 473 1170 473 1130 C 473 1115 474 1101 476 1088 C 478 1075 481 1062 487 1049 C 493 1036 500 1022 510 1008 C 519 993 531 976 547 958 L 967 444 C 988 481 1007 520 1023 561 C 1039 601 1053 642 1065 682 L 1260 627 C 1244 568 1224 509 1198 450 C 1172 390 1141 334 1104 281 L 1331 0 Z M 846 285 L 543 645 C 509 625 479 606 453 587 C 427 568 405 548 387 526 C 369 504 356 481 347 457 C 338 433 334 406 334 377 C 334 348 339 321 349 297 C 359 272 374 250 394 232 C 414 214 439 199 470 189 C 500 179 536 174 578 174 C 631 174 680 184 725 204 C 769 224 810 251 846 285 Z" unicode="&#x26;" />
<glyph horiz-adv-x="551" d="M 358 764 L 193 764 L 141 1434 L 410 1434 L 358 764 Z" unicode="'" />
<glyph horiz-adv-x="1270" d="M 944 -225 C 898 -198 852 -168 806 -136 C 760 -103 716 -67 674 -27 C 632 12 593 55 557 101 C 521 147 489 197 463 250 C 436 303 415 360 400 420 C 384 480 377 544 377 612 C 377 683 384 750 400 813 C 415 875 436 934 463 989 C 489 1043 521 1094 557 1141 C 593 1187 632 1230 674 1270 C 716 1310 760 1346 806 1379 C 852 1411 898 1441 944 1468 L 1030 1372 C 966 1322 909 1272 858 1220 C 807 1168 764 1113 728 1054 C 692 994 664 929 645 859 C 625 789 616 711 616 625 C 616 535 625 455 645 384 C 664 312 692 247 728 188 C 764 128 807 73 858 22 C 909 -29 966 -79 1030 -129 L 944 -225 Z" unicode="(" />
<glyph horiz-adv-x="1270" d="M 893 631 C 893 559 885 492 870 430 C 854 367 833 308 807 254 C 780 199 749 148 713 102 C 677 55 638 12 596 -27 C 554 -67 510 -103 464 -136 C 418 -168 372 -198 326 -225 L 240 -129 C 303 -79 360 -29 411 22 C 462 74 505 129 541 189 C 577 249 604 314 624 384 C 643 454 653 532 653 618 C 653 707 643 787 624 859 C 604 930 577 995 541 1055 C 505 1115 462 1170 411 1221 C 360 1272 303 1322 240 1372 L 326 1468 C 372 1441 418 1411 464 1379 C 510 1346 554 1310 596 1270 C 638 1230 677 1187 713 1141 C 749 1095 780 1045 807 992 C 833 939 854 882 870 822 C 885 762 893 698 893 631 Z" unicode=")" />
<glyph horiz-adv-x="1024" d="M 872 952 L 791 813 L 563 975 L 594 696 L 434 696 L 461 977 L 233 813 L 152 952 L 408 1067 L 154 1182 L 236 1321 L 461 1155 L 434 1434 L 594 1434 L 563 1157 L 788 1321 L 870 1182 L 612 1067 L 872 952 Z" unicode="*" />
<glyph horiz-adv-x="1270" d="M 739 606 L 739 190 L 530 190 L 530 606 L 133 606 L 133 803 L 530 803 L 530 1219 L 739 1219 L 739 803 L 1137 803 L 1137 606 L 739 606 Z" unicode="+" />
<glyph horiz-adv-x="635" d="M 300 -258 L 155 -258 L 185 285 L 454 285 L 300 -258 Z" unicode="," />
<glyph horiz-adv-x="737" d="M 113 645 L 113 854 L 625 854 L 625 645 L 113 645 Z" unicode="-" />
<glyph horiz-adv-x="635" d="M 479 139 C 479 116 474 95 466 75 C 458 55 446 38 432 24 C 417 9 400 -2 380 -10 C 360 -18 339 -23 317 -23 C 294 -23 273 -18 253 -10 C 233 -2 216 9 202 24 C 188 38 176 55 168 75 C 160 95 156 116 156 139 C 156 161 160 182 168 202 C 176 222 188 239 202 254 C 216 269 233 281 253 290 C 273 298 294 303 317 303 C 339 303 360 298 380 290 C 400 281 417 269 432 254 C 446 239 458 222 466 202 C 474 182 479 161 479 139 Z" unicode="." />
<glyph horiz-adv-x="913" d="M 244 -184 L 33 -184 L 670 1618 L 881 1618 L 244 -184 Z" unicode="/" />
<glyph horiz-adv-x="1270" d="M 1167 717 C 1167 597 1153 492 1127 400 C 1101 308 1064 230 1017 168 C 970 105 914 57 849 25 C 784 -6 713 -23 635 -23 C 557 -23 485 -6 419 25 C 353 57 297 105 250 167 C 202 229 165 307 139 399 C 113 491 100 597 100 717 C 100 836 113 942 140 1034 C 166 1126 203 1203 251 1265 C 298 1327 354 1375 420 1407 C 485 1439 557 1456 635 1456 C 713 1456 784 1440 850 1408 C 915 1376 971 1328 1018 1266 C 1065 1203 1102 1126 1128 1034 C 1154 942 1167 837 1167 717 Z M 952 717 C 952 805 944 884 929 952 C 914 1020 893 1077 866 1124 C 838 1170 805 1206 766 1230 C 727 1254 683 1266 635 1266 C 585 1266 541 1254 502 1230 C 462 1206 429 1171 402 1125 C 374 1078 353 1020 339 952 C 324 884 317 805 317 717 C 317 628 324 549 339 481 C 354 413 375 355 403 309 C 430 263 463 228 503 204 C 542 180 586 168 635 168 C 683 168 727 179 767 203 C 806 227 839 262 867 308 C 894 354 915 412 930 480 C 944 548 952 627 952 717 Z" unicode="0" />
<glyph horiz-adv-x="1270" d="M 240 0 L 240 182 L 561 182 L 561 1102 L 272 1102 L 272 1245 C 320 1247 363 1252 401 1260 C 439 1267 471 1278 499 1293 C 526 1307 548 1326 565 1349 C 582 1372 594 1400 602 1434 L 778 1434 L 778 182 L 1071 182 L 1071 0 L 240 0 Z" unicode="1" />
<glyph horiz-adv-x="1270" d="M 106 0 C 111 96 126 180 151 252 C 175 324 209 388 252 444 C 294 500 345 551 404 597 C 462 643 528 688 602 733 C 661 771 709 804 747 832 C 784 860 813 886 834 910 C 855 934 869 957 877 981 C 885 1005 889 1031 889 1061 C 889 1125 866 1175 821 1211 C 775 1247 709 1266 623 1266 C 583 1266 546 1262 513 1255 C 479 1248 448 1238 419 1226 C 390 1213 363 1198 337 1180 C 311 1162 285 1143 260 1122 L 137 1272 C 169 1298 202 1322 237 1344 C 272 1366 310 1386 350 1403 C 390 1419 433 1432 479 1442 C 525 1451 575 1456 629 1456 C 697 1456 761 1448 819 1432 C 877 1416 926 1393 968 1361 C 1009 1329 1041 1290 1065 1242 C 1088 1194 1100 1139 1100 1075 C 1100 1022 1093 976 1081 936 C 1069 896 1049 859 1021 825 C 993 790 956 756 910 722 C 864 688 808 650 741 608 C 668 562 608 520 561 484 C 514 448 476 414 447 382 C 418 350 396 319 382 289 C 367 259 356 227 348 195 L 1114 195 L 1114 0 L 106 0 Z" unicode="2" />
<glyph horiz-adv-x="1270" d="M 1118 420 C 1118 348 1105 285 1081 230 C 1056 175 1021 129 975 91 C 929 53 872 25 806 6 C 740 -13 665 -23 582 -23 C 528 -23 478 -18 431 -8 C 383 2 339 16 298 34 C 256 52 218 73 183 97 C 147 121 115 148 86 176 L 221 319 C 269 273 323 236 384 208 C 444 180 512 166 588 166 C 697 166 777 188 828 232 C 879 276 905 338 905 416 C 905 456 897 490 883 520 C 868 550 847 575 820 595 C 793 615 760 630 722 640 C 683 650 640 655 592 655 L 471 655 L 471 836 L 590 836 C 678 836 742 855 784 894 C 825 933 846 986 846 1053 C 846 1084 841 1113 831 1139 C 821 1165 805 1188 783 1207 C 761 1226 732 1241 697 1252 C 661 1262 618 1268 567 1268 C 505 1268 449 1256 399 1234 C 349 1212 304 1183 264 1147 L 139 1288 C 162 1308 189 1329 220 1349 C 250 1369 284 1387 321 1403 C 357 1419 397 1431 439 1441 C 481 1451 525 1456 573 1456 C 642 1456 706 1448 766 1433 C 825 1418 876 1395 920 1365 C 963 1334 997 1295 1022 1247 C 1046 1199 1059 1143 1059 1079 C 1059 1037 1054 999 1044 966 C 1034 933 1021 904 1003 878 C 985 852 964 829 940 809 C 915 789 888 772 858 758 C 892 749 924 736 956 718 C 987 700 1015 678 1039 651 C 1063 623 1082 590 1096 552 C 1110 514 1118 470 1118 420 Z" unicode="3" />
<glyph horiz-adv-x="1270" d="M 1004 322 L 1004 0 L 809 0 L 809 324 L 84 324 L 84 489 L 784 1434 L 1004 1434 L 1004 502 L 1182 502 L 1182 322 L 1004 322 Z M 809 1164 L 319 502 L 809 502 L 809 1164 Z" unicode="4" />
<glyph horiz-adv-x="1270" d="M 1145 481 C 1145 395 1132 321 1106 258 C 1080 195 1043 143 995 101 C 947 59 890 28 823 8 C 755 -12 680 -23 598 -23 C 503 -23 417 -9 339 18 C 261 46 189 83 123 131 L 233 291 C 287 253 346 222 410 200 C 474 177 541 166 610 166 C 664 166 712 173 753 188 C 793 202 827 223 854 250 C 880 276 900 308 914 346 C 927 384 934 426 934 473 C 934 559 909 626 860 674 C 811 721 738 745 641 745 C 609 745 581 743 555 739 C 529 735 505 729 483 721 C 461 713 440 703 421 692 C 401 681 383 669 365 655 L 166 723 L 213 1434 L 1063 1434 L 1063 1241 L 395 1241 L 367 848 C 401 870 443 890 492 906 C 541 922 600 930 668 930 C 746 930 814 919 874 899 C 934 878 984 848 1024 809 C 1064 770 1094 723 1114 668 C 1134 612 1145 550 1145 481 Z" unicode="5" />
<glyph horiz-adv-x="1270" d="M 1180 455 C 1180 377 1166 308 1139 248 C 1112 188 1075 139 1027 99 C 979 59 921 28 855 8 C 789 -12 716 -23 637 -23 C 563 -23 494 -12 431 9 C 367 30 312 64 265 110 C 218 156 181 214 155 286 C 128 358 115 444 115 545 C 115 609 121 675 133 743 C 145 811 165 877 193 943 C 221 1008 257 1070 301 1130 C 345 1189 398 1242 462 1288 C 525 1334 598 1372 682 1402 C 766 1432 861 1450 969 1456 L 979 1274 C 797 1257 653 1204 546 1115 C 439 1026 366 904 326 750 C 348 771 372 791 398 809 C 424 827 452 842 483 855 C 514 867 548 877 586 884 C 624 891 666 895 713 895 C 778 895 839 886 896 868 C 953 850 1003 823 1045 787 C 1087 751 1120 705 1144 650 C 1168 594 1180 529 1180 455 Z M 969 440 C 969 482 962 519 949 553 C 935 587 915 615 889 639 C 862 663 829 681 789 694 C 749 706 704 713 653 713 C 601 713 556 706 516 694 C 476 681 442 663 414 639 C 386 615 364 587 350 553 C 335 519 328 482 328 440 C 328 400 335 363 350 329 C 365 295 386 265 414 241 C 441 216 474 197 514 183 C 553 169 597 162 647 162 C 699 162 745 168 785 182 C 825 195 858 214 886 238 C 913 262 934 291 948 325 C 962 359 969 398 969 440 Z" unicode="6" />
<glyph horiz-adv-x="1270" d="M 1155 1249 C 1078 1166 1009 1080 947 990 C 885 900 833 804 790 702 C 746 600 713 492 689 376 C 665 260 652 134 651 0 L 434 0 C 436 126 449 245 472 359 C 494 472 526 580 566 683 C 606 785 654 883 711 975 C 767 1067 831 1155 903 1239 L 109 1239 L 109 1434 L 1155 1434 L 1155 1249 Z" unicode="7" />
<glyph horiz-adv-x="1270" d="M 1163 414 C 1163 343 1150 280 1125 226 C 1100 172 1064 126 1018 89 C 972 52 916 24 850 5 C 784 -13 711 -23 631 -23 C 550 -23 477 -13 413 5 C 348 23 293 51 247 88 C 201 124 166 170 142 224 C 118 278 106 341 106 412 C 106 458 112 500 124 538 C 136 576 154 609 176 639 C 198 669 225 694 256 716 C 287 738 322 756 360 770 C 331 782 305 798 281 816 C 257 834 236 855 218 879 C 200 903 187 931 177 962 C 167 992 162 1027 162 1065 C 162 1122 172 1175 194 1223 C 215 1271 246 1312 287 1346 C 327 1380 377 1407 436 1427 C 494 1446 561 1456 635 1456 C 710 1456 777 1446 835 1427 C 893 1408 943 1381 983 1347 C 1023 1313 1053 1272 1074 1224 C 1095 1176 1106 1124 1106 1067 C 1106 1030 1101 997 1091 967 C 1081 937 1068 911 1051 887 C 1033 863 1012 841 988 823 C 964 804 937 788 907 774 C 945 760 979 742 1011 720 C 1042 698 1069 672 1092 642 C 1114 612 1132 579 1144 541 C 1156 503 1163 460 1163 414 Z M 899 1061 C 899 1089 894 1116 884 1142 C 874 1168 858 1192 837 1212 C 815 1232 788 1249 754 1261 C 720 1273 680 1280 633 1280 C 585 1280 544 1274 511 1262 C 477 1250 450 1235 430 1215 C 409 1195 394 1172 385 1146 C 375 1120 371 1093 371 1065 C 371 1034 376 1005 388 979 C 400 953 417 930 439 911 C 461 892 489 877 522 866 C 554 855 592 850 635 850 C 676 850 713 855 746 866 C 778 877 806 892 829 911 C 851 930 869 952 881 978 C 893 1004 899 1031 899 1061 Z M 952 412 C 952 450 945 485 931 517 C 917 549 896 577 869 600 C 842 623 809 641 769 654 C 729 667 684 674 633 674 C 581 674 535 667 496 655 C 456 642 423 624 396 601 C 369 578 349 551 335 520 C 321 488 315 454 315 416 C 315 376 321 341 335 309 C 349 277 369 250 396 228 C 423 206 457 188 497 176 C 537 164 583 158 637 158 C 690 158 737 163 777 175 C 817 187 850 205 876 229 C 902 253 922 280 934 310 C 946 340 952 374 952 412 Z" unicode="8" />
<glyph horiz-adv-x="1270" d="M 942 993 C 942 1033 934 1071 919 1105 C 904 1139 883 1168 856 1193 C 828 1217 795 1237 755 1251 C 715 1265 671 1272 623 1272 C 571 1272 525 1265 485 1252 C 445 1238 411 1219 384 1195 C 356 1171 336 1141 322 1107 C 308 1073 301 1035 301 993 C 301 905 328 838 384 791 C 439 744 516 721 616 721 C 667 721 713 727 753 740 C 793 752 828 770 856 794 C 884 817 905 845 920 879 C 934 913 942 951 942 993 Z M 1153 889 C 1153 825 1146 759 1134 691 C 1122 623 1102 556 1075 490 C 1047 424 1012 362 968 303 C 924 243 870 190 807 144 C 744 98 671 60 587 30 C 503 0 408 -17 301 -23 L 291 160 C 471 176 615 229 723 318 C 830 407 904 529 944 684 C 921 662 897 643 871 625 C 845 607 817 591 786 579 C 755 566 721 556 683 549 C 645 542 603 539 557 539 C 491 539 429 547 372 565 C 315 583 265 610 223 646 C 181 682 148 728 124 784 C 100 839 88 904 88 979 C 88 1057 101 1125 128 1185 C 155 1244 193 1294 241 1334 C 289 1374 347 1404 414 1425 C 480 1445 553 1456 633 1456 C 707 1456 775 1445 839 1424 C 902 1402 957 1369 1003 1323 C 1049 1277 1086 1218 1113 1146 C 1139 1074 1153 989 1153 889 Z" unicode="9" />
<glyph horiz-adv-x="635" d="M 480 934 C 480 912 475 891 467 871 C 458 851 446 834 432 820 C 417 805 400 793 380 785 C 360 776 340 772 318 772 C 296 772 275 776 255 785 C 235 793 218 805 204 820 C 189 834 177 851 169 871 C 160 891 156 912 156 934 C 156 956 160 976 169 996 C 177 1016 189 1033 204 1048 C 218 1063 235 1075 255 1084 C 275 1093 296 1098 318 1098 C 340 1098 360 1093 380 1084 C 400 1075 417 1063 432 1048 C 446 1033 458 1016 467 996 C 475 976 480 956 480 934 Z M 480 139 C 480 117 475 96 467 76 C 458 56 446 39 432 25 C 417 10 400 -1 380 -10 C 360 -18 340 -23 318 -23 C 296 -23 275 -18 255 -10 C 235 -1 218 10 204 25 C 189 39 177 56 169 76 C 160 96 156 117 156 139 C 156 161 160 181 169 201 C 177 221 189 238 204 253 C 218 268 235 280 255 289 C 275 298 296 303 318 303 C 340 303 360 298 380 289 C 400 280 417 268 432 253 C 446 238 458 221 467 201 C 475 181 480 161 480 139 Z" unicode=":" />
<glyph horiz-adv-x="635" d="M 479 934 C 479 912 474 891 466 871 C 457 851 445 834 431 820 C 416 805 399 793 379 785 C 359 776 339 772 317 772 C 295 772 274 776 254 785 C 234 793 217 805 203 820 C 188 834 176 851 168 871 C 159 891 155 912 155 934 C 155 956 159 976 168 996 C 176 1016 188 1033 203 1048 C 217 1063 234 1075 254 1084 C 274 1093 295 1098 317 1098 C 339 1098 359 1093 379 1084 C 399 1075 416 1063 431 1048 C 445 1033 457 1016 466 996 C 474 976 479 956 479 934 Z M 301 -258 L 155 -258 L 186 285 L 454 285 L 301 -258 Z" unicode=";" />
<glyph horiz-adv-x="1270" d="M 166 610 L 166 807 L 1108 1380 L 1108 1149 L 373 711 L 1108 272 L 1108 35 L 166 610 Z" unicode="&#x3C;" />
<glyph horiz-adv-x="1270" d="M 164 840 L 164 1040 L 1106 1040 L 1106 840 L 164 840 Z M 164 369 L 164 569 L 1106 569 L 1106 369 L 164 369 Z" unicode="=" />
<glyph horiz-adv-x="1270" d="M 162 35 L 162 268 L 897 705 L 162 1143 L 162 1380 L 1104 807 L 1104 610 L 162 35 Z" unicode="&#x3E;" />
<glyph horiz-adv-x="1169" d="M 1059 1075 C 1059 1025 1053 982 1042 945 C 1030 907 1013 874 991 845 C 969 815 941 788 908 764 C 875 740 837 716 795 692 C 761 673 735 655 715 639 C 695 622 679 603 668 583 C 657 563 650 539 646 512 C 642 485 641 452 641 414 L 418 414 C 418 474 421 525 428 567 C 435 609 448 646 468 679 C 487 712 514 743 550 771 C 585 799 631 828 688 860 C 714 874 736 888 756 902 C 775 916 791 930 803 946 C 815 962 825 979 831 998 C 837 1016 840 1038 840 1063 C 840 1121 816 1165 768 1196 C 720 1227 651 1243 563 1243 C 494 1243 431 1230 375 1204 C 319 1178 263 1137 207 1083 L 70 1245 C 98 1274 130 1301 166 1327 C 202 1353 241 1375 283 1394 C 325 1413 369 1428 417 1439 C 465 1450 515 1456 569 1456 C 641 1456 708 1447 768 1431 C 828 1415 880 1391 923 1359 C 966 1327 999 1287 1023 1240 C 1047 1192 1059 1137 1059 1075 Z M 682 131 C 682 109 677 89 669 71 C 661 52 650 36 636 22 C 622 8 605 -3 587 -11 C 568 -19 548 -23 528 -23 C 506 -23 486 -19 468 -11 C 450 -3 434 8 420 22 C 406 36 395 52 387 71 C 379 89 375 109 375 131 C 375 151 379 171 387 190 C 395 209 406 226 420 240 C 434 254 450 266 468 274 C 486 282 506 287 528 287 C 548 287 568 282 587 274 C 605 266 622 254 636 240 C 650 226 661 209 669 190 C 677 171 682 151 682 131 Z" unicode="?" />
<glyph horiz-adv-x="1712" d="M 1595 737 C 1595 659 1587 594 1571 540 C 1555 486 1534 443 1507 410 C 1479 376 1446 352 1408 337 C 1370 322 1328 315 1284 315 C 1258 315 1233 318 1211 324 C 1188 330 1168 338 1150 350 C 1132 361 1116 374 1102 389 C 1088 404 1075 422 1065 442 C 1041 410 1003 380 953 354 C 903 328 853 315 803 315 C 763 315 725 320 688 332 C 650 343 617 360 588 384 C 559 407 536 436 518 472 C 500 507 492 548 492 596 C 492 640 500 678 518 711 C 536 743 560 770 590 792 C 620 813 655 829 695 840 C 735 850 777 856 821 856 C 862 856 900 850 936 839 C 972 828 1001 816 1024 803 L 1024 907 C 1024 950 1007 981 975 1000 C 942 1018 895 1028 834 1028 C 796 1028 760 1024 728 1017 C 696 1010 665 997 635 979 L 578 1079 C 616 1101 657 1119 703 1131 C 748 1143 794 1149 842 1149 C 890 1149 933 1144 973 1134 C 1012 1124 1045 1108 1073 1088 C 1101 1068 1122 1042 1138 1011 C 1153 980 1161 944 1161 903 L 1161 559 C 1161 521 1171 491 1192 469 C 1213 447 1248 436 1296 436 C 1332 436 1361 443 1385 459 C 1408 474 1426 495 1439 522 C 1451 549 1461 579 1467 612 C 1473 645 1477 687 1477 739 C 1477 820 1461 897 1430 970 C 1398 1042 1355 1106 1300 1161 C 1244 1215 1179 1259 1103 1291 C 1027 1323 944 1339 856 1339 C 766 1339 684 1323 608 1292 C 532 1260 466 1217 411 1162 C 356 1107 313 1042 282 966 C 251 890 236 807 236 719 C 236 629 251 546 282 470 C 313 394 356 328 411 273 C 466 217 532 174 608 143 C 684 111 766 96 856 96 C 902 96 946 100 989 109 C 1031 117 1076 133 1122 156 L 1171 47 C 1141 33 1114 22 1089 13 C 1063 4 1038 -2 1014 -8 C 989 -13 964 -17 938 -19 C 912 -21 885 -23 856 -23 C 784 -23 716 -14 652 2 C 588 18 528 42 474 73 C 419 104 370 142 326 186 C 282 230 244 280 213 335 C 182 389 158 449 142 513 C 125 577 117 645 117 717 C 117 788 125 856 142 920 C 158 984 182 1044 213 1099 C 244 1153 282 1203 326 1247 C 370 1291 419 1328 474 1359 C 528 1390 588 1414 652 1431 C 716 1447 784 1456 856 1456 C 928 1456 997 1447 1062 1430 C 1126 1412 1186 1388 1241 1356 C 1295 1324 1345 1286 1389 1242 C 1433 1198 1470 1149 1500 1096 C 1530 1042 1554 985 1570 925 C 1586 864 1595 801 1595 737 Z M 1024 678 C 1003 693 974 707 937 720 C 900 732 859 739 813 739 C 785 739 760 736 737 731 C 713 725 693 716 675 704 C 657 691 645 676 637 658 C 629 640 625 621 625 600 C 625 550 641 511 675 482 C 709 452 758 438 823 438 C 841 438 861 440 881 446 C 901 452 920 460 938 470 C 956 480 972 492 987 506 C 1002 520 1014 535 1024 553 L 1024 678 Z" unicode="@" />
<glyph horiz-adv-x="1458" d="M 1362 0 L 1133 0 L 1012 340 L 438 340 L 319 0 L 96 0 L 612 1434 L 840 1434 L 1362 0 Z M 946 532 L 723 1171 L 504 532 L 946 532 Z" unicode="A" />
<glyph horiz-adv-x="1382" d="M 1247 440 C 1247 294 1204 185 1119 111 C 1033 37 912 0 756 0 L 186 0 L 186 1434 L 776 1434 C 838 1434 895 1425 946 1409 C 996 1393 1040 1369 1076 1338 C 1112 1306 1139 1267 1159 1221 C 1178 1175 1188 1121 1188 1061 C 1188 1024 1183 991 1174 961 C 1164 931 1152 905 1136 882 C 1120 858 1100 838 1078 820 C 1056 802 1032 786 1006 774 C 1034 766 1062 753 1091 736 C 1119 719 1145 697 1168 670 C 1191 642 1210 610 1225 572 C 1239 534 1247 490 1247 440 Z M 973 1049 C 973 1075 969 1100 962 1123 C 954 1145 943 1165 927 1182 C 911 1199 891 1212 866 1222 C 840 1232 810 1237 774 1237 L 389 1237 L 389 866 L 774 866 C 809 866 839 871 864 881 C 889 891 910 904 926 921 C 942 938 953 958 961 980 C 969 1002 973 1025 973 1049 Z M 1032 434 C 1032 469 1027 500 1018 527 C 1008 554 993 579 973 601 C 953 623 927 641 896 653 C 864 665 825 671 778 672 L 389 672 L 389 197 L 772 197 C 820 197 860 202 893 214 C 926 225 953 241 973 262 C 993 283 1008 308 1018 337 C 1027 366 1032 398 1032 434 Z" unicode="B" />
<glyph horiz-adv-x="1341" d="M 1022 1069 C 1003 1098 984 1123 965 1145 C 945 1167 924 1185 901 1199 C 877 1213 851 1223 823 1230 C 794 1237 761 1241 725 1241 C 662 1241 607 1228 559 1204 C 511 1180 470 1145 438 1099 C 406 1053 381 998 365 934 C 348 869 340 797 340 717 C 340 636 348 563 365 499 C 381 434 406 379 438 334 C 470 288 511 253 559 229 C 607 205 662 193 725 193 C 799 193 861 208 911 238 C 960 268 1003 312 1040 371 L 1219 252 C 1185 198 1154 157 1124 129 C 1094 101 1061 75 1024 53 C 987 31 944 12 894 -1 C 844 -15 788 -23 725 -23 C 657 -23 595 -14 541 4 C 487 22 438 46 394 78 C 350 109 310 148 274 195 C 238 242 210 291 189 342 C 167 392 150 449 138 512 C 125 574 119 643 119 717 C 119 825 133 925 161 1015 C 189 1105 230 1183 283 1249 C 335 1314 399 1365 474 1401 C 548 1437 632 1456 725 1456 C 841 1456 939 1433 1019 1387 C 1098 1341 1162 1274 1212 1188 L 1022 1069 Z" unicode="C" />
<glyph horiz-adv-x="1391" d="M 1276 717 C 1276 632 1267 556 1250 488 C 1233 420 1209 359 1178 306 C 1147 253 1110 207 1067 169 C 1024 130 977 98 925 73 C 873 48 818 30 759 18 C 700 6 640 0 578 0 L 186 0 L 186 1434 L 578 1434 C 674 1434 764 1420 849 1393 C 934 1365 1008 1323 1071 1265 C 1134 1207 1184 1132 1221 1042 C 1257 952 1276 843 1276 717 Z M 1057 717 C 1057 792 1048 861 1030 923 C 1012 985 983 1039 945 1084 C 906 1128 856 1163 796 1188 C 735 1212 662 1225 578 1225 L 401 1225 L 401 209 L 578 209 C 662 209 735 221 796 246 C 856 270 906 305 945 350 C 983 394 1012 448 1030 510 C 1048 572 1057 641 1057 717 Z" unicode="D" />
<glyph horiz-adv-x="1260" d="M 1141 0 L 186 0 L 186 1434 L 1110 1434 L 1110 1225 L 401 1225 L 401 870 L 977 870 L 977 662 L 401 662 L 401 209 L 1141 209 L 1141 0 Z" unicode="E" />
<glyph horiz-adv-x="1192" d="M 401 1223 L 401 848 L 813 848 L 813 637 L 401 637 L 401 0 L 186 0 L 186 1434 L 1110 1434 L 1110 1223 L 401 1223 Z" unicode="F" />
<glyph horiz-adv-x="1389" d="M 1270 561 C 1270 469 1256 386 1229 314 C 1202 242 1165 181 1117 131 C 1069 81 1011 42 945 16 C 878 -9 805 -23 725 -23 C 632 -23 548 -4 474 31 C 399 67 335 118 283 184 C 230 249 189 327 161 418 C 133 508 119 608 119 717 C 119 825 133 925 161 1015 C 189 1105 230 1183 283 1249 C 335 1314 399 1365 474 1401 C 548 1437 632 1456 725 1456 C 841 1456 939 1433 1019 1387 C 1098 1341 1162 1274 1212 1188 L 1024 1071 C 1005 1100 986 1125 966 1147 C 946 1168 925 1186 902 1200 C 878 1214 852 1224 823 1231 C 794 1237 761 1241 725 1241 C 662 1241 607 1228 559 1204 C 511 1180 470 1145 438 1099 C 405 1053 380 998 363 934 C 346 869 338 797 338 717 C 338 636 346 563 363 499 C 380 434 405 379 438 334 C 470 288 511 253 559 229 C 607 205 662 193 725 193 C 827 193 907 221 965 279 C 1022 337 1051 415 1051 514 L 1051 520 L 817 520 L 817 727 L 1270 727 L 1270 561 Z" unicode="G" />
<glyph horiz-adv-x="1462" d="M 1061 0 L 1061 639 L 401 639 L 401 0 L 186 0 L 186 1434 L 401 1434 L 401 854 L 1061 854 L 1061 1434 L 1276 1434 L 1276 0 L 1061 0 Z" unicode="H" />
<glyph horiz-adv-x="608" d="M 197 0 L 197 1434 L 412 1434 L 412 0 L 197 0 Z" unicode="I" />
<glyph horiz-adv-x="1235" d="M 1059 565 C 1059 372 1017 226 933 126 C 849 26 721 -23 549 -23 C 481 -23 421 -14 367 3 C 313 20 266 45 225 78 C 184 110 149 150 120 197 C 90 244 67 298 49 358 L 258 420 C 271 384 286 353 303 327 C 319 300 339 277 361 257 C 383 237 411 221 443 210 C 475 198 512 193 555 193 C 607 193 651 200 687 215 C 723 230 753 253 777 285 C 800 316 817 356 828 406 C 838 455 844 514 844 582 L 844 1434 L 1059 1434 L 1059 565 Z" unicode="J" />
<glyph horiz-adv-x="1403" d="M 1317 0 L 1073 0 L 662 735 L 395 414 L 395 0 L 186 0 L 186 1434 L 395 1434 L 395 702 L 981 1434 L 1225 1434 L 805 913 L 1317 0 Z" unicode="K" />
<glyph horiz-adv-x="1219" d="M 186 0 L 186 1434 L 401 1434 L 401 211 L 1116 211 L 1116 0 L 186 0 Z" unicode="L" />
<glyph horiz-adv-x="1655" d="M 1468 0 L 1257 0 L 1257 990 L 821 -23 L 389 990 L 389 0 L 186 0 L 186 1434 L 408 1434 L 828 436 L 1239 1434 L 1468 1434 L 1468 0 Z" unicode="M" />
<glyph horiz-adv-x="1462" d="M 1276 0 L 1071 0 L 395 1062 L 395 0 L 186 0 L 186 1434 L 406 1434 L 1067 372 L 1067 1434 L 1276 1434 L 1276 0 Z" unicode="N" />
<glyph horiz-adv-x="1456" d="M 1339 719 C 1339 607 1324 505 1294 414 C 1264 323 1223 245 1169 180 C 1115 115 1050 65 975 30 C 899 -5 816 -23 725 -23 C 634 -23 551 -5 477 29 C 402 64 338 114 285 178 C 231 242 190 320 161 411 C 131 501 117 603 117 715 C 117 826 131 927 161 1019 C 191 1110 233 1188 287 1253 C 341 1317 405 1367 480 1403 C 555 1438 638 1456 729 1456 C 820 1456 903 1438 978 1403 C 1053 1368 1117 1318 1171 1254 C 1224 1190 1265 1112 1295 1022 C 1324 931 1339 830 1339 719 Z M 1120 715 C 1120 796 1110 869 1090 934 C 1070 999 1042 1054 1007 1100 C 971 1146 929 1181 881 1206 C 833 1230 780 1243 723 1243 C 666 1243 614 1231 567 1207 C 519 1183 478 1148 444 1103 C 410 1057 383 1002 364 938 C 345 873 336 800 336 719 C 336 637 345 564 365 499 C 385 433 412 378 447 332 C 482 286 524 251 572 227 C 620 202 673 190 731 190 C 787 190 839 202 887 226 C 935 250 976 284 1010 330 C 1044 375 1071 430 1091 495 C 1110 560 1120 633 1120 715 Z" unicode="O" />
<glyph horiz-adv-x="1337" d="M 1247 985 C 1247 911 1235 846 1212 790 C 1188 734 1156 687 1114 649 C 1072 611 1022 583 964 564 C 906 544 842 535 772 535 L 397 535 L 397 0 L 186 0 L 186 1434 L 786 1434 C 852 1434 913 1424 969 1405 C 1025 1386 1074 1358 1115 1321 C 1156 1283 1188 1236 1212 1180 C 1235 1124 1247 1059 1247 985 Z M 1028 985 C 1028 1024 1022 1059 1010 1090 C 998 1120 982 1146 961 1167 C 939 1188 913 1204 883 1215 C 853 1225 819 1231 782 1231 L 397 1231 L 397 737 L 782 737 C 864 737 926 759 967 803 C 1007 847 1028 907 1028 985 Z" unicode="P" />
<glyph horiz-adv-x="1452" d="M 1333 717 C 1333 647 1327 581 1315 518 C 1303 454 1283 394 1257 338 C 1231 282 1206 239 1184 210 C 1161 180 1137 153 1112 129 L 1208 -20 L 1032 -131 L 936 16 C 904 4 870 -5 835 -12 C 799 -19 763 -23 725 -23 C 632 -23 548 -4 474 31 C 399 67 335 118 283 184 C 230 249 189 327 161 418 C 133 508 119 608 119 717 C 119 825 133 925 161 1015 C 189 1105 230 1183 283 1249 C 335 1314 399 1365 474 1401 C 548 1437 632 1456 725 1456 C 818 1456 902 1437 977 1401 C 1052 1365 1116 1314 1169 1249 C 1221 1183 1262 1105 1290 1015 C 1318 925 1333 825 1333 717 Z M 1114 717 C 1114 797 1105 869 1088 934 C 1071 998 1046 1053 1014 1099 C 981 1145 940 1180 892 1204 C 843 1228 787 1241 725 1241 C 662 1241 607 1228 559 1204 C 511 1180 470 1145 438 1099 C 405 1053 380 998 363 934 C 346 869 338 797 338 717 C 338 636 346 563 363 498 C 380 433 405 378 438 332 C 470 286 511 250 559 225 C 607 200 662 188 725 188 C 760 188 792 191 821 199 L 717 360 L 893 471 L 997 307 C 1038 352 1068 409 1086 479 C 1104 548 1114 627 1114 717 Z" unicode="Q" />
<glyph horiz-adv-x="1421" d="M 1006 0 L 721 567 L 397 567 L 397 0 L 186 0 L 186 1434 L 815 1434 C 877 1434 936 1425 992 1408 C 1048 1391 1097 1365 1139 1330 C 1181 1295 1214 1251 1239 1197 C 1263 1143 1276 1079 1276 1006 C 1276 948 1268 896 1254 850 C 1239 804 1218 763 1191 728 C 1163 693 1130 664 1092 640 C 1053 616 1009 598 961 586 L 1253 0 L 1006 0 Z M 1059 999 C 1059 1036 1053 1069 1041 1098 C 1029 1127 1013 1151 992 1171 C 970 1191 945 1206 915 1216 C 885 1226 851 1231 815 1231 L 397 1231 L 397 770 L 815 770 C 851 770 883 774 913 784 C 943 793 968 807 990 826 C 1012 845 1029 869 1041 898 C 1053 926 1059 960 1059 999 Z" unicode="R" />
<glyph horiz-adv-x="1282" d="M 1147 412 C 1147 347 1136 288 1115 235 C 1094 181 1062 135 1019 97 C 975 59 920 29 854 8 C 787 -12 708 -23 616 -23 C 564 -23 513 -17 465 -6 C 417 4 371 20 328 40 C 285 60 245 84 207 113 C 169 141 136 173 106 209 L 260 358 C 284 332 310 308 340 287 C 369 266 400 248 432 234 C 464 219 497 208 531 200 C 565 192 599 188 633 188 C 734 188 809 205 857 240 C 905 274 930 327 930 397 C 930 425 924 449 913 471 C 901 492 883 512 858 530 C 832 548 799 566 758 583 C 716 599 666 617 606 635 C 530 657 464 680 408 703 C 352 725 305 752 268 783 C 231 814 203 851 185 895 C 167 939 158 993 158 1057 C 158 1119 170 1174 195 1224 C 219 1273 253 1315 295 1349 C 337 1383 387 1410 445 1428 C 503 1446 565 1456 631 1456 C 685 1455 733 1450 775 1442 C 817 1433 857 1420 896 1402 C 935 1384 970 1364 1002 1342 C 1033 1320 1066 1294 1100 1262 L 948 1108 C 920 1135 896 1156 874 1171 C 852 1185 829 1198 805 1209 C 781 1219 754 1228 722 1235 C 690 1241 654 1245 614 1245 C 572 1245 536 1240 506 1230 C 476 1220 451 1208 431 1192 C 411 1176 397 1157 388 1135 C 379 1113 375 1091 375 1067 C 375 1041 379 1019 389 1000 C 398 980 414 962 438 945 C 462 928 494 912 534 896 C 574 880 626 862 688 844 C 758 822 822 800 879 776 C 935 752 983 724 1023 692 C 1063 659 1093 620 1115 575 C 1136 530 1147 476 1147 412 Z" unicode="S" />
<glyph horiz-adv-x="1243" d="M 729 1223 L 729 0 L 514 0 L 514 1223 L 96 1223 L 96 1434 L 1147 1434 L 1147 1223 L 729 1223 Z" unicode="T" />
<glyph horiz-adv-x="1442" d="M 1266 598 C 1266 498 1254 409 1230 332 C 1206 254 1170 189 1124 137 C 1077 84 1019 44 951 17 C 882 -9 803 -23 715 -23 C 626 -23 548 -9 481 19 C 413 47 357 87 312 141 C 267 195 233 260 210 338 C 187 415 176 503 176 602 L 176 1434 L 391 1434 L 391 608 C 391 472 418 368 474 298 C 529 228 611 193 719 193 C 831 193 915 227 969 295 C 1023 363 1051 462 1051 594 L 1051 1434 L 1266 1434 L 1266 598 Z" unicode="U" />
<glyph horiz-adv-x="1409" d="M 1313 1434 L 821 0 L 594 0 L 96 1434 L 330 1434 L 709 276 L 1083 1434 L 1313 1434 Z" unicode="V" />
<glyph horiz-adv-x="1767" d="M 1665 1434 L 1372 0 L 1155 0 L 891 1091 L 616 0 L 403 0 L 111 1434 L 328 1434 L 531 366 L 801 1434 L 985 1434 L 1254 366 L 1457 1434 L 1665 1434 Z" unicode="W" />
<glyph horiz-adv-x="1350" d="M 1258 0 L 1001 0 L 682 554 L 365 0 L 113 0 L 557 740 L 141 1434 L 397 1434 L 686 925 L 977 1434 L 1229 1434 L 813 742 L 1258 0 Z" unicode="X" />
<glyph horiz-adv-x="1411" d="M 1327 1434 L 813 567 L 813 0 L 598 0 L 598 567 L 84 1434 L 336 1434 L 707 777 L 1080 1434 L 1327 1434 Z" unicode="Y" />
<glyph horiz-adv-x="1360" d="M 1212 0 L 123 0 L 123 209 L 973 1235 L 164 1235 L 164 1434 L 1212 1434 L 1212 1225 L 372 199 L 1212 199 L 1212 0 Z" unicode="Z" />
<glyph horiz-adv-x="778" d="M 194 -225 L 194 1434 L 649 1434 L 649 1260 L 397 1260 L 397 -51 L 649 -51 L 649 -225 L 194 -225 Z" unicode="[" />
<glyph horiz-adv-x="913" d="M 670 -184 L 33 1618 L 244 1618 L 881 -184 L 670 -184 Z" unicode="\" />
<glyph horiz-adv-x="778" d="M 129 -225 L 129 -51 L 381 -51 L 381 1260 L 129 1260 L 129 1434 L 584 1434 L 584 -225 L 129 -225 Z" unicode="]" />
<glyph horiz-adv-x="1184" d="M 852 782 L 590 1210 L 328 782 L 96 782 L 510 1434 L 674 1434 L 1087 782 L 852 782 Z" unicode="^" />
<glyph horiz-adv-x="1024" d="M 0 -362 L 0 -168 L 1024 -168 L 1024 -362 L 0 -362 Z" unicode="_" />
<glyph horiz-adv-x="1024" d="M 543 1219 L 205 1546 L 492 1546 L 711 1219 L 543 1219 Z" unicode="`" />
<glyph horiz-adv-x="1126" d="M 772 0 L 772 106 C 744 80 722 62 704 50 C 686 38 667 27 648 17 C 628 7 604 -2 574 -10 C 544 -18 512 -23 477 -23 C 433 -23 389 -16 345 -3 C 301 9 261 30 225 59 C 189 88 160 126 138 172 C 115 218 104 274 104 340 C 104 400 114 451 136 495 C 158 539 188 575 226 604 C 264 632 310 653 362 667 C 414 681 471 688 532 688 C 588 688 636 684 675 676 C 713 668 746 659 772 647 L 772 727 C 772 785 754 830 720 862 C 685 893 635 909 569 909 C 513 909 463 903 419 893 C 374 882 331 865 289 842 L 207 1001 C 258 1033 313 1057 372 1073 C 431 1089 499 1098 575 1098 C 635 1098 689 1090 739 1076 C 789 1061 831 1039 867 1009 C 902 979 929 941 949 896 C 969 850 979 797 979 737 L 979 0 L 772 0 Z M 772 459 C 752 468 734 475 718 480 C 702 485 685 489 668 493 C 650 497 629 500 605 502 C 581 504 554 506 526 506 C 458 506 404 491 364 463 C 324 434 305 395 305 346 C 305 314 310 286 322 264 C 333 242 347 224 365 210 C 382 196 402 185 426 178 C 450 171 478 168 512 168 C 540 168 567 172 593 180 C 619 188 643 198 666 211 C 688 224 709 239 727 255 C 745 271 760 288 772 305 L 772 459 Z" unicode="a" />
<glyph horiz-adv-x="1167" d="M 1059 520 C 1059 428 1047 348 1024 280 C 1000 212 969 155 930 110 C 891 65 846 32 795 10 C 744 -12 691 -23 635 -23 C 583 -23 532 -11 484 13 C 435 37 395 66 365 100 L 365 0 L 156 0 L 156 1384 L 365 1493 L 365 973 C 387 993 407 1009 425 1022 C 443 1034 462 1046 482 1058 C 502 1069 525 1078 552 1086 C 578 1094 609 1098 645 1098 C 703 1098 757 1087 807 1065 C 857 1043 901 1009 939 963 C 976 916 1005 856 1027 783 C 1048 710 1059 622 1059 520 Z M 848 514 C 848 648 827 747 785 809 C 743 871 684 903 606 903 C 580 903 556 899 533 891 C 510 883 488 873 467 861 C 446 848 427 833 409 817 C 391 800 376 783 362 766 L 362 313 C 374 297 388 280 406 264 C 424 247 444 232 466 218 C 488 204 511 193 536 185 C 561 176 587 172 614 172 C 690 172 748 200 788 257 C 828 314 848 400 848 514 Z" unicode="b" />
<glyph horiz-adv-x="1069" d="M 954 178 C 932 151 909 125 885 101 C 861 77 833 55 803 37 C 772 19 737 4 699 -6 C 661 -17 617 -23 569 -23 C 503 -23 442 -9 386 17 C 329 43 280 81 238 130 C 196 178 164 237 140 306 C 116 374 104 451 104 535 C 104 623 116 703 140 773 C 164 843 198 902 241 950 C 283 998 333 1034 391 1060 C 448 1085 509 1098 575 1098 C 654 1098 725 1082 787 1051 C 849 1020 906 975 956 915 L 831 766 C 805 791 784 811 766 825 C 748 839 728 852 706 864 C 684 875 662 883 640 889 C 618 894 594 897 569 897 C 531 897 496 888 465 872 C 434 855 408 831 386 801 C 364 770 347 733 335 689 C 323 645 317 595 317 541 C 317 488 322 439 334 395 C 345 351 361 312 383 280 C 405 248 432 223 464 205 C 496 187 533 178 575 178 C 600 178 623 180 644 186 C 664 192 684 200 703 211 C 722 222 741 236 759 253 C 777 269 797 289 819 311 L 954 178 Z" unicode="c" />
<glyph horiz-adv-x="1167" d="M 803 0 L 803 102 C 783 84 762 67 741 52 C 719 36 696 23 672 11 C 647 -1 622 -9 598 -15 C 573 -20 548 -23 522 -23 C 464 -23 410 -12 360 9 C 310 31 266 65 229 112 C 191 158 162 218 141 291 C 119 364 109 452 109 555 C 109 647 120 727 143 795 C 166 863 197 920 236 965 C 275 1009 320 1043 371 1065 C 422 1087 476 1098 532 1098 C 559 1098 586 1094 612 1088 C 638 1081 662 1072 686 1061 C 709 1049 730 1036 750 1021 C 770 1006 787 991 803 975 L 803 1384 L 1012 1493 L 1012 0 L 803 0 Z M 805 762 C 793 778 778 794 760 811 C 742 827 723 842 701 856 C 679 870 655 881 630 890 C 605 898 579 903 553 903 C 476 903 418 874 378 817 C 338 760 319 675 319 561 C 319 493 324 435 335 386 C 345 337 361 297 382 265 C 402 233 428 210 458 195 C 488 179 522 172 561 172 C 586 172 610 175 634 183 C 657 191 679 201 700 214 C 720 227 739 242 757 258 C 775 274 791 291 805 309 L 805 762 Z" unicode="d" />
<glyph horiz-adv-x="1135" d="M 1028 559 C 1028 539 1027 521 1026 505 C 1024 488 1023 474 1022 463 L 311 463 C 317 411 328 366 345 329 C 361 292 382 262 406 238 C 430 214 457 196 487 185 C 517 173 549 168 582 168 C 605 168 627 170 648 174 C 668 178 688 184 707 192 C 726 200 743 208 758 216 C 772 224 791 237 815 254 L 940 119 C 913 93 887 73 863 57 C 839 41 812 27 784 15 C 756 3 724 -6 688 -13 C 652 -19 612 -23 569 -23 C 522 -23 478 -16 438 -3 C 397 9 361 26 330 47 C 298 68 270 92 245 119 C 220 146 196 181 174 223 C 151 265 134 313 122 365 C 110 417 104 475 104 537 C 104 627 115 708 138 778 C 161 848 193 906 235 954 C 276 1001 326 1037 384 1061 C 442 1085 505 1098 575 1098 C 651 1098 718 1083 775 1054 C 831 1025 878 986 916 937 C 953 888 981 831 1000 766 C 1018 700 1028 631 1028 559 Z M 815 637 C 812 673 805 708 795 741 C 785 773 769 802 749 827 C 729 851 703 871 672 885 C 641 899 604 907 561 907 C 523 907 491 900 463 888 C 435 876 411 858 391 836 C 371 813 354 785 341 752 C 328 719 319 681 315 637 L 815 637 Z" unicode="e" />
<glyph horiz-adv-x="741" d="M 659 1282 C 634 1289 612 1294 593 1298 C 573 1301 555 1303 537 1303 C 522 1303 508 1301 496 1298 C 484 1295 473 1290 465 1283 C 456 1276 449 1266 445 1252 C 440 1238 438 1220 438 1198 L 438 1075 L 637 1075 L 637 879 L 438 879 L 438 0 L 227 0 L 227 879 L 88 879 L 88 1075 L 227 1075 L 227 1217 C 227 1265 234 1307 248 1341 C 262 1375 282 1403 306 1425 C 330 1447 359 1462 393 1472 C 426 1482 462 1487 500 1487 C 528 1487 555 1485 583 1481 C 611 1477 636 1472 659 1466 L 659 1282 Z" unicode="f" />
<glyph horiz-adv-x="1167" d="M 1012 102 C 1012 28 1004 -37 989 -93 C 974 -149 950 -198 916 -240 C 874 -290 816 -328 744 -354 C 671 -380 579 -394 467 -397 L 406 -225 C 488 -222 559 -213 619 -198 C 679 -182 722 -161 746 -133 C 768 -109 782 -80 790 -44 C 797 -8 801 34 801 84 L 801 102 C 781 84 761 67 740 52 C 719 37 697 24 674 13 C 651 1 627 -7 602 -13 C 576 -19 550 -23 522 -23 C 464 -23 411 -12 361 9 C 311 31 267 65 230 112 C 192 158 163 218 141 291 C 119 364 109 452 109 555 C 109 647 120 727 144 795 C 167 863 198 920 237 965 C 276 1009 321 1043 372 1065 C 423 1087 476 1098 532 1098 C 559 1098 586 1094 612 1088 C 638 1081 662 1072 685 1061 C 708 1049 729 1036 749 1021 C 769 1006 786 991 801 975 L 801 1075 L 1012 1075 L 1012 102 Z M 561 172 C 606 172 649 184 690 209 C 731 233 769 267 805 309 L 805 762 C 793 778 778 794 760 811 C 742 827 723 842 701 856 C 679 870 655 881 630 890 C 605 898 579 903 553 903 C 476 903 418 874 378 817 C 338 760 319 675 319 561 C 319 435 338 338 378 272 C 418 205 479 172 561 172 Z" unicode="g" />
<glyph horiz-adv-x="1167" d="M 809 0 L 809 608 C 809 707 791 781 756 830 C 720 878 664 903 588 903 C 555 903 525 897 497 887 C 469 876 446 858 426 834 C 406 809 392 780 382 747 C 372 713 367 674 367 629 L 367 0 L 156 0 L 156 1382 L 367 1493 L 367 973 C 380 992 396 1009 416 1025 C 435 1041 456 1054 480 1065 C 503 1075 528 1083 555 1089 C 581 1095 609 1098 637 1098 C 701 1098 757 1087 805 1067 C 852 1046 892 1015 924 975 C 956 935 980 883 996 821 C 1012 759 1020 690 1020 616 L 1020 0 L 809 0 Z" unicode="h" />
<glyph horiz-adv-x="543" d="M 408 1350 C 408 1331 404 1313 397 1297 C 389 1281 379 1266 367 1254 C 355 1242 340 1232 324 1225 C 308 1217 290 1214 272 1214 C 253 1214 235 1217 219 1225 C 202 1232 187 1242 175 1254 C 163 1266 153 1281 146 1297 C 138 1313 135 1331 135 1350 C 135 1368 138 1386 146 1403 C 153 1419 163 1434 175 1446 C 187 1458 202 1468 219 1476 C 235 1483 253 1487 272 1487 C 290 1487 308 1483 324 1476 C 340 1468 355 1458 367 1446 C 379 1434 389 1419 397 1403 C 404 1386 408 1368 408 1350 Z M 166 0 L 166 1075 L 377 1075 L 377 0 L 166 0 Z" unicode="i" />
<glyph horiz-adv-x="543" d="M 408 1350 C 408 1331 404 1313 397 1297 C 389 1281 379 1266 367 1254 C 355 1242 340 1232 324 1225 C 308 1217 290 1214 272 1214 C 253 1214 235 1217 219 1225 C 202 1232 187 1242 175 1254 C 163 1266 153 1281 146 1297 C 138 1313 135 1331 135 1350 C 135 1368 138 1386 146 1403 C 153 1419 163 1434 175 1446 C 187 1458 202 1468 219 1476 C 235 1483 253 1487 272 1487 C 290 1487 308 1483 324 1476 C 340 1468 355 1458 367 1446 C 379 1434 389 1419 397 1403 C 404 1386 408 1368 408 1350 Z M 377 49 C 377 -18 371 -76 361 -125 C 351 -174 332 -216 305 -251 C 278 -286 241 -315 194 -338 C 146 -360 86 -379 12 -395 L -59 -236 C -10 -222 28 -208 58 -194 C 88 -180 111 -163 127 -143 C 143 -123 153 -98 158 -68 C 163 -38 166 -1 166 45 L 166 1075 L 377 1075 L 377 49 Z" unicode="j" />
<glyph horiz-adv-x="1083" d="M 768 0 L 530 535 L 367 317 L 367 0 L 156 0 L 156 1382 L 367 1493 L 367 599 L 707 1075 L 946 1075 L 674 715 L 997 0 L 768 0 Z" unicode="k" />
<glyph horiz-adv-x="543" d="M 166 0 L 166 1382 L 377 1493 L 377 0 L 166 0 Z" unicode="l" />
<glyph horiz-adv-x="1763" d="M 1405 0 L 1405 608 C 1405 662 1400 707 1392 745 C 1383 783 1370 813 1353 837 C 1336 860 1315 877 1289 887 C 1263 897 1232 903 1198 903 C 1160 903 1129 896 1103 884 C 1077 871 1055 852 1039 828 C 1022 803 1010 773 1002 739 C 994 704 991 667 991 629 L 991 0 L 780 0 L 780 608 C 780 662 775 707 767 745 C 759 783 746 813 729 837 C 711 860 690 877 664 887 C 638 897 607 903 573 903 C 538 903 507 896 480 884 C 453 872 431 853 415 829 C 399 804 387 775 379 743 C 371 711 367 673 367 629 L 367 0 L 156 0 L 156 1075 L 367 1075 L 367 973 C 393 1012 429 1043 473 1065 C 517 1087 567 1098 623 1098 C 695 1098 755 1084 803 1057 C 850 1030 888 991 918 940 C 937 964 957 985 978 1005 C 999 1024 1022 1041 1048 1055 C 1074 1069 1103 1079 1135 1087 C 1167 1094 1205 1098 1247 1098 C 1305 1098 1356 1089 1401 1071 C 1445 1053 1484 1025 1517 985 C 1550 945 1575 894 1591 831 C 1607 768 1616 696 1616 616 L 1616 0 L 1405 0 Z" unicode="m" />
<glyph horiz-adv-x="1167" d="M 809 0 L 809 608 C 809 705 791 778 757 828 C 722 878 666 903 588 903 C 554 903 522 897 494 885 C 465 873 441 854 422 829 C 402 803 388 773 380 739 C 371 705 367 668 367 629 L 367 0 L 156 0 L 156 1075 L 367 1075 L 367 973 C 380 992 396 1009 416 1025 C 435 1041 456 1054 480 1065 C 503 1075 528 1083 555 1089 C 581 1095 609 1098 637 1098 C 701 1098 757 1087 805 1066 C 853 1045 892 1015 924 976 C 956 936 980 887 996 827 C 1012 767 1020 696 1020 616 L 1020 0 L 809 0 Z" unicode="n" />
<glyph horiz-adv-x="1167" d="M 1063 543 C 1063 453 1050 374 1026 304 C 1001 234 967 174 924 126 C 880 77 829 40 770 15 C 710 -10 646 -23 578 -23 C 510 -23 447 -9 389 17 C 331 43 281 81 239 130 C 197 179 164 238 140 307 C 116 376 104 453 104 537 C 104 625 116 703 141 773 C 165 842 199 901 242 949 C 285 997 336 1034 394 1060 C 452 1085 516 1098 584 1098 C 652 1098 716 1084 774 1058 C 832 1032 883 994 926 946 C 968 898 1002 839 1026 771 C 1050 703 1063 627 1063 543 Z M 850 537 C 850 591 843 641 831 685 C 818 729 800 767 776 799 C 752 830 724 854 690 871 C 656 888 617 897 575 897 C 535 897 499 888 467 871 C 435 854 408 830 386 799 C 364 768 347 731 335 688 C 323 644 317 596 317 543 C 317 483 323 431 336 386 C 349 340 367 302 391 272 C 415 241 443 218 476 202 C 509 186 546 178 586 178 C 626 178 662 187 694 206 C 726 225 754 251 777 283 C 800 315 818 353 831 397 C 843 441 850 487 850 537 Z" unicode="o" />
<glyph horiz-adv-x="1167" d="M 1059 520 C 1059 428 1047 348 1024 280 C 1000 212 969 155 930 110 C 891 65 846 32 795 10 C 744 -12 691 -23 635 -23 C 587 -23 540 -12 493 8 C 446 28 403 59 365 100 L 365 -287 L 156 -395 L 156 1075 L 365 1075 L 365 973 C 403 1009 445 1038 491 1062 C 537 1086 588 1098 645 1098 C 703 1098 757 1087 807 1065 C 857 1043 901 1009 939 963 C 976 916 1005 856 1027 783 C 1048 710 1059 622 1059 520 Z M 848 514 C 848 648 827 747 785 809 C 743 871 684 903 606 903 C 562 903 519 890 477 866 C 434 842 396 808 362 766 L 362 313 C 374 297 388 280 406 264 C 424 247 444 232 466 218 C 488 204 511 193 536 185 C 561 176 587 172 614 172 C 690 172 748 200 788 257 C 828 314 848 400 848 514 Z" unicode="p" />
<glyph horiz-adv-x="1167" d="M 803 -395 L 803 102 C 763 66 721 36 675 12 C 629 -11 578 -23 522 -23 C 464 -23 410 -12 360 9 C 310 31 266 65 229 112 C 191 158 162 218 141 291 C 119 364 109 452 109 555 C 109 647 120 727 143 795 C 166 863 197 920 236 965 C 275 1009 320 1043 371 1065 C 422 1087 476 1098 532 1098 C 559 1098 586 1094 612 1088 C 638 1081 662 1072 686 1061 C 709 1049 730 1036 750 1021 C 770 1006 787 991 803 975 L 803 1075 L 1012 1075 L 1012 -287 L 803 -395 Z M 805 762 C 793 778 778 794 760 811 C 742 827 723 842 701 856 C 679 870 655 881 630 890 C 605 898 579 903 553 903 C 476 903 418 874 378 817 C 338 760 319 675 319 561 C 319 433 339 337 379 271 C 419 205 479 172 561 172 C 609 172 653 185 695 211 C 736 237 773 269 805 309 L 805 762 Z" unicode="q" />
<glyph horiz-adv-x="856" d="M 739 852 C 716 864 692 874 667 881 C 642 887 612 891 578 891 C 510 891 458 867 422 821 C 385 775 367 706 367 614 L 367 0 L 156 0 L 156 1075 L 367 1075 L 367 973 C 379 991 393 1007 411 1022 C 428 1037 447 1050 468 1062 C 489 1073 512 1082 536 1088 C 560 1094 585 1098 612 1098 C 655 1098 691 1094 720 1086 C 748 1078 773 1067 795 1053 L 739 852 Z" unicode="r" />
<glyph horiz-adv-x="1022" d="M 864 979 L 772 817 C 728 848 683 871 638 886 C 593 901 545 909 494 909 C 442 909 404 899 381 881 C 357 863 346 839 346 811 C 346 797 348 785 354 773 C 360 761 370 749 385 737 C 399 725 419 712 445 699 C 471 685 504 671 545 655 C 605 631 657 609 702 588 C 747 566 785 542 815 516 C 845 490 868 459 884 424 C 899 388 907 345 907 295 C 907 235 895 185 873 145 C 851 104 821 71 784 46 C 747 21 704 3 656 -7 C 607 -17 556 -23 504 -23 C 436 -23 364 -10 289 14 C 214 39 148 73 92 115 L 188 274 C 238 239 291 213 345 195 C 399 177 451 168 502 168 C 568 168 618 178 650 199 C 682 219 698 249 698 287 C 698 307 692 325 681 341 C 669 357 653 371 631 385 C 609 399 583 412 553 425 C 522 438 487 452 449 467 C 391 489 341 512 301 534 C 261 556 228 580 203 606 C 178 632 160 661 149 693 C 138 725 133 762 133 805 C 133 853 142 895 160 932 C 178 968 203 999 236 1023 C 268 1047 307 1066 352 1079 C 396 1091 446 1098 500 1098 C 568 1098 633 1087 697 1065 C 760 1043 816 1014 864 979 Z" unicode="s" />
<glyph horiz-adv-x="825" d="M 670 27 C 644 12 613 0 578 -9 C 543 -18 505 -23 463 -23 C 426 -23 394 -17 366 -7 C 338 2 313 19 291 41 C 268 63 251 93 239 129 C 227 165 221 210 221 262 L 221 883 L 68 883 L 68 1075 L 221 1075 L 221 1382 L 428 1493 L 428 1075 L 694 1075 L 694 883 L 428 883 L 428 299 C 428 273 430 252 434 236 C 438 220 445 207 454 197 C 463 187 475 180 489 176 C 503 172 519 170 539 170 C 566 170 594 174 622 183 C 650 191 674 201 694 213 L 670 27 Z" unicode="t" />
<glyph horiz-adv-x="1167" d="M 801 0 L 801 102 C 774 65 737 35 689 12 C 641 -11 588 -23 530 -23 C 404 -23 309 17 244 98 C 179 178 147 299 147 459 L 147 1075 L 358 1075 L 358 467 C 358 368 375 294 410 245 C 445 196 502 172 580 172 C 650 172 705 195 743 243 C 781 291 801 358 801 446 L 801 1075 L 1012 1075 L 1012 0 L 801 0 Z" unicode="u" />
<glyph horiz-adv-x="1110" d="M 664 0 L 453 0 L 68 1075 L 289 1075 L 561 252 L 819 1075 L 1042 1075 L 664 0 Z" unicode="v" />
<glyph horiz-adv-x="1518" d="M 1137 0 L 956 0 L 756 752 L 557 0 L 377 0 L 82 1075 L 291 1075 L 471 337 L 674 1075 L 844 1075 L 1048 337 L 1227 1075 L 1436 1075 L 1137 0 Z" unicode="w" />
<glyph horiz-adv-x="1087" d="M 756 0 L 541 389 L 319 0 L 82 0 L 420 557 L 104 1075 L 348 1075 L 545 719 L 741 1075 L 983 1075 L 666 557 L 1006 0 L 756 0 Z" unicode="x" />
<glyph horiz-adv-x="1139" d="M 530 -379 L 307 -379 L 463 20 L 68 1075 L 299 1075 L 569 265 L 848 1075 L 1071 1075 L 530 -379 Z" unicode="y" />
<glyph horiz-adv-x="1079" d="M 119 0 L 119 172 L 707 891 L 160 891 L 160 1075 L 948 1075 L 948 905 L 371 184 L 948 184 L 948 0 L 119 0 Z" unicode="z" />
<glyph horiz-adv-x="870" d="M 762 -225 C 602 -225 484 -190 406 -121 C 328 -52 289 57 289 207 L 289 338 C 289 373 287 402 283 425 C 279 448 273 466 265 480 C 256 493 244 502 229 508 C 213 513 194 516 172 516 L 125 516 L 125 698 L 172 698 C 194 698 213 700 229 706 C 244 711 256 720 265 734 C 273 747 279 765 283 789 C 287 812 289 841 289 877 L 289 1010 C 289 1158 328 1268 406 1338 C 484 1408 602 1444 762 1444 L 762 1288 C 712 1282 670 1273 637 1261 C 603 1248 577 1231 557 1209 C 537 1187 522 1160 514 1129 C 506 1098 502 1062 502 1022 L 502 926 C 502 878 499 836 494 801 C 488 765 480 735 468 710 C 456 684 440 663 420 647 C 400 630 375 616 346 606 C 375 596 400 582 420 566 C 440 550 456 529 468 504 C 480 479 488 449 494 414 C 499 378 502 337 502 289 L 502 193 C 502 152 506 116 514 86 C 522 56 537 30 557 9 C 577 -11 603 -28 637 -41 C 670 -53 712 -62 762 -68 L 762 -225 Z" unicode="{" />
<glyph horiz-adv-x="604" d="M 205 -379 L 205 1638 L 399 1638 L 399 -379 L 205 -379 Z" unicode="|" />
<glyph horiz-adv-x="870" d="M 698 520 C 675 520 656 517 641 512 C 626 506 614 497 606 484 C 597 470 591 452 587 429 C 583 405 582 376 582 342 L 582 209 C 582 60 543 -49 465 -119 C 387 -189 268 -225 109 -225 L 109 -70 C 159 -64 201 -54 234 -41 C 267 -28 294 -11 314 11 C 334 33 348 59 356 90 C 364 120 369 156 369 197 L 369 293 C 369 341 371 382 377 418 C 382 453 391 483 403 509 C 415 534 431 555 451 571 C 471 587 495 601 524 612 C 494 622 469 636 449 652 C 429 668 414 689 402 714 C 390 739 382 769 377 805 C 371 840 369 882 369 930 L 369 1025 C 369 1065 364 1101 356 1131 C 348 1161 334 1187 314 1208 C 294 1229 267 1246 234 1259 C 200 1271 159 1280 109 1286 L 109 1444 C 268 1444 387 1409 465 1339 C 543 1269 582 1160 582 1012 L 582 881 C 582 845 583 815 587 792 C 591 769 597 751 606 738 C 614 724 626 715 641 710 C 656 704 675 702 698 702 L 745 702 L 745 520 L 698 520 Z" unicode="}" />
<glyph horiz-adv-x="1151" d="M 1065 868 C 1046 820 1026 779 1006 743 C 985 707 962 677 937 653 C 912 629 884 610 854 598 C 824 586 790 580 752 580 C 730 580 711 581 695 584 C 678 586 662 590 647 596 C 632 602 617 609 602 618 C 587 626 571 637 555 649 C 533 665 505 682 472 702 C 438 721 409 731 385 731 C 368 731 353 728 341 723 C 329 718 317 710 306 698 C 294 686 283 670 272 650 C 260 630 247 605 233 575 L 86 651 C 104 698 124 740 145 776 C 165 812 188 842 213 866 C 238 890 266 909 296 921 C 326 933 361 940 399 940 C 419 940 438 938 455 936 C 472 933 488 929 503 923 C 518 917 533 909 548 901 C 562 892 578 882 596 870 C 635 843 668 823 696 809 C 724 795 746 788 764 788 C 780 788 794 790 807 795 C 819 800 831 809 843 821 C 855 833 866 849 878 869 C 890 889 903 914 918 944 L 1065 868 Z" unicode="~" />
<glyph horiz-adv-x="553" d="" unicode=" " />
<glyph horiz-adv-x="610" d="M 459 1303 C 459 1281 454 1261 446 1243 C 438 1224 427 1207 413 1193 C 399 1179 382 1167 364 1159 C 345 1151 325 1147 305 1147 C 283 1147 263 1151 245 1159 C 227 1167 211 1179 197 1193 C 183 1207 172 1224 164 1243 C 156 1261 152 1281 152 1303 C 152 1323 156 1343 164 1362 C 172 1380 183 1397 197 1411 C 211 1425 227 1436 245 1444 C 263 1452 283 1456 305 1456 C 325 1456 345 1452 364 1444 C 382 1436 399 1425 413 1411 C 427 1397 438 1380 446 1362 C 454 1343 459 1323 459 1303 Z M 197 0 L 197 637 L 238 1020 L 373 1020 L 414 637 L 414 0 L 197 0 Z" unicode="¡" />
<glyph horiz-adv-x="1270" d="M 999 977 C 977 999 955 1019 933 1036 C 911 1053 889 1067 865 1078 C 841 1088 816 1096 789 1102 C 761 1107 731 1110 698 1110 C 647 1110 600 1101 558 1084 C 515 1067 478 1043 447 1011 C 416 979 392 940 374 894 C 356 848 348 797 348 741 C 348 681 356 626 373 578 C 389 530 413 489 445 455 C 476 421 514 395 559 377 C 603 359 653 350 709 350 C 773 350 830 361 879 385 C 928 408 972 441 1010 483 L 1143 356 C 1101 312 1053 274 999 243 C 945 211 879 190 803 180 L 803 -23 L 578 -23 L 578 180 C 508 191 446 212 391 243 C 336 273 289 312 251 359 C 213 406 183 461 163 523 C 143 585 133 653 133 727 C 133 803 144 872 167 934 C 189 996 220 1051 260 1098 C 300 1145 347 1184 401 1214 C 455 1244 514 1266 578 1278 L 578 1470 L 803 1470 L 803 1284 C 882 1274 950 1254 1006 1224 C 1062 1194 1109 1157 1149 1114 L 999 977 Z" unicode="¢" />
<glyph horiz-adv-x="1270" d="M 170 0 L 170 170 C 198 201 224 231 247 261 C 270 291 290 322 307 355 C 323 387 336 422 346 459 C 355 495 360 536 362 582 L 172 582 L 172 756 L 338 756 C 330 775 321 794 311 813 C 301 831 290 851 279 872 C 267 890 257 907 249 924 C 240 941 233 958 227 976 C 221 994 217 1012 215 1032 C 212 1051 211 1072 211 1096 C 211 1152 222 1203 245 1248 C 268 1292 300 1330 342 1361 C 383 1391 432 1415 490 1431 C 548 1447 612 1456 682 1456 C 774 1456 858 1440 933 1408 C 1008 1376 1078 1330 1143 1270 L 1020 1120 C 968 1170 915 1208 859 1232 C 803 1256 742 1268 678 1268 C 635 1268 598 1263 567 1253 C 535 1243 509 1230 488 1214 C 467 1197 451 1177 441 1155 C 431 1133 426 1109 426 1083 C 426 1054 430 1026 439 1000 C 448 973 462 944 481 913 C 494 891 507 867 520 841 C 532 814 543 786 551 756 L 854 756 L 854 582 L 565 582 C 563 537 557 496 548 458 C 539 420 528 385 514 353 C 500 321 485 291 468 263 C 450 235 432 210 414 186 L 1147 186 L 1147 0 L 170 0 Z" unicode="£" />
<glyph horiz-adv-x="1257" d="M 684 -23 C 594 -23 514 -5 444 28 C 373 62 313 112 264 176 C 215 240 178 317 152 409 C 126 500 113 603 113 717 C 113 834 126 938 154 1030 C 181 1122 220 1199 270 1262 C 320 1325 381 1373 452 1406 C 523 1439 602 1456 690 1456 C 748 1456 800 1449 846 1437 C 892 1425 933 1406 969 1382 C 1005 1357 1037 1326 1067 1289 C 1096 1252 1124 1209 1151 1159 L 977 1055 C 957 1087 937 1115 918 1139 C 898 1163 877 1183 855 1199 C 833 1215 808 1227 781 1235 C 753 1243 722 1247 686 1247 C 602 1247 532 1223 476 1176 C 419 1129 378 1059 354 967 L 838 967 L 838 799 L 328 799 C 326 785 326 772 326 759 C 326 745 326 732 326 719 C 326 705 326 692 326 680 C 326 668 326 655 328 643 L 838 643 L 838 475 L 352 475 C 378 379 419 306 476 258 C 533 210 604 186 688 186 C 724 186 756 190 784 198 C 812 206 839 219 864 235 C 888 251 911 271 933 295 C 955 319 977 347 999 379 L 1161 262 C 1134 222 1105 184 1075 150 C 1045 115 1011 85 973 59 C 935 33 892 13 845 -1 C 797 -15 744 -23 684 -23 Z" unicode="¤" />
<glyph horiz-adv-x="1270" d="M 741 557 L 741 430 L 1073 430 L 1073 250 L 741 250 L 741 0 L 528 0 L 528 250 L 199 250 L 199 430 L 528 430 L 528 553 L 51 1434 L 301 1434 L 637 758 L 973 1434 L 1219 1434 L 741 557 Z" unicode="¥" />
<glyph horiz-adv-x="633" d="M 217 1638 L 414 1638 L 414 764 L 217 764 L 217 1638 Z M 217 496 L 414 496 L 414 -379 L 217 -379 L 217 496 Z" unicode="¦" />
<glyph horiz-adv-x="1352" d="M 1239 514 C 1239 474 1232 438 1219 406 C 1206 374 1189 344 1168 317 C 1146 290 1122 266 1096 245 C 1069 224 1042 206 1016 190 C 1037 165 1054 137 1066 106 C 1078 75 1085 39 1085 -2 C 1085 -49 1075 -93 1057 -134 C 1039 -174 1012 -210 978 -240 C 944 -270 901 -293 851 -310 C 801 -327 744 -336 680 -336 C 600 -336 526 -323 459 -299 C 391 -274 326 -237 264 -188 L 393 -23 C 443 -61 493 -89 543 -106 C 593 -122 646 -131 700 -131 C 756 -131 797 -119 823 -96 C 849 -72 862 -43 862 -8 C 862 19 851 42 831 62 C 811 81 784 98 751 114 C 718 130 680 144 637 158 C 594 171 550 185 506 201 C 457 217 409 235 362 257 C 315 278 273 304 236 335 C 199 366 169 404 147 448 C 124 492 113 544 113 606 C 113 644 119 680 132 713 C 145 745 162 775 183 802 C 204 829 228 853 255 874 C 281 895 308 914 336 930 C 314 954 297 982 285 1013 C 272 1044 266 1080 266 1122 C 266 1169 275 1213 293 1254 C 311 1294 338 1330 373 1360 C 407 1390 450 1413 500 1430 C 550 1447 608 1456 672 1456 C 752 1456 825 1443 892 1419 C 959 1395 1024 1358 1087 1309 L 958 1143 C 908 1182 858 1210 808 1226 C 758 1242 705 1251 651 1251 C 623 1251 598 1247 578 1241 C 558 1235 541 1226 528 1215 C 514 1204 504 1191 498 1176 C 492 1161 489 1145 489 1128 C 489 1100 499 1077 519 1058 C 539 1038 566 1021 600 1006 C 633 990 671 976 714 963 C 756 949 800 935 846 920 C 894 903 942 884 989 863 C 1036 841 1078 815 1115 784 C 1152 753 1182 716 1205 672 C 1227 628 1239 575 1239 514 Z M 1018 494 C 1018 526 1011 554 997 578 C 983 602 964 623 940 641 C 916 659 889 676 857 690 C 825 704 792 717 756 729 C 712 743 668 758 624 772 C 580 786 537 802 496 821 C 442 794 402 765 375 733 C 347 701 334 666 334 627 C 334 595 341 567 355 543 C 369 519 387 497 411 479 C 435 460 462 444 494 430 C 526 416 560 403 596 391 C 639 376 683 362 727 348 C 771 334 814 317 856 299 C 906 325 946 353 975 385 C 1003 417 1018 453 1018 494 Z" unicode="§" />
<glyph horiz-adv-x="1024" d="M 850 1356 C 850 1337 846 1319 839 1303 C 831 1286 821 1271 809 1259 C 796 1247 781 1237 765 1230 C 748 1222 731 1219 713 1219 C 693 1219 675 1222 659 1230 C 642 1237 627 1247 614 1259 C 601 1271 591 1286 584 1303 C 576 1319 573 1337 573 1356 C 573 1374 576 1392 584 1409 C 591 1426 601 1441 614 1454 C 627 1466 642 1476 659 1484 C 675 1491 693 1495 713 1495 C 731 1495 748 1491 765 1484 C 781 1476 796 1466 809 1454 C 821 1441 831 1426 839 1409 C 846 1392 850 1374 850 1356 Z M 451 1356 C 451 1337 447 1319 440 1303 C 432 1286 422 1271 410 1259 C 397 1247 382 1237 366 1230 C 349 1222 331 1219 313 1219 C 294 1219 276 1222 259 1230 C 242 1237 227 1247 215 1259 C 202 1271 192 1286 185 1303 C 177 1319 174 1337 174 1356 C 174 1374 177 1392 185 1409 C 192 1426 202 1441 215 1454 C 227 1466 242 1476 259 1484 C 276 1491 294 1495 313 1495 C 331 1495 349 1491 366 1484 C 382 1476 397 1466 410 1454 C 422 1441 432 1426 440 1409 C 447 1392 451 1374 451 1356 Z" unicode="¨" />
<glyph horiz-adv-x="1712" d="M 1595 717 C 1595 611 1576 514 1538 424 C 1500 334 1449 255 1383 189 C 1317 123 1239 71 1149 33 C 1059 -4 961 -23 856 -23 C 750 -23 653 -4 563 33 C 473 71 395 123 329 189 C 263 255 211 334 173 424 C 135 514 117 611 117 717 C 117 822 135 920 173 1010 C 211 1100 263 1178 329 1244 C 395 1310 473 1362 564 1400 C 655 1437 752 1456 856 1456 C 960 1456 1057 1437 1148 1400 C 1238 1362 1317 1310 1383 1244 C 1449 1178 1500 1100 1538 1010 C 1576 920 1595 822 1595 717 Z M 1477 717 C 1477 805 1461 886 1429 962 C 1397 1038 1354 1103 1298 1159 C 1242 1214 1177 1257 1101 1289 C 1025 1321 944 1337 856 1337 C 768 1337 686 1321 610 1289 C 534 1257 469 1214 414 1159 C 358 1103 315 1038 283 962 C 251 886 236 805 236 717 C 236 629 251 547 283 471 C 315 395 358 330 414 274 C 469 218 534 175 610 143 C 686 111 768 96 856 96 C 944 96 1025 111 1101 143 C 1177 175 1242 218 1298 274 C 1354 330 1397 395 1429 471 C 1461 547 1477 629 1477 717 Z M 1022 901 C 1000 935 978 959 955 975 C 931 991 900 999 862 999 C 828 999 799 992 774 979 C 749 966 728 948 712 924 C 695 900 682 870 674 836 C 666 802 662 763 662 721 C 662 678 666 639 674 605 C 682 570 695 540 712 516 C 728 492 749 473 774 460 C 799 446 828 440 862 440 C 901 440 933 448 959 466 C 985 484 1009 511 1032 547 L 1147 469 C 1115 414 1075 373 1027 345 C 979 317 924 303 862 303 C 810 303 763 313 721 333 C 679 353 643 382 613 419 C 583 456 560 500 544 552 C 528 603 520 659 520 721 C 520 782 528 838 544 889 C 560 940 583 984 613 1021 C 643 1057 679 1086 721 1106 C 763 1126 810 1137 862 1137 C 928 1137 984 1123 1030 1097 C 1075 1070 1113 1030 1143 977 L 1022 901 Z" unicode="©" />
<glyph horiz-adv-x="942" d="M 627 571 L 627 647 C 597 618 562 595 523 577 C 484 559 443 551 399 551 C 363 551 328 556 292 567 C 256 577 223 594 194 618 C 164 641 140 671 122 709 C 103 746 94 792 94 846 C 94 892 103 933 121 969 C 139 1004 163 1033 195 1057 C 226 1081 263 1098 306 1110 C 348 1122 394 1128 444 1128 C 480 1128 513 1125 545 1119 C 576 1113 603 1106 627 1096 L 627 1151 C 627 1197 613 1232 587 1257 C 560 1281 521 1294 469 1294 C 427 1294 388 1290 352 1282 C 316 1274 280 1261 246 1243 L 178 1372 C 219 1397 264 1417 312 1433 C 360 1448 415 1456 475 1456 C 523 1456 567 1449 607 1437 C 647 1425 681 1406 710 1381 C 738 1356 761 1325 777 1288 C 793 1251 801 1208 801 1159 L 801 571 L 627 571 Z M 627 936 C 603 947 577 956 547 964 C 517 971 480 975 436 975 C 382 975 340 964 310 942 C 279 920 264 889 264 850 C 264 806 277 773 303 749 C 329 725 370 713 426 713 C 462 713 499 722 536 742 C 573 762 603 788 627 821 L 627 936 Z" unicode="ª" />
<glyph horiz-adv-x="1204" d="M 895 0 L 516 537 L 895 1075 L 1122 1075 L 754 539 L 1122 0 L 895 0 Z M 440 0 L 61 537 L 440 1075 L 668 1075 L 299 539 L 668 0 L 440 0 Z" unicode="«" />
<glyph horiz-adv-x="1270" d="M 1129 203 L 918 203 L 918 602 L 140 602 L 140 807 L 1129 807 L 1129 203 Z" unicode="¬" />
<glyph horiz-adv-x="737" d="M 113 645 L 113 854 L 625 854 L 625 645 L 113 645 Z" unicode="­" />
<glyph horiz-adv-x="1712" d="M 1595 717 C 1595 611 1576 514 1538 424 C 1500 334 1449 255 1383 189 C 1317 123 1239 71 1149 33 C 1059 -4 961 -23 856 -23 C 750 -23 653 -4 563 33 C 473 71 395 123 329 189 C 263 255 211 334 173 424 C 135 514 117 611 117 717 C 117 822 135 920 173 1010 C 211 1100 263 1178 329 1244 C 395 1310 473 1362 564 1400 C 655 1437 752 1456 856 1456 C 960 1456 1057 1437 1148 1400 C 1238 1362 1317 1310 1383 1244 C 1449 1178 1500 1100 1538 1010 C 1576 920 1595 822 1595 717 Z M 1477 717 C 1477 805 1461 886 1429 962 C 1397 1038 1354 1103 1298 1159 C 1242 1214 1177 1257 1101 1289 C 1025 1321 944 1337 856 1337 C 768 1337 686 1321 610 1289 C 534 1257 469 1214 414 1159 C 358 1103 315 1038 283 962 C 251 886 236 805 236 717 C 236 629 251 547 283 471 C 315 395 358 330 414 274 C 469 218 534 175 610 143 C 686 111 768 96 856 96 C 944 96 1025 111 1101 143 C 1177 175 1242 218 1298 274 C 1354 330 1397 395 1429 471 C 1461 547 1477 629 1477 717 Z M 1194 891 C 1194 827 1178 775 1147 735 C 1115 695 1074 668 1022 653 L 1188 328 L 1026 328 L 868 639 L 713 639 L 713 328 L 575 328 L 575 1135 L 930 1135 C 966 1135 1000 1130 1032 1120 C 1064 1110 1092 1096 1116 1076 C 1140 1056 1159 1030 1173 1000 C 1187 969 1194 933 1194 891 Z M 1055 887 C 1055 925 1042 953 1018 972 C 993 991 962 1001 926 1001 L 713 1001 L 713 772 L 926 772 C 962 772 993 781 1018 799 C 1042 817 1055 847 1055 887 Z" unicode="®" />
<glyph horiz-adv-x="1024" d="M 225 1249 L 225 1434 L 799 1434 L 799 1249 L 225 1249 Z" unicode="¯" />
<glyph horiz-adv-x="995" d="M 903 1053 C 903 995 892 941 872 891 C 851 841 822 798 786 762 C 750 725 707 696 658 676 C 608 655 555 645 498 645 C 440 645 387 655 338 676 C 288 696 245 725 209 762 C 173 798 144 841 123 891 C 102 941 92 995 92 1053 C 92 1109 102 1161 123 1210 C 144 1259 173 1302 209 1338 C 245 1374 288 1403 338 1424 C 387 1445 440 1456 498 1456 C 555 1456 608 1445 658 1424 C 707 1403 750 1374 786 1338 C 822 1302 851 1259 872 1210 C 892 1161 903 1109 903 1053 Z M 719 1053 C 719 1083 713 1111 702 1138 C 690 1165 675 1189 655 1209 C 635 1229 612 1244 585 1256 C 558 1268 529 1274 498 1274 C 467 1274 438 1268 411 1256 C 384 1244 361 1229 341 1209 C 321 1189 305 1165 293 1138 C 281 1111 276 1083 276 1053 C 276 1021 281 991 293 964 C 305 936 321 912 341 892 C 361 872 384 856 411 844 C 438 832 467 827 498 827 C 529 827 558 832 585 844 C 612 856 635 872 655 892 C 675 912 690 936 702 964 C 713 991 719 1021 719 1053 Z" unicode="°" />
<glyph horiz-adv-x="1270" d="M 740 705 L 740 326 L 529 326 L 529 705 L 140 705 L 140 909 L 529 909 L 529 1288 L 740 1288 L 740 909 L 1129 909 L 1129 705 L 740 705 Z M 140 59 L 140 248 L 1129 248 L 1129 59 L 140 59 Z" unicode="±" />
<glyph horiz-adv-x="868" d="M 106 532 C 109 600 118 658 134 707 C 149 755 170 798 197 835 C 223 872 255 905 292 935 C 328 964 370 993 416 1022 C 447 1041 473 1058 493 1072 C 513 1086 528 1100 540 1113 C 552 1125 560 1138 564 1151 C 568 1163 571 1178 571 1194 C 571 1226 559 1251 537 1269 C 514 1287 481 1296 438 1296 C 416 1296 395 1294 376 1290 C 357 1286 339 1281 322 1273 C 304 1265 287 1256 269 1244 C 251 1232 233 1219 215 1204 L 119 1337 C 143 1355 168 1372 192 1387 C 216 1402 240 1415 266 1425 C 292 1435 319 1442 348 1448 C 376 1453 408 1456 442 1456 C 488 1456 529 1450 567 1440 C 604 1429 636 1413 663 1392 C 690 1370 711 1344 726 1312 C 740 1280 748 1244 748 1202 C 748 1168 744 1139 736 1113 C 728 1087 716 1063 699 1041 C 681 1018 658 995 630 973 C 601 951 566 927 524 901 C 488 878 457 858 433 840 C 408 822 387 805 371 789 C 354 773 341 757 331 742 C 321 727 314 712 309 696 L 756 696 L 756 532 L 106 532 Z" unicode="²" />
<glyph horiz-adv-x="817" d="M 377 520 C 313 520 253 533 199 560 C 145 587 97 622 55 666 L 168 782 C 202 748 236 722 270 704 C 304 686 341 678 381 678 C 437 678 479 688 507 710 C 535 732 549 765 549 809 C 549 849 534 878 505 898 C 475 918 436 928 387 928 L 293 928 L 293 1081 L 387 1081 C 430 1081 462 1090 483 1110 C 503 1129 514 1156 514 1192 C 514 1222 503 1248 481 1268 C 459 1288 423 1298 373 1298 C 339 1298 309 1290 281 1276 C 253 1261 223 1240 193 1212 L 86 1329 C 124 1365 166 1395 214 1419 C 262 1443 316 1456 377 1456 C 421 1456 463 1450 501 1440 C 539 1430 571 1414 599 1394 C 627 1373 648 1347 664 1316 C 680 1284 688 1248 688 1206 C 688 1160 679 1123 663 1093 C 647 1063 624 1038 596 1018 C 614 1010 631 999 647 987 C 662 975 675 960 687 943 C 698 926 707 907 713 885 C 719 863 723 839 723 811 C 723 764 715 723 699 687 C 683 651 660 620 630 596 C 600 571 564 552 522 539 C 479 526 431 520 377 520 Z" unicode="³" />
<glyph horiz-adv-x="1024" d="M 481 1219 L 313 1219 L 532 1546 L 819 1546 L 481 1219 Z" unicode="´" />
<glyph horiz-adv-x="1176" d="M 809 0 L 809 102 C 778 59 738 27 689 7 C 640 -12 590 -23 539 -23 C 499 -23 463 -19 433 -12 C 403 -4 380 3 365 11 L 365 -287 L 156 -395 L 156 1075 L 367 1075 L 367 467 C 367 413 372 367 382 329 C 392 291 406 261 425 238 C 444 214 467 197 495 187 C 522 177 553 172 588 172 C 622 172 652 177 677 187 C 701 197 724 214 746 238 C 767 261 783 291 793 327 C 803 363 809 402 809 446 L 809 1075 L 1020 1075 L 1020 0 L 809 0 Z" unicode="µ" />
<glyph horiz-adv-x="1483" d="M 1098 -379 L 1098 1237 L 936 1237 L 936 -379 L 733 -379 L 733 535 L 561 535 C 497 535 438 544 382 564 C 326 584 276 613 234 651 C 191 689 157 737 133 793 C 108 849 96 913 96 985 C 96 1057 108 1120 133 1176 C 158 1232 192 1279 234 1317 C 276 1355 326 1384 382 1404 C 438 1424 498 1434 561 1434 L 1300 1434 L 1300 -379 L 1098 -379 Z" unicode="¶" />
<glyph horiz-adv-x="520" d="M 422 752 C 422 730 417 709 409 689 C 400 669 388 652 374 638 C 359 623 342 611 322 603 C 302 594 282 590 260 590 C 238 590 217 594 197 603 C 177 611 160 623 146 638 C 131 652 119 669 111 689 C 102 709 98 730 98 752 C 98 774 102 794 111 814 C 119 834 131 851 146 866 C 160 881 177 893 197 902 C 217 910 238 915 260 915 C 282 915 302 910 322 902 C 342 893 359 881 374 866 C 388 851 400 834 409 814 C 417 794 422 774 422 752 Z" unicode="·" />
<glyph horiz-adv-x="1024" d="M 438 25 L 543 25 L 521 -92 C 534 -86 548 -82 563 -79 C 578 -75 597 -74 620 -74 C 637 -74 654 -76 672 -82 C 690 -87 706 -95 720 -107 C 734 -119 745 -134 754 -152 C 763 -170 768 -191 768 -217 C 768 -249 761 -276 748 -299 C 734 -321 716 -340 694 -354 C 671 -368 644 -379 614 -385 C 584 -391 552 -395 518 -395 C 468 -395 423 -388 383 -376 C 342 -363 303 -345 266 -322 L 311 -254 C 370 -286 430 -303 491 -303 C 536 -303 569 -295 590 -280 C 611 -265 622 -246 622 -223 C 622 -202 616 -186 604 -175 C 592 -163 576 -158 557 -158 C 523 -158 496 -168 475 -188 L 401 -160 L 438 25 Z" unicode="¸" />
<glyph horiz-adv-x="670" d="M 285 1188 L 131 1188 L 131 1317 C 158 1319 182 1322 203 1326 C 223 1330 241 1336 256 1344 C 271 1352 283 1364 293 1378 C 302 1392 309 1410 315 1432 L 461 1432 L 461 522 L 285 522 L 285 1188 Z" unicode="¹" />
<glyph horiz-adv-x="991" d="M 883 1010 C 883 938 873 873 853 817 C 833 760 805 712 770 673 C 734 634 693 604 645 584 C 597 563 545 553 489 553 C 435 553 384 563 338 585 C 292 607 252 637 218 677 C 184 716 157 763 138 819 C 118 874 109 936 109 1004 C 109 1074 118 1138 138 1194 C 158 1250 185 1297 220 1336 C 254 1375 295 1405 342 1425 C 389 1445 440 1456 496 1456 C 551 1456 602 1445 650 1424 C 697 1403 738 1373 772 1334 C 806 1295 833 1248 853 1193 C 873 1138 883 1077 883 1010 Z M 705 1004 C 705 1047 700 1086 690 1121 C 680 1156 665 1186 647 1211 C 628 1235 605 1254 579 1268 C 552 1281 522 1288 489 1288 C 457 1288 428 1281 403 1268 C 378 1254 357 1236 340 1212 C 322 1188 309 1158 300 1124 C 291 1090 287 1052 287 1010 C 287 963 292 922 302 886 C 312 850 326 819 345 795 C 363 771 385 752 411 740 C 437 727 466 721 498 721 C 529 721 557 728 583 743 C 608 758 630 778 648 804 C 666 829 680 859 690 893 C 700 927 705 964 705 1004 Z" unicode="º" />
<glyph horiz-adv-x="1204" d="M 764 0 L 537 0 L 905 537 L 537 1075 L 764 1075 L 1143 539 L 764 0 Z M 309 0 L 82 0 L 451 537 L 82 1075 L 309 1075 L 688 539 L 309 0 Z" unicode="»" />
<glyph horiz-adv-x="1905" d="M 325 1188 L 171 1188 L 171 1317 C 198 1319 222 1322 243 1326 C 263 1330 281 1336 296 1344 C 311 1352 323 1364 333 1378 C 342 1392 349 1410 355 1432 L 501 1432 L 501 522 L 325 522 L 325 1188 Z M 539 0 L 301 0 L 1262 1434 L 1499 1434 L 539 0 Z M 1449 198 L 984 198 L 984 327 L 1447 910 L 1615 910 L 1615 351 L 1732 351 L 1732 196 L 1615 196 L 1615 1 L 1449 1 L 1449 198 Z M 1449 351 L 1449 674 L 1195 351 L 1449 351 Z" unicode="¼" />
<glyph horiz-adv-x="1905" d="M 311 1188 L 157 1188 L 157 1317 C 184 1319 208 1322 229 1326 C 249 1330 267 1336 282 1344 C 297 1352 309 1364 319 1378 C 328 1392 335 1410 341 1432 L 487 1432 L 487 522 L 311 522 L 311 1188 Z M 486 0 L 248 0 L 1209 1434 L 1446 1434 L 486 0 Z M 1098 -2 C 1101 66 1110 124 1126 173 C 1141 221 1162 264 1189 301 C 1215 338 1247 371 1284 401 C 1320 430 1362 459 1408 488 C 1439 507 1465 524 1485 538 C 1505 552 1520 566 1532 579 C 1544 591 1552 604 1556 617 C 1560 629 1563 644 1563 660 C 1563 692 1551 717 1529 735 C 1506 753 1473 762 1430 762 C 1408 762 1387 760 1368 756 C 1349 752 1331 747 1314 739 C 1296 731 1279 722 1261 710 C 1243 698 1225 685 1207 670 L 1111 803 C 1135 821 1160 838 1184 853 C 1208 868 1232 881 1258 891 C 1284 901 1311 908 1340 914 C 1368 919 1400 922 1434 922 C 1480 922 1521 916 1559 906 C 1596 895 1628 879 1655 858 C 1682 836 1703 810 1718 778 C 1732 746 1740 710 1740 668 C 1740 634 1736 605 1728 579 C 1720 553 1708 529 1691 507 C 1673 484 1650 461 1622 439 C 1593 417 1558 393 1516 367 C 1480 344 1449 324 1425 306 C 1400 288 1379 271 1363 255 C 1346 239 1333 223 1323 208 C 1313 193 1306 178 1301 162 L 1748 162 L 1748 -2 L 1098 -2 Z" unicode="½" />
<glyph horiz-adv-x="1905" d="M 435 520 C 371 520 311 533 257 560 C 203 587 155 622 113 666 L 226 782 C 260 748 294 722 328 704 C 362 686 399 678 439 678 C 495 678 537 688 565 710 C 593 732 607 765 607 809 C 607 849 592 878 563 898 C 533 918 494 928 445 928 L 351 928 L 351 1081 L 445 1081 C 488 1081 520 1090 541 1110 C 561 1129 572 1156 572 1192 C 572 1222 561 1248 539 1268 C 517 1288 481 1298 431 1298 C 397 1298 367 1290 339 1276 C 311 1261 281 1240 251 1212 L 144 1329 C 182 1365 224 1395 272 1419 C 320 1443 374 1456 435 1456 C 479 1456 521 1450 559 1440 C 597 1430 629 1414 657 1394 C 685 1373 706 1347 722 1316 C 738 1284 746 1248 746 1206 C 746 1160 737 1123 721 1093 C 705 1063 682 1038 654 1018 C 672 1010 689 999 705 987 C 720 975 733 960 745 943 C 756 926 765 907 771 885 C 777 863 781 839 781 811 C 781 764 773 723 757 687 C 741 651 718 620 688 596 C 658 571 622 552 580 539 C 537 526 489 520 435 520 Z M 667 0 L 429 0 L 1390 1434 L 1627 1434 L 667 0 Z M 1509 197 L 1044 197 L 1044 326 L 1507 909 L 1675 909 L 1675 350 L 1792 350 L 1792 195 L 1675 195 L 1675 0 L 1509 0 L 1509 197 Z M 1509 350 L 1509 673 L 1255 350 L 1509 350 Z" unicode="¾" />
<glyph horiz-adv-x="1169" d="M 795 1303 C 795 1281 790 1261 782 1243 C 774 1224 763 1207 749 1193 C 735 1179 718 1167 700 1159 C 681 1151 661 1147 641 1147 C 619 1147 599 1151 581 1159 C 562 1167 546 1179 532 1193 C 518 1207 507 1224 499 1243 C 491 1261 487 1281 487 1303 C 487 1323 491 1343 499 1362 C 507 1380 518 1397 532 1411 C 546 1425 562 1436 581 1444 C 599 1452 619 1456 641 1456 C 661 1456 681 1452 700 1444 C 718 1436 735 1425 749 1411 C 763 1397 774 1380 782 1362 C 790 1343 795 1323 795 1303 Z M 1100 188 C 1070 158 1038 131 1002 106 C 966 80 928 58 886 39 C 844 19 799 4 751 -6 C 703 -17 653 -23 600 -23 C 527 -23 461 -14 401 1 C 341 17 289 42 246 74 C 203 106 170 145 146 193 C 122 241 111 296 111 358 C 111 408 116 451 128 488 C 139 525 156 558 178 588 C 200 617 228 644 261 668 C 293 692 331 717 375 741 C 408 759 435 777 455 794 C 475 810 490 829 501 849 C 512 869 519 893 523 920 C 526 947 528 980 528 1020 L 752 1020 C 752 960 749 913 744 881 C 738 848 732 822 726 803 C 719 784 709 764 696 743 C 682 722 667 704 650 689 C 633 673 615 658 595 643 C 575 628 537 605 481 573 C 455 559 432 545 413 531 C 394 517 378 503 366 487 C 354 471 345 454 339 436 C 333 417 330 395 330 371 C 330 313 353 268 401 237 C 449 205 517 190 606 190 C 644 190 679 193 711 201 C 743 208 774 219 803 233 C 831 247 859 263 885 283 C 911 303 937 325 963 350 L 1100 188 Z" unicode="¿" />
<glyph horiz-adv-x="1458" d="M 1362 0 L 1133 0 L 1012 340 L 438 340 L 319 0 L 96 0 L 612 1434 L 840 1434 L 1362 0 Z M 946 532 L 723 1171 L 504 532 L 946 532 Z M 682 1526 L 344 1853 L 631 1853 L 850 1526 L 682 1526 Z" unicode="À" />
<glyph horiz-adv-x="1458" d="M 1362 0 L 1133 0 L 1012 340 L 438 340 L 319 0 L 96 0 L 612 1434 L 840 1434 L 1362 0 Z M 946 532 L 723 1171 L 504 532 L 946 532 Z M 764 1526 L 596 1526 L 815 1853 L 1102 1853 L 764 1526 Z" unicode="Á" />
<glyph horiz-adv-x="1458" d="M 1362 0 L 1133 0 L 1012 340 L 438 340 L 319 0 L 96 0 L 612 1434 L 840 1434 L 1362 0 Z M 946 532 L 723 1171 L 504 532 L 946 532 Z M 918 1504 L 723 1684 L 528 1504 L 363 1504 L 602 1831 L 848 1831 L 1087 1504 L 918 1504 Z" unicode="Â" />
<glyph horiz-adv-x="1458" d="M 1362 0 L 1133 0 L 1012 340 L 438 340 L 319 0 L 96 0 L 612 1434 L 840 1434 L 1362 0 Z M 946 532 L 723 1171 L 504 532 L 946 532 Z M 1094 1798 C 1094 1752 1088 1712 1077 1677 C 1066 1642 1051 1613 1032 1590 C 1013 1566 990 1549 964 1537 C 938 1525 909 1519 879 1519 C 859 1519 841 1520 823 1524 C 805 1527 787 1532 769 1540 C 750 1547 730 1556 709 1568 C 687 1579 663 1593 637 1610 C 623 1618 609 1624 595 1630 C 581 1635 568 1638 557 1638 C 534 1638 516 1629 504 1613 C 492 1597 483 1568 478 1526 L 332 1526 C 332 1571 337 1611 348 1646 C 359 1680 374 1709 393 1733 C 412 1756 435 1774 461 1786 C 487 1798 516 1804 547 1804 C 566 1804 584 1802 602 1799 C 620 1795 638 1790 657 1783 C 675 1776 695 1767 717 1756 C 738 1744 762 1730 789 1714 C 803 1706 817 1699 831 1693 C 845 1687 857 1685 869 1685 C 891 1685 909 1693 922 1710 C 934 1726 943 1756 949 1798 L 1094 1798 Z" unicode="Ã" />
<glyph horiz-adv-x="1458" d="M 1362 0 L 1133 0 L 1012 340 L 438 340 L 319 0 L 96 0 L 612 1434 L 840 1434 L 1362 0 Z M 946 532 L 723 1171 L 504 532 L 946 532 Z M 1059 1663 C 1059 1644 1055 1626 1048 1610 C 1040 1593 1030 1578 1018 1566 C 1005 1554 990 1544 974 1537 C 957 1529 940 1526 922 1526 C 902 1526 884 1529 868 1537 C 851 1544 836 1554 823 1566 C 810 1578 800 1593 793 1610 C 785 1626 782 1644 782 1663 C 782 1681 785 1699 793 1716 C 800 1733 810 1748 823 1761 C 836 1773 851 1783 868 1791 C 884 1798 902 1802 922 1802 C 940 1802 957 1798 974 1791 C 990 1783 1005 1773 1018 1761 C 1030 1748 1040 1733 1048 1716 C 1055 1699 1059 1681 1059 1663 Z M 660 1663 C 660 1644 656 1626 649 1610 C 641 1593 631 1578 619 1566 C 606 1554 591 1544 575 1537 C 558 1529 540 1526 522 1526 C 503 1526 485 1529 468 1537 C 451 1544 436 1554 424 1566 C 411 1578 401 1593 394 1610 C 386 1626 383 1644 383 1663 C 383 1681 386 1699 394 1716 C 401 1733 411 1748 424 1761 C 436 1773 451 1783 468 1791 C 485 1798 503 1802 522 1802 C 540 1802 558 1798 575 1791 C 591 1783 606 1773 619 1761 C 631 1748 641 1733 649 1716 C 656 1699 660 1681 660 1663 Z" unicode="Ä" />
<glyph horiz-adv-x="1458" d="M 1133 0 L 1012 340 L 438 340 L 319 0 L 96 0 L 575 1331 C 542 1353 516 1383 496 1420 C 476 1457 467 1498 467 1544 C 467 1580 473 1614 486 1646 C 499 1678 517 1705 540 1728 C 563 1751 590 1769 622 1782 C 654 1795 688 1802 725 1802 C 761 1802 795 1795 827 1782 C 859 1769 886 1751 909 1728 C 932 1705 950 1678 963 1646 C 976 1614 983 1580 983 1544 C 983 1498 973 1457 954 1421 C 935 1385 909 1355 877 1333 L 1362 0 L 1133 0 Z M 850 1544 C 850 1562 846 1578 840 1594 C 834 1609 825 1622 814 1633 C 803 1644 790 1653 775 1659 C 759 1665 743 1669 725 1669 C 707 1669 690 1665 675 1659 C 659 1653 646 1644 635 1633 C 624 1622 615 1609 609 1594 C 603 1578 600 1562 600 1544 C 600 1526 603 1509 609 1494 C 615 1479 624 1466 635 1455 C 646 1443 659 1434 675 1428 C 690 1422 707 1419 725 1419 C 743 1419 759 1422 775 1428 C 790 1434 803 1443 814 1455 C 825 1466 834 1479 840 1494 C 846 1509 850 1526 850 1544 Z M 946 532 L 723 1171 L 504 532 L 946 532 Z" unicode="Å" />
<glyph horiz-adv-x="2085" d="M 1935 1434 L 1935 1225 L 1227 1225 L 1227 870 L 1800 870 L 1800 662 L 1227 662 L 1227 209 L 1966 209 L 1966 0 L 1020 0 L 1020 336 L 489 336 L 268 0 L 29 0 L 991 1434 L 1935 1434 Z M 621 535 L 1020 535 L 1020 1138 L 621 535 Z" unicode="Æ" />
<glyph horiz-adv-x="1341" d="M 1022 1069 C 1003 1098 984 1123 965 1145 C 945 1167 924 1185 901 1199 C 877 1213 851 1223 823 1230 C 794 1237 761 1241 725 1241 C 662 1241 607 1228 559 1204 C 511 1180 470 1145 438 1099 C 406 1053 381 998 365 934 C 348 869 340 797 340 717 C 340 636 348 563 365 499 C 381 434 406 379 438 334 C 470 288 511 253 559 229 C 607 205 662 193 725 193 C 799 193 861 208 911 238 C 960 268 1003 312 1040 371 L 1219 252 C 1185 198 1154 157 1124 129 C 1094 101 1061 75 1024 53 C 987 31 944 12 894 -1 C 844 -15 788 -23 725 -23 C 657 -23 595 -14 541 4 C 487 22 438 46 394 78 C 350 109 310 148 274 195 C 238 242 210 291 189 342 C 167 392 150 449 138 512 C 125 574 119 643 119 717 C 119 825 133 925 161 1015 C 189 1105 230 1183 283 1249 C 335 1314 399 1365 474 1401 C 548 1437 632 1456 725 1456 C 841 1456 939 1433 1019 1387 C 1098 1341 1162 1274 1212 1188 L 1022 1069 Z M 644 25 L 749 25 L 727 -92 C 740 -86 754 -82 769 -79 C 784 -75 803 -74 826 -74 C 843 -74 860 -76 878 -82 C 896 -87 912 -95 926 -107 C 940 -119 951 -134 960 -152 C 969 -170 974 -191 974 -217 C 974 -249 967 -276 954 -299 C 940 -321 922 -340 900 -354 C 877 -368 850 -379 820 -385 C 790 -391 758 -395 724 -395 C 674 -395 629 -388 589 -376 C 548 -363 509 -345 472 -322 L 517 -254 C 576 -286 636 -303 697 -303 C 742 -303 775 -295 796 -280 C 817 -265 828 -246 828 -223 C 828 -202 822 -186 810 -175 C 798 -163 782 -158 763 -158 C 729 -158 702 -168 681 -188 L 607 -160 L 644 25 Z" unicode="Ç" />
<glyph horiz-adv-x="1260" d="M 1141 0 L 186 0 L 186 1434 L 1110 1434 L 1110 1225 L 401 1225 L 401 870 L 977 870 L 977 662 L 401 662 L 401 209 L 1141 209 L 1141 0 Z M 598 1526 L 260 1853 L 547 1853 L 766 1526 L 598 1526 Z" unicode="È" />
<glyph horiz-adv-x="1260" d="M 1141 0 L 186 0 L 186 1434 L 1110 1434 L 1110 1225 L 401 1225 L 401 870 L 977 870 L 977 662 L 401 662 L 401 209 L 1141 209 L 1141 0 Z M 680 1526 L 512 1526 L 731 1853 L 1018 1853 L 680 1526 Z" unicode="É" />
<glyph horiz-adv-x="1260" d="M 1141 0 L 186 0 L 186 1434 L 1110 1434 L 1110 1225 L 401 1225 L 401 870 L 977 870 L 977 662 L 401 662 L 401 209 L 1141 209 L 1141 0 Z M 830 1526 L 635 1706 L 440 1526 L 275 1526 L 514 1853 L 760 1853 L 999 1526 L 830 1526 Z" unicode="Ê" />
<glyph horiz-adv-x="1260" d="M 1141 0 L 186 0 L 186 1434 L 1110 1434 L 1110 1225 L 401 1225 L 401 870 L 977 870 L 977 662 L 401 662 L 401 209 L 1141 209 L 1141 0 Z M 975 1663 C 975 1644 971 1626 964 1610 C 956 1593 946 1578 934 1566 C 921 1554 906 1544 890 1537 C 873 1529 856 1526 838 1526 C 818 1526 800 1529 784 1537 C 767 1544 752 1554 739 1566 C 726 1578 716 1593 709 1610 C 701 1626 698 1644 698 1663 C 698 1681 701 1699 709 1716 C 716 1733 726 1748 739 1761 C 752 1773 767 1783 784 1791 C 800 1798 818 1802 838 1802 C 856 1802 873 1798 890 1791 C 906 1783 921 1773 934 1761 C 946 1748 956 1733 964 1716 C 971 1699 975 1681 975 1663 Z M 576 1663 C 576 1644 572 1626 565 1610 C 557 1593 547 1578 535 1566 C 522 1554 507 1544 491 1537 C 474 1529 456 1526 438 1526 C 419 1526 401 1529 384 1537 C 367 1544 352 1554 340 1566 C 327 1578 317 1593 310 1610 C 302 1626 299 1644 299 1663 C 299 1681 302 1699 310 1716 C 317 1733 327 1748 340 1761 C 352 1773 367 1783 384 1791 C 401 1798 419 1802 438 1802 C 456 1802 474 1798 491 1791 C 507 1783 522 1773 535 1761 C 547 1748 557 1733 565 1716 C 572 1699 576 1681 576 1663 Z" unicode="Ë" />
<glyph horiz-adv-x="608" d="M 197 0 L 197 1434 L 412 1434 L 412 0 L 197 0 Z M 247 1526 L -91 1853 L 196 1853 L 415 1526 L 247 1526 Z" unicode="Ì" />
<glyph horiz-adv-x="608" d="M 197 0 L 197 1434 L 412 1434 L 412 0 L 197 0 Z M 369 1526 L 201 1526 L 420 1853 L 707 1853 L 369 1526 Z" unicode="Í" />
<glyph horiz-adv-x="608" d="M 197 0 L 197 1434 L 412 1434 L 412 0 L 197 0 Z M 499 1512 L 304 1692 L 109 1512 L -56 1512 L 183 1839 L 429 1839 L 668 1512 L 499 1512 Z" unicode="Î" />
<glyph horiz-adv-x="608" d="M 197 0 L 197 1434 L 412 1434 L 412 0 L 197 0 Z M 644 1663 C 644 1644 640 1626 633 1610 C 625 1593 615 1578 603 1566 C 590 1554 575 1544 559 1537 C 542 1529 525 1526 507 1526 C 487 1526 469 1529 453 1537 C 436 1544 421 1554 408 1566 C 395 1578 385 1593 378 1610 C 370 1626 367 1644 367 1663 C 367 1681 370 1699 378 1716 C 385 1733 395 1748 408 1761 C 421 1773 436 1783 453 1791 C 469 1798 487 1802 507 1802 C 525 1802 542 1798 559 1791 C 575 1783 590 1773 603 1761 C 615 1748 625 1733 633 1716 C 640 1699 644 1681 644 1663 Z M 245 1663 C 245 1644 241 1626 234 1610 C 226 1593 216 1578 204 1566 C 191 1554 176 1544 160 1537 C 143 1529 125 1526 107 1526 C 88 1526 70 1529 53 1537 C 36 1544 21 1554 9 1566 C -3 1578 -13 1593 -21 1610 C -28 1626 -32 1644 -32 1663 C -32 1681 -28 1699 -21 1716 C -13 1733 -3 1748 9 1761 C 21 1773 36 1783 53 1791 C 70 1798 88 1802 107 1802 C 125 1802 143 1798 160 1791 C 176 1783 191 1773 204 1761 C 216 1748 226 1733 234 1716 C 241 1699 245 1681 245 1663 Z" unicode="Ï" />
<glyph horiz-adv-x="1421" d="M 1307 717 C 1307 590 1288 481 1250 391 C 1212 301 1162 227 1098 169 C 1034 111 959 68 875 41 C 791 13 702 0 608 0 L 217 0 L 217 647 L 82 647 L 82 852 L 217 852 L 217 1434 L 608 1434 C 704 1434 794 1420 879 1393 C 964 1365 1038 1323 1102 1265 C 1165 1207 1215 1132 1252 1042 C 1288 952 1307 843 1307 717 Z M 1087 717 C 1087 792 1078 861 1060 923 C 1042 985 1013 1038 975 1083 C 936 1127 886 1162 826 1186 C 765 1210 692 1223 608 1223 L 426 1223 L 426 852 L 686 852 L 686 647 L 426 647 L 426 211 L 608 211 C 692 211 765 223 826 247 C 886 271 936 306 975 351 C 1013 395 1042 449 1060 511 C 1078 573 1087 641 1087 717 Z" unicode="Ð" />
<glyph horiz-adv-x="1462" d="M 1276 0 L 1071 0 L 395 1062 L 395 0 L 186 0 L 186 1434 L 406 1434 L 1067 372 L 1067 1434 L 1276 1434 L 1276 0 Z M 1126 1802 C 1126 1756 1120 1716 1109 1681 C 1098 1646 1083 1617 1064 1594 C 1045 1570 1022 1553 996 1541 C 970 1529 941 1523 911 1523 C 891 1523 873 1524 855 1528 C 837 1531 819 1536 801 1544 C 782 1551 762 1560 741 1572 C 719 1583 695 1597 669 1614 C 655 1622 641 1628 627 1634 C 613 1639 600 1642 589 1642 C 566 1642 548 1633 536 1617 C 524 1601 515 1572 510 1530 L 364 1530 C 364 1575 369 1615 380 1650 C 391 1684 406 1713 425 1737 C 444 1760 467 1778 493 1790 C 519 1802 548 1808 579 1808 C 598 1808 616 1806 634 1803 C 652 1799 670 1794 689 1787 C 707 1780 727 1771 749 1760 C 770 1748 794 1734 821 1718 C 835 1710 849 1703 863 1697 C 877 1691 889 1689 901 1689 C 923 1689 941 1697 954 1714 C 966 1730 975 1760 981 1802 L 1126 1802 Z" unicode="Ñ" />
<glyph horiz-adv-x="1456" d="M 1339 719 C 1339 607 1324 505 1294 414 C 1264 323 1223 245 1169 180 C 1115 115 1050 65 975 30 C 899 -5 816 -23 725 -23 C 634 -23 551 -5 477 29 C 402 64 338 114 285 178 C 231 242 190 320 161 411 C 131 501 117 603 117 715 C 117 826 131 927 161 1019 C 191 1110 233 1188 287 1253 C 341 1317 405 1367 480 1403 C 555 1438 638 1456 729 1456 C 820 1456 903 1438 978 1403 C 1053 1368 1117 1318 1171 1254 C 1224 1190 1265 1112 1295 1022 C 1324 931 1339 830 1339 719 Z M 1120 715 C 1120 796 1110 869 1090 934 C 1070 999 1042 1054 1007 1100 C 971 1146 929 1181 881 1206 C 833 1230 780 1243 723 1243 C 666 1243 614 1231 567 1207 C 519 1183 478 1148 444 1103 C 410 1057 383 1002 364 938 C 345 873 336 800 336 719 C 336 637 345 564 365 499 C 385 433 412 378 447 332 C 482 286 524 251 572 227 C 620 202 673 190 731 190 C 787 190 839 202 887 226 C 935 250 976 284 1010 330 C 1044 375 1071 430 1091 495 C 1110 560 1120 633 1120 715 Z M 691 1526 L 353 1853 L 640 1853 L 859 1526 L 691 1526 Z" unicode="Ò" />
<glyph horiz-adv-x="1456" d="M 1339 719 C 1339 607 1324 505 1294 414 C 1264 323 1223 245 1169 180 C 1115 115 1050 65 975 30 C 899 -5 816 -23 725 -23 C 634 -23 551 -5 477 29 C 402 64 338 114 285 178 C 231 242 190 320 161 411 C 131 501 117 603 117 715 C 117 826 131 927 161 1019 C 191 1110 233 1188 287 1253 C 341 1317 405 1367 480 1403 C 555 1438 638 1456 729 1456 C 820 1456 903 1438 978 1403 C 1053 1368 1117 1318 1171 1254 C 1224 1190 1265 1112 1295 1022 C 1324 931 1339 830 1339 719 Z M 1120 715 C 1120 796 1110 869 1090 934 C 1070 999 1042 1054 1007 1100 C 971 1146 929 1181 881 1206 C 833 1230 780 1243 723 1243 C 666 1243 614 1231 567 1207 C 519 1183 478 1148 444 1103 C 410 1057 383 1002 364 938 C 345 873 336 800 336 719 C 336 637 345 564 365 499 C 385 433 412 378 447 332 C 482 286 524 251 572 227 C 620 202 673 190 731 190 C 787 190 839 202 887 226 C 935 250 976 284 1010 330 C 1044 375 1071 430 1091 495 C 1110 560 1120 633 1120 715 Z M 760 1526 L 592 1526 L 811 1853 L 1098 1853 L 760 1526 Z" unicode="Ó" />
<glyph horiz-adv-x="1456" d="M 1339 719 C 1339 607 1324 505 1294 414 C 1264 323 1223 245 1169 180 C 1115 115 1050 65 975 30 C 899 -5 816 -23 725 -23 C 634 -23 551 -5 477 29 C 402 64 338 114 285 178 C 231 242 190 320 161 411 C 131 501 117 603 117 715 C 117 826 131 927 161 1019 C 191 1110 233 1188 287 1253 C 341 1317 405 1367 480 1403 C 555 1438 638 1456 729 1456 C 820 1456 903 1438 978 1403 C 1053 1368 1117 1318 1171 1254 C 1224 1190 1265 1112 1295 1022 C 1324 931 1339 830 1339 719 Z M 1120 715 C 1120 796 1110 869 1090 934 C 1070 999 1042 1054 1007 1100 C 971 1146 929 1181 881 1206 C 833 1230 780 1243 723 1243 C 666 1243 614 1231 567 1207 C 519 1183 478 1148 444 1103 C 410 1057 383 1002 364 938 C 345 873 336 800 336 719 C 336 637 345 564 365 499 C 385 433 412 378 447 332 C 482 286 524 251 572 227 C 620 202 673 190 731 190 C 787 190 839 202 887 226 C 935 250 976 284 1010 330 C 1044 375 1071 430 1091 495 C 1110 560 1120 633 1120 715 Z M 910 1516 L 715 1696 L 520 1516 L 355 1516 L 594 1843 L 840 1843 L 1079 1516 L 910 1516 Z" unicode="Ô" />
<glyph horiz-adv-x="1456" d="M 1339 719 C 1339 607 1324 505 1294 414 C 1264 323 1223 245 1169 180 C 1115 115 1050 65 975 30 C 899 -5 816 -23 725 -23 C 634 -23 551 -5 477 29 C 402 64 338 114 285 178 C 231 242 190 320 161 411 C 131 501 117 603 117 715 C 117 826 131 927 161 1019 C 191 1110 233 1188 287 1253 C 341 1317 405 1367 480 1403 C 555 1438 638 1456 729 1456 C 820 1456 903 1438 978 1403 C 1053 1368 1117 1318 1171 1254 C 1224 1190 1265 1112 1295 1022 C 1324 931 1339 830 1339 719 Z M 1120 715 C 1120 796 1110 869 1090 934 C 1070 999 1042 1054 1007 1100 C 971 1146 929 1181 881 1206 C 833 1230 780 1243 723 1243 C 666 1243 614 1231 567 1207 C 519 1183 478 1148 444 1103 C 410 1057 383 1002 364 938 C 345 873 336 800 336 719 C 336 637 345 564 365 499 C 385 433 412 378 447 332 C 482 286 524 251 572 227 C 620 202 673 190 731 190 C 787 190 839 202 887 226 C 935 250 976 284 1010 330 C 1044 375 1071 430 1091 495 C 1110 560 1120 633 1120 715 Z M 1087 1798 C 1087 1752 1081 1712 1070 1677 C 1059 1642 1044 1613 1025 1590 C 1006 1566 983 1549 957 1537 C 931 1525 902 1519 872 1519 C 852 1519 834 1520 816 1524 C 798 1527 780 1532 762 1540 C 743 1547 723 1556 702 1568 C 680 1579 656 1593 630 1610 C 616 1618 602 1624 588 1630 C 574 1635 561 1638 550 1638 C 527 1638 509 1629 497 1613 C 485 1597 476 1568 471 1526 L 325 1526 C 325 1571 330 1611 341 1646 C 352 1680 367 1709 386 1733 C 405 1756 428 1774 454 1786 C 480 1798 509 1804 540 1804 C 559 1804 577 1802 595 1799 C 613 1795 631 1790 650 1783 C 668 1776 688 1767 710 1756 C 731 1744 755 1730 782 1714 C 796 1706 810 1699 824 1693 C 838 1687 850 1685 862 1685 C 884 1685 902 1693 915 1710 C 927 1726 936 1756 942 1798 L 1087 1798 Z" unicode="Õ" />
<glyph horiz-adv-x="1456" d="M 1339 719 C 1339 607 1324 505 1294 414 C 1264 323 1223 245 1169 180 C 1115 115 1050 65 975 30 C 899 -5 816 -23 725 -23 C 634 -23 551 -5 477 29 C 402 64 338 114 285 178 C 231 242 190 320 161 411 C 131 501 117 603 117 715 C 117 826 131 927 161 1019 C 191 1110 233 1188 287 1253 C 341 1317 405 1367 480 1403 C 555 1438 638 1456 729 1456 C 820 1456 903 1438 978 1403 C 1053 1368 1117 1318 1171 1254 C 1224 1190 1265 1112 1295 1022 C 1324 931 1339 830 1339 719 Z M 1120 715 C 1120 796 1110 869 1090 934 C 1070 999 1042 1054 1007 1100 C 971 1146 929 1181 881 1206 C 833 1230 780 1243 723 1243 C 666 1243 614 1231 567 1207 C 519 1183 478 1148 444 1103 C 410 1057 383 1002 364 938 C 345 873 336 800 336 719 C 336 637 345 564 365 499 C 385 433 412 378 447 332 C 482 286 524 251 572 227 C 620 202 673 190 731 190 C 787 190 839 202 887 226 C 935 250 976 284 1010 330 C 1044 375 1071 430 1091 495 C 1110 560 1120 633 1120 715 Z M 1055 1663 C 1055 1644 1051 1626 1044 1610 C 1036 1593 1026 1578 1014 1566 C 1001 1554 986 1544 970 1537 C 953 1529 936 1526 918 1526 C 898 1526 880 1529 864 1537 C 847 1544 832 1554 819 1566 C 806 1578 796 1593 789 1610 C 781 1626 778 1644 778 1663 C 778 1681 781 1699 789 1716 C 796 1733 806 1748 819 1761 C 832 1773 847 1783 864 1791 C 880 1798 898 1802 918 1802 C 936 1802 953 1798 970 1791 C 986 1783 1001 1773 1014 1761 C 1026 1748 1036 1733 1044 1716 C 1051 1699 1055 1681 1055 1663 Z M 656 1663 C 656 1644 652 1626 645 1610 C 637 1593 627 1578 615 1566 C 602 1554 587 1544 571 1537 C 554 1529 536 1526 518 1526 C 499 1526 481 1529 464 1537 C 447 1544 432 1554 420 1566 C 407 1578 397 1593 390 1610 C 382 1626 379 1644 379 1663 C 379 1681 382 1699 390 1716 C 397 1733 407 1748 420 1761 C 432 1773 447 1783 464 1791 C 481 1798 499 1802 518 1802 C 536 1802 554 1798 571 1791 C 587 1783 602 1773 615 1761 C 627 1748 637 1733 645 1716 C 652 1699 656 1681 656 1663 Z" unicode="Ö" />
<glyph horiz-adv-x="1270" d="M 999 207 L 635 578 L 270 207 L 137 340 L 508 705 L 137 1069 L 270 1202 L 635 831 L 999 1202 L 1133 1069 L 762 705 L 1133 340 L 999 207 Z" unicode="×" />
<glyph horiz-adv-x="1456" d="M 1333 717 C 1333 608 1318 508 1290 418 C 1262 327 1221 249 1169 184 C 1116 118 1052 67 977 31 C 902 -4 818 -23 725 -23 C 644 -23 568 -8 498 20 L 442 -102 L 242 -102 L 342 119 C 271 185 216 269 177 371 C 138 473 119 588 119 717 C 119 825 133 925 161 1015 C 189 1105 230 1183 283 1249 C 335 1314 399 1365 474 1401 C 548 1437 632 1456 725 1456 C 801 1456 870 1443 934 1419 L 987 1536 L 1188 1536 L 1092 1327 C 1130 1295 1164 1257 1194 1214 C 1224 1171 1249 1124 1270 1072 C 1290 1020 1306 965 1317 905 C 1327 845 1333 783 1333 717 Z M 850 1233 C 814 1243 772 1249 725 1249 C 662 1249 607 1236 559 1211 C 511 1185 470 1149 438 1103 C 405 1057 380 1001 363 935 C 346 869 338 797 338 717 C 338 628 345 552 361 489 C 377 425 402 371 436 326 L 850 1233 Z M 1114 717 C 1114 807 1105 887 1087 955 C 1069 1023 1040 1080 1001 1126 L 582 207 C 618 191 665 184 725 184 C 787 184 843 196 892 222 C 940 247 981 283 1014 329 C 1046 375 1071 431 1088 497 C 1105 563 1114 636 1114 717 Z" unicode="Ø" />
<glyph horiz-adv-x="1442" d="M 1266 598 C 1266 498 1254 409 1230 332 C 1206 254 1170 189 1124 137 C 1077 84 1019 44 951 17 C 882 -9 803 -23 715 -23 C 626 -23 548 -9 481 19 C 413 47 357 87 312 141 C 267 195 233 260 210 338 C 187 415 176 503 176 602 L 176 1434 L 391 1434 L 391 608 C 391 472 418 368 474 298 C 529 228 611 193 719 193 C 831 193 915 227 969 295 C 1023 363 1051 462 1051 594 L 1051 1434 L 1266 1434 L 1266 598 Z M 682 1495 L 344 1822 L 631 1822 L 850 1495 L 682 1495 Z" unicode="Ù" />
<glyph horiz-adv-x="1442" d="M 1266 598 C 1266 498 1254 409 1230 332 C 1206 254 1170 189 1124 137 C 1077 84 1019 44 951 17 C 882 -9 803 -23 715 -23 C 626 -23 548 -9 481 19 C 413 47 357 87 312 141 C 267 195 233 260 210 338 C 187 415 176 503 176 602 L 176 1434 L 391 1434 L 391 608 C 391 472 418 368 474 298 C 529 228 611 193 719 193 C 831 193 915 227 969 295 C 1023 363 1051 462 1051 594 L 1051 1434 L 1266 1434 L 1266 598 Z M 764 1495 L 596 1495 L 815 1822 L 1102 1822 L 764 1495 Z" unicode="Ú" />
<glyph horiz-adv-x="1442" d="M 1266 598 C 1266 498 1254 409 1230 332 C 1206 254 1170 189 1124 137 C 1077 84 1019 44 951 17 C 882 -9 803 -23 715 -23 C 626 -23 548 -9 481 19 C 413 47 357 87 312 141 C 267 195 233 260 210 338 C 187 415 176 503 176 602 L 176 1434 L 391 1434 L 391 608 C 391 472 418 368 474 298 C 529 228 611 193 719 193 C 831 193 915 227 969 295 C 1023 363 1051 462 1051 594 L 1051 1434 L 1266 1434 L 1266 598 Z M 914 1526 L 719 1706 L 524 1526 L 359 1526 L 598 1853 L 844 1853 L 1083 1526 L 914 1526 Z" unicode="Û" />
<glyph horiz-adv-x="1442" d="M 1266 598 C 1266 498 1254 409 1230 332 C 1206 254 1170 189 1124 137 C 1077 84 1019 44 951 17 C 882 -9 803 -23 715 -23 C 626 -23 548 -9 481 19 C 413 47 357 87 312 141 C 267 195 233 260 210 338 C 187 415 176 503 176 602 L 176 1434 L 391 1434 L 391 608 C 391 472 418 368 474 298 C 529 228 611 193 719 193 C 831 193 915 227 969 295 C 1023 363 1051 462 1051 594 L 1051 1434 L 1266 1434 L 1266 598 Z M 1059 1663 C 1059 1644 1055 1626 1048 1610 C 1040 1593 1030 1578 1018 1566 C 1005 1554 990 1544 974 1537 C 957 1529 940 1526 922 1526 C 902 1526 884 1529 868 1537 C 851 1544 836 1554 823 1566 C 810 1578 800 1593 793 1610 C 785 1626 782 1644 782 1663 C 782 1681 785 1699 793 1716 C 800 1733 810 1748 823 1761 C 836 1773 851 1783 868 1791 C 884 1798 902 1802 922 1802 C 940 1802 957 1798 974 1791 C 990 1783 1005 1773 1018 1761 C 1030 1748 1040 1733 1048 1716 C 1055 1699 1059 1681 1059 1663 Z M 660 1663 C 660 1644 656 1626 649 1610 C 641 1593 631 1578 619 1566 C 606 1554 591 1544 575 1537 C 558 1529 540 1526 522 1526 C 503 1526 485 1529 468 1537 C 451 1544 436 1554 424 1566 C 411 1578 401 1593 394 1610 C 386 1626 383 1644 383 1663 C 383 1681 386 1699 394 1716 C 401 1733 411 1748 424 1761 C 436 1773 451 1783 468 1791 C 485 1798 503 1802 522 1802 C 540 1802 558 1798 575 1791 C 591 1783 606 1773 619 1761 C 631 1748 641 1733 649 1716 C 656 1699 660 1681 660 1663 Z" unicode="Ü" />
<glyph horiz-adv-x="1411" d="M 1327 1434 L 813 567 L 813 0 L 598 0 L 598 567 L 84 1434 L 336 1434 L 707 777 L 1080 1434 L 1327 1434 Z M 749 1495 L 581 1495 L 800 1822 L 1087 1822 L 749 1495 Z" unicode="Ý" />
<glyph horiz-adv-x="1337" d="M 1247 745 C 1247 671 1235 607 1212 551 C 1188 495 1156 448 1114 410 C 1072 372 1022 343 964 324 C 906 304 842 295 772 295 L 401 295 L 401 0 L 186 0 L 186 1434 L 401 1434 L 401 1194 L 786 1194 C 852 1194 913 1184 969 1165 C 1025 1146 1074 1118 1115 1081 C 1156 1043 1188 996 1212 940 C 1235 884 1247 819 1247 745 Z M 1028 745 C 1028 822 1006 882 962 924 C 918 966 858 987 780 987 L 401 987 L 401 502 L 780 502 C 862 502 924 523 966 566 C 1007 608 1028 668 1028 745 Z" unicode="Þ" />
<glyph horiz-adv-x="1190" d="M 1085 463 C 1085 381 1073 310 1049 252 C 1025 194 990 146 945 108 C 899 70 844 43 779 26 C 713 8 639 0 557 0 L 532 0 L 532 193 L 569 193 C 615 193 656 197 694 207 C 731 217 763 232 789 253 C 815 274 836 301 850 333 C 864 365 872 405 872 451 C 872 495 863 534 847 568 C 830 601 807 628 779 650 C 750 672 716 688 678 699 C 639 709 598 715 555 715 L 532 715 L 532 905 L 563 905 C 623 905 672 922 708 957 C 744 991 762 1040 762 1102 C 762 1160 744 1207 708 1241 C 672 1275 623 1292 561 1292 C 498 1292 450 1272 417 1234 C 383 1196 367 1143 367 1075 L 367 -283 L 156 -395 L 156 1067 C 156 1139 165 1202 185 1255 C 205 1308 233 1352 269 1386 C 305 1420 348 1446 398 1462 C 448 1478 504 1487 565 1487 C 623 1487 677 1478 727 1461 C 777 1443 820 1418 857 1386 C 893 1353 922 1313 943 1266 C 964 1219 975 1166 975 1108 C 975 1032 958 971 925 923 C 892 875 848 842 793 823 C 827 815 861 803 896 787 C 930 771 962 748 990 720 C 1018 691 1040 656 1058 614 C 1076 572 1085 521 1085 463 Z" unicode="ß" />
<glyph horiz-adv-x="1126" d="M 772 0 L 772 106 C 744 80 722 62 704 50 C 686 38 667 27 648 17 C 628 7 604 -2 574 -10 C 544 -18 512 -23 477 -23 C 433 -23 389 -16 345 -3 C 301 9 261 30 225 59 C 189 88 160 126 138 172 C 115 218 104 274 104 340 C 104 400 114 451 136 495 C 158 539 188 575 226 604 C 264 632 310 653 362 667 C 414 681 471 688 532 688 C 588 688 636 684 675 676 C 713 668 746 659 772 647 L 772 727 C 772 785 754 830 720 862 C 685 893 635 909 569 909 C 513 909 463 903 419 893 C 374 882 331 865 289 842 L 207 1001 C 258 1033 313 1057 372 1073 C 431 1089 499 1098 575 1098 C 635 1098 689 1090 739 1076 C 789 1061 831 1039 867 1009 C 902 979 929 941 949 896 C 969 850 979 797 979 737 L 979 0 L 772 0 Z M 772 459 C 752 468 734 475 718 480 C 702 485 685 489 668 493 C 650 497 629 500 605 502 C 581 504 554 506 526 506 C 458 506 404 491 364 463 C 324 434 305 395 305 346 C 305 314 310 286 322 264 C 333 242 347 224 365 210 C 382 196 402 185 426 178 C 450 171 478 168 512 168 C 540 168 567 172 593 180 C 619 188 643 198 666 211 C 688 224 709 239 727 255 C 745 271 760 288 772 305 L 772 459 Z M 532 1219 L 194 1546 L 481 1546 L 700 1219 L 532 1219 Z" unicode="à" />
<glyph horiz-adv-x="1126" d="M 772 0 L 772 106 C 744 80 722 62 704 50 C 686 38 667 27 648 17 C 628 7 604 -2 574 -10 C 544 -18 512 -23 477 -23 C 433 -23 389 -16 345 -3 C 301 9 261 30 225 59 C 189 88 160 126 138 172 C 115 218 104 274 104 340 C 104 400 114 451 136 495 C 158 539 188 575 226 604 C 264 632 310 653 362 667 C 414 681 471 688 532 688 C 588 688 636 684 675 676 C 713 668 746 659 772 647 L 772 727 C 772 785 754 830 720 862 C 685 893 635 909 569 909 C 513 909 463 903 419 893 C 374 882 331 865 289 842 L 207 1001 C 258 1033 313 1057 372 1073 C 431 1089 499 1098 575 1098 C 635 1098 689 1090 739 1076 C 789 1061 831 1039 867 1009 C 902 979 929 941 949 896 C 969 850 979 797 979 737 L 979 0 L 772 0 Z M 772 459 C 752 468 734 475 718 480 C 702 485 685 489 668 493 C 650 497 629 500 605 502 C 581 504 554 506 526 506 C 458 506 404 491 364 463 C 324 434 305 395 305 346 C 305 314 310 286 322 264 C 333 242 347 224 365 210 C 382 196 402 185 426 178 C 450 171 478 168 512 168 C 540 168 567 172 593 180 C 619 188 643 198 666 211 C 688 224 709 239 727 255 C 745 271 760 288 772 305 L 772 459 Z M 612 1219 L 444 1219 L 663 1546 L 950 1546 L 612 1219 Z" unicode="á" />
<glyph horiz-adv-x="1126" d="M 772 0 L 772 106 C 744 80 722 62 704 50 C 686 38 667 27 648 17 C 628 7 604 -2 574 -10 C 544 -18 512 -23 477 -23 C 433 -23 389 -16 345 -3 C 301 9 261 30 225 59 C 189 88 160 126 138 172 C 115 218 104 274 104 340 C 104 400 114 451 136 495 C 158 539 188 575 226 604 C 264 632 310 653 362 667 C 414 681 471 688 532 688 C 588 688 636 684 675 676 C 713 668 746 659 772 647 L 772 727 C 772 785 754 830 720 862 C 685 893 635 909 569 909 C 513 909 463 903 419 893 C 374 882 331 865 289 842 L 207 1001 C 258 1033 313 1057 372 1073 C 431 1089 499 1098 575 1098 C 635 1098 689 1090 739 1076 C 789 1061 831 1039 867 1009 C 902 979 929 941 949 896 C 969 850 979 797 979 737 L 979 0 L 772 0 Z M 772 459 C 752 468 734 475 718 480 C 702 485 685 489 668 493 C 650 497 629 500 605 502 C 581 504 554 506 526 506 C 458 506 404 491 364 463 C 324 434 305 395 305 346 C 305 314 310 286 322 264 C 333 242 347 224 365 210 C 382 196 402 185 426 178 C 450 171 478 168 512 168 C 540 168 567 172 593 180 C 619 188 643 198 666 211 C 688 224 709 239 727 255 C 745 271 760 288 772 305 L 772 459 Z M 762 1210 L 567 1390 L 372 1210 L 207 1210 L 446 1537 L 692 1537 L 931 1210 L 762 1210 Z" unicode="â" />
<glyph horiz-adv-x="1126" d="M 772 0 L 772 106 C 744 80 722 62 704 50 C 686 38 667 27 648 17 C 628 7 604 -2 574 -10 C 544 -18 512 -23 477 -23 C 433 -23 389 -16 345 -3 C 301 9 261 30 225 59 C 189 88 160 126 138 172 C 115 218 104 274 104 340 C 104 400 114 451 136 495 C 158 539 188 575 226 604 C 264 632 310 653 362 667 C 414 681 471 688 532 688 C 588 688 636 684 675 676 C 713 668 746 659 772 647 L 772 727 C 772 785 754 830 720 862 C 685 893 635 909 569 909 C 513 909 463 903 419 893 C 374 882 331 865 289 842 L 207 1001 C 258 1033 313 1057 372 1073 C 431 1089 499 1098 575 1098 C 635 1098 689 1090 739 1076 C 789 1061 831 1039 867 1009 C 902 979 929 941 949 896 C 969 850 979 797 979 737 L 979 0 L 772 0 Z M 772 459 C 752 468 734 475 718 480 C 702 485 685 489 668 493 C 650 497 629 500 605 502 C 581 504 554 506 526 506 C 458 506 404 491 364 463 C 324 434 305 395 305 346 C 305 314 310 286 322 264 C 333 242 347 224 365 210 C 382 196 402 185 426 178 C 450 171 478 168 512 168 C 540 168 567 172 593 180 C 619 188 643 198 666 211 C 688 224 709 239 727 255 C 745 271 760 288 772 305 L 772 459 Z M 940 1491 C 940 1445 934 1405 923 1370 C 912 1335 897 1306 878 1283 C 859 1259 836 1242 810 1230 C 784 1218 755 1212 725 1212 C 705 1212 687 1213 669 1217 C 651 1220 633 1225 615 1233 C 596 1240 576 1249 555 1261 C 533 1272 509 1286 483 1303 C 469 1311 455 1317 441 1323 C 427 1328 414 1331 403 1331 C 380 1331 362 1322 350 1306 C 338 1290 329 1261 324 1219 L 178 1219 C 178 1264 183 1304 194 1339 C 205 1373 220 1402 239 1426 C 258 1449 281 1467 307 1479 C 333 1491 362 1497 393 1497 C 412 1497 430 1495 448 1492 C 466 1488 484 1483 503 1476 C 521 1469 541 1460 563 1449 C 584 1437 608 1423 635 1407 C 649 1399 663 1392 677 1386 C 691 1380 703 1378 715 1378 C 737 1378 755 1386 768 1403 C 780 1419 789 1449 795 1491 L 940 1491 Z" unicode="ã" />
<glyph horiz-adv-x="1126" d="M 772 0 L 772 106 C 744 80 722 62 704 50 C 686 38 667 27 648 17 C 628 7 604 -2 574 -10 C 544 -18 512 -23 477 -23 C 433 -23 389 -16 345 -3 C 301 9 261 30 225 59 C 189 88 160 126 138 172 C 115 218 104 274 104 340 C 104 400 114 451 136 495 C 158 539 188 575 226 604 C 264 632 310 653 362 667 C 414 681 471 688 532 688 C 588 688 636 684 675 676 C 713 668 746 659 772 647 L 772 727 C 772 785 754 830 720 862 C 685 893 635 909 569 909 C 513 909 463 903 419 893 C 374 882 331 865 289 842 L 207 1001 C 258 1033 313 1057 372 1073 C 431 1089 499 1098 575 1098 C 635 1098 689 1090 739 1076 C 789 1061 831 1039 867 1009 C 902 979 929 941 949 896 C 969 850 979 797 979 737 L 979 0 L 772 0 Z M 772 459 C 752 468 734 475 718 480 C 702 485 685 489 668 493 C 650 497 629 500 605 502 C 581 504 554 506 526 506 C 458 506 404 491 364 463 C 324 434 305 395 305 346 C 305 314 310 286 322 264 C 333 242 347 224 365 210 C 382 196 402 185 426 178 C 450 171 478 168 512 168 C 540 168 567 172 593 180 C 619 188 643 198 666 211 C 688 224 709 239 727 255 C 745 271 760 288 772 305 L 772 459 Z M 907 1347 C 907 1328 903 1310 896 1294 C 888 1277 878 1262 866 1250 C 853 1238 838 1228 822 1221 C 805 1213 788 1210 770 1210 C 750 1210 732 1213 716 1221 C 699 1228 684 1238 671 1250 C 658 1262 648 1277 641 1294 C 633 1310 630 1328 630 1347 C 630 1365 633 1383 641 1400 C 648 1417 658 1432 671 1445 C 684 1457 699 1467 716 1475 C 732 1482 750 1486 770 1486 C 788 1486 805 1482 822 1475 C 838 1467 853 1457 866 1445 C 878 1432 888 1417 896 1400 C 903 1383 907 1365 907 1347 Z M 508 1347 C 508 1328 504 1310 497 1294 C 489 1277 479 1262 467 1250 C 454 1238 439 1228 423 1221 C 406 1213 388 1210 370 1210 C 351 1210 333 1213 316 1221 C 299 1228 284 1238 272 1250 C 259 1262 249 1277 242 1294 C 234 1310 231 1328 231 1347 C 231 1365 234 1383 242 1400 C 249 1417 259 1432 272 1445 C 284 1457 299 1467 316 1475 C 333 1482 351 1486 370 1486 C 388 1486 406 1482 423 1475 C 439 1467 454 1457 467 1445 C 479 1432 489 1417 497 1400 C 504 1383 508 1365 508 1347 Z" unicode="ä" />
<glyph horiz-adv-x="1126" d="M 772 0 L 772 106 C 744 80 722 62 704 50 C 686 38 667 27 648 17 C 628 7 604 -2 574 -10 C 544 -18 512 -23 477 -23 C 433 -23 389 -16 345 -3 C 301 9 261 30 225 59 C 189 88 160 126 138 172 C 115 218 104 274 104 340 C 104 400 114 451 136 495 C 158 539 188 575 226 604 C 264 632 310 653 362 667 C 414 681 471 688 532 688 C 588 688 636 684 675 676 C 713 668 746 659 772 647 L 772 727 C 772 785 754 830 720 862 C 685 893 635 909 569 909 C 513 909 463 903 419 893 C 374 882 331 865 289 842 L 207 1001 C 258 1033 313 1057 372 1073 C 431 1089 499 1098 575 1098 C 635 1098 689 1090 739 1076 C 789 1061 831 1039 867 1009 C 902 979 929 941 949 896 C 969 850 979 797 979 737 L 979 0 L 772 0 Z M 772 459 C 752 468 734 475 718 480 C 702 485 685 489 668 493 C 650 497 629 500 605 502 C 581 504 554 506 526 506 C 458 506 404 491 364 463 C 324 434 305 395 305 346 C 305 314 310 286 322 264 C 333 242 347 224 365 210 C 382 196 402 185 426 178 C 450 171 478 168 512 168 C 540 168 567 172 593 180 C 619 188 643 198 666 211 C 688 224 709 239 727 255 C 745 271 760 288 772 305 L 772 459 Z M 827 1475 C 827 1437 820 1403 807 1372 C 794 1341 776 1314 753 1291 C 730 1268 703 1250 671 1238 C 639 1225 605 1219 569 1219 C 532 1219 498 1225 466 1238 C 434 1250 407 1268 384 1291 C 361 1314 343 1341 330 1372 C 317 1403 311 1437 311 1475 C 311 1511 317 1545 330 1577 C 343 1609 361 1636 384 1659 C 407 1682 434 1700 466 1713 C 498 1726 532 1733 569 1733 C 605 1733 639 1726 671 1713 C 703 1700 730 1682 753 1659 C 776 1636 794 1609 807 1577 C 820 1545 827 1511 827 1475 Z M 694 1475 C 694 1493 690 1509 684 1525 C 678 1541 669 1554 658 1566 C 647 1577 634 1586 619 1592 C 603 1598 587 1602 569 1602 C 551 1602 534 1598 519 1592 C 503 1586 490 1577 479 1566 C 468 1554 459 1541 453 1525 C 447 1509 444 1493 444 1475 C 444 1456 447 1439 453 1424 C 459 1408 468 1395 479 1384 C 490 1372 503 1363 519 1357 C 534 1351 551 1348 569 1348 C 587 1348 603 1351 619 1357 C 634 1363 647 1372 658 1384 C 669 1395 678 1408 684 1424 C 690 1439 694 1456 694 1475 Z" unicode="å" />
<glyph horiz-adv-x="1741" d="M 1626 557 C 1626 537 1625 519 1624 503 C 1622 486 1621 472 1620 461 L 963 461 C 965 413 973 371 987 335 C 1000 299 1017 269 1039 245 C 1060 221 1085 203 1113 191 C 1141 179 1172 174 1204 174 C 1226 174 1247 175 1265 179 C 1283 183 1300 188 1316 196 C 1332 203 1347 212 1362 223 C 1377 233 1393 246 1411 260 L 1540 121 C 1516 97 1493 77 1469 59 C 1445 41 1420 26 1393 14 C 1365 2 1335 -7 1303 -13 C 1270 -19 1233 -23 1192 -23 C 1122 -23 1057 -7 997 23 C 937 53 888 99 848 160 C 808 104 756 59 694 26 C 631 -6 560 -23 481 -23 C 437 -23 393 -16 349 -3 C 305 9 264 30 228 59 C 191 88 161 126 138 172 C 115 218 104 274 104 340 C 104 399 115 451 137 495 C 159 539 190 575 229 604 C 267 633 313 655 366 669 C 418 683 475 690 537 690 C 585 690 626 686 660 678 C 694 670 726 660 756 647 L 756 723 C 756 779 741 823 711 854 C 681 885 633 901 569 901 C 515 901 467 895 423 885 C 379 874 336 857 295 834 L 211 997 C 263 1029 318 1053 376 1071 C 434 1089 501 1098 575 1098 C 654 1098 719 1085 769 1061 C 819 1037 859 999 889 948 C 927 996 971 1033 1021 1059 C 1071 1085 1130 1098 1198 1098 C 1270 1098 1332 1083 1386 1054 C 1440 1024 1484 985 1520 935 C 1556 885 1582 828 1600 763 C 1617 697 1626 629 1626 557 Z M 1417 641 C 1415 677 1409 710 1401 742 C 1392 774 1379 801 1361 825 C 1343 849 1320 868 1292 882 C 1264 896 1229 903 1188 903 C 1153 903 1122 896 1096 884 C 1070 872 1047 854 1029 831 C 1011 808 996 780 986 748 C 975 716 968 680 965 641 L 1417 641 Z M 756 457 C 742 463 727 470 712 476 C 697 482 681 487 663 491 C 645 495 625 498 603 500 C 581 502 556 504 528 504 C 461 504 408 489 370 461 C 332 432 313 394 313 346 C 313 294 329 252 362 221 C 394 189 445 174 514 174 C 542 174 568 177 592 185 C 616 193 638 203 659 216 C 679 228 698 243 714 259 C 730 275 744 291 756 307 C 756 339 756 366 756 386 C 756 406 756 430 756 457 Z" unicode="æ" />
<glyph horiz-adv-x="1069" d="M 954 178 C 932 151 909 125 885 101 C 861 77 833 55 803 37 C 772 19 737 4 699 -6 C 661 -17 617 -23 569 -23 C 503 -23 442 -9 386 17 C 329 43 280 81 238 130 C 196 178 164 237 140 306 C 116 374 104 451 104 535 C 104 623 116 703 140 773 C 164 843 198 902 241 950 C 283 998 333 1034 391 1060 C 448 1085 509 1098 575 1098 C 654 1098 725 1082 787 1051 C 849 1020 906 975 956 915 L 831 766 C 805 791 784 811 766 825 C 748 839 728 852 706 864 C 684 875 662 883 640 889 C 618 894 594 897 569 897 C 531 897 496 888 465 872 C 434 855 408 831 386 801 C 364 770 347 733 335 689 C 323 645 317 595 317 541 C 317 488 322 439 334 395 C 345 351 361 312 383 280 C 405 248 432 223 464 205 C 496 187 533 178 575 178 C 600 178 623 180 644 186 C 664 192 684 200 703 211 C 722 222 741 236 759 253 C 777 269 797 289 819 311 L 954 178 Z M 486 25 L 591 25 L 569 -92 C 582 -86 596 -82 611 -79 C 626 -75 645 -74 668 -74 C 685 -74 702 -76 720 -82 C 738 -87 754 -95 768 -107 C 782 -119 793 -134 802 -152 C 811 -170 816 -191 816 -217 C 816 -249 809 -276 796 -299 C 782 -321 764 -340 742 -354 C 719 -368 692 -379 662 -385 C 632 -391 600 -395 566 -395 C 516 -395 471 -388 431 -376 C 390 -363 351 -345 314 -322 L 359 -254 C 418 -286 478 -303 539 -303 C 584 -303 617 -295 638 -280 C 659 -265 670 -246 670 -223 C 670 -202 664 -186 652 -175 C 640 -163 624 -158 605 -158 C 571 -158 544 -168 523 -188 L 449 -160 L 486 25 Z" unicode="ç" />
<glyph horiz-adv-x="1135" d="M 1028 559 C 1028 539 1027 521 1026 505 C 1024 488 1023 474 1022 463 L 311 463 C 317 411 328 366 345 329 C 361 292 382 262 406 238 C 430 214 457 196 487 185 C 517 173 549 168 582 168 C 605 168 627 170 648 174 C 668 178 688 184 707 192 C 726 200 743 208 758 216 C 772 224 791 237 815 254 L 940 119 C 913 93 887 73 863 57 C 839 41 812 27 784 15 C 756 3 724 -6 688 -13 C 652 -19 612 -23 569 -23 C 522 -23 478 -16 438 -3 C 397 9 361 26 330 47 C 298 68 270 92 245 119 C 220 146 196 181 174 223 C 151 265 134 313 122 365 C 110 417 104 475 104 537 C 104 627 115 708 138 778 C 161 848 193 906 235 954 C 276 1001 326 1037 384 1061 C 442 1085 505 1098 575 1098 C 651 1098 718 1083 775 1054 C 831 1025 878 986 916 937 C 953 888 981 831 1000 766 C 1018 700 1028 631 1028 559 Z M 815 637 C 812 673 805 708 795 741 C 785 773 769 802 749 827 C 729 851 703 871 672 885 C 641 899 604 907 561 907 C 523 907 491 900 463 888 C 435 876 411 858 391 836 C 371 813 354 785 341 752 C 328 719 319 681 315 637 L 815 637 Z M 528 1219 L 190 1546 L 477 1546 L 696 1219 L 528 1219 Z" unicode="è" />
<glyph horiz-adv-x="1135" d="M 1028 559 C 1028 539 1027 521 1026 505 C 1024 488 1023 474 1022 463 L 311 463 C 317 411 328 366 345 329 C 361 292 382 262 406 238 C 430 214 457 196 487 185 C 517 173 549 168 582 168 C 605 168 627 170 648 174 C 668 178 688 184 707 192 C 726 200 743 208 758 216 C 772 224 791 237 815 254 L 940 119 C 913 93 887 73 863 57 C 839 41 812 27 784 15 C 756 3 724 -6 688 -13 C 652 -19 612 -23 569 -23 C 522 -23 478 -16 438 -3 C 397 9 361 26 330 47 C 298 68 270 92 245 119 C 220 146 196 181 174 223 C 151 265 134 313 122 365 C 110 417 104 475 104 537 C 104 627 115 708 138 778 C 161 848 193 906 235 954 C 276 1001 326 1037 384 1061 C 442 1085 505 1098 575 1098 C 651 1098 718 1083 775 1054 C 831 1025 878 986 916 937 C 953 888 981 831 1000 766 C 1018 700 1028 631 1028 559 Z M 815 637 C 812 673 805 708 795 741 C 785 773 769 802 749 827 C 729 851 703 871 672 885 C 641 899 604 907 561 907 C 523 907 491 900 463 888 C 435 876 411 858 391 836 C 371 813 354 785 341 752 C 328 719 319 681 315 637 L 815 637 Z M 608 1219 L 440 1219 L 659 1546 L 946 1546 L 608 1219 Z" unicode="é" />
<glyph horiz-adv-x="1135" d="M 1028 559 C 1028 539 1027 521 1026 505 C 1024 488 1023 474 1022 463 L 311 463 C 317 411 328 366 345 329 C 361 292 382 262 406 238 C 430 214 457 196 487 185 C 517 173 549 168 582 168 C 605 168 627 170 648 174 C 668 178 688 184 707 192 C 726 200 743 208 758 216 C 772 224 791 237 815 254 L 940 119 C 913 93 887 73 863 57 C 839 41 812 27 784 15 C 756 3 724 -6 688 -13 C 652 -19 612 -23 569 -23 C 522 -23 478 -16 438 -3 C 397 9 361 26 330 47 C 298 68 270 92 245 119 C 220 146 196 181 174 223 C 151 265 134 313 122 365 C 110 417 104 475 104 537 C 104 627 115 708 138 778 C 161 848 193 906 235 954 C 276 1001 326 1037 384 1061 C 442 1085 505 1098 575 1098 C 651 1098 718 1083 775 1054 C 831 1025 878 986 916 937 C 953 888 981 831 1000 766 C 1018 700 1028 631 1028 559 Z M 815 637 C 812 673 805 708 795 741 C 785 773 769 802 749 827 C 729 851 703 871 672 885 C 641 899 604 907 561 907 C 523 907 491 900 463 888 C 435 876 411 858 391 836 C 371 813 354 785 341 752 C 328 719 319 681 315 637 L 815 637 Z M 758 1200 L 563 1380 L 368 1200 L 203 1200 L 442 1527 L 688 1527 L 927 1200 L 758 1200 Z" unicode="ê" />
<glyph horiz-adv-x="1135" d="M 1028 559 C 1028 539 1027 521 1026 505 C 1024 488 1023 474 1022 463 L 311 463 C 317 411 328 366 345 329 C 361 292 382 262 406 238 C 430 214 457 196 487 185 C 517 173 549 168 582 168 C 605 168 627 170 648 174 C 668 178 688 184 707 192 C 726 200 743 208 758 216 C 772 224 791 237 815 254 L 940 119 C 913 93 887 73 863 57 C 839 41 812 27 784 15 C 756 3 724 -6 688 -13 C 652 -19 612 -23 569 -23 C 522 -23 478 -16 438 -3 C 397 9 361 26 330 47 C 298 68 270 92 245 119 C 220 146 196 181 174 223 C 151 265 134 313 122 365 C 110 417 104 475 104 537 C 104 627 115 708 138 778 C 161 848 193 906 235 954 C 276 1001 326 1037 384 1061 C 442 1085 505 1098 575 1098 C 651 1098 718 1083 775 1054 C 831 1025 878 986 916 937 C 953 888 981 831 1000 766 C 1018 700 1028 631 1028 559 Z M 815 637 C 812 673 805 708 795 741 C 785 773 769 802 749 827 C 729 851 703 871 672 885 C 641 899 604 907 561 907 C 523 907 491 900 463 888 C 435 876 411 858 391 836 C 371 813 354 785 341 752 C 328 719 319 681 315 637 L 815 637 Z M 903 1347 C 903 1328 899 1310 892 1294 C 884 1277 874 1262 862 1250 C 849 1238 834 1228 818 1221 C 801 1213 784 1210 766 1210 C 746 1210 728 1213 712 1221 C 695 1228 680 1238 667 1250 C 654 1262 644 1277 637 1294 C 629 1310 626 1328 626 1347 C 626 1365 629 1383 637 1400 C 644 1417 654 1432 667 1445 C 680 1457 695 1467 712 1475 C 728 1482 746 1486 766 1486 C 784 1486 801 1482 818 1475 C 834 1467 849 1457 862 1445 C 874 1432 884 1417 892 1400 C 899 1383 903 1365 903 1347 Z M 504 1347 C 504 1328 500 1310 493 1294 C 485 1277 475 1262 463 1250 C 450 1238 435 1228 419 1221 C 402 1213 384 1210 366 1210 C 347 1210 329 1213 312 1221 C 295 1228 280 1238 268 1250 C 255 1262 245 1277 238 1294 C 230 1310 227 1328 227 1347 C 227 1365 230 1383 238 1400 C 245 1417 255 1432 268 1445 C 280 1457 295 1467 312 1475 C 329 1482 347 1486 366 1486 C 384 1486 402 1482 419 1475 C 435 1467 450 1457 463 1445 C 475 1432 485 1417 493 1400 C 500 1383 504 1365 504 1347 Z" unicode="ë" />
<glyph horiz-adv-x="543" d="M 164 0 L 164 1075 L 375 1075 L 375 0 L 164 0 Z M 214 1219 L -124 1546 L 163 1546 L 382 1219 L 214 1219 Z" unicode="ì" />
<glyph horiz-adv-x="543" d="M 164 0 L 164 1075 L 375 1075 L 375 0 L 164 0 Z M 339 1219 L 171 1219 L 390 1546 L 677 1546 L 339 1219 Z" unicode="í" />
<glyph horiz-adv-x="543" d="M 164 0 L 164 1075 L 375 1075 L 375 0 L 164 0 Z M 464 1189 L 269 1369 L 74 1189 L -91 1189 L 148 1516 L 394 1516 L 633 1189 L 464 1189 Z" unicode="î" />
<glyph horiz-adv-x="543" d="M 164 0 L 164 1075 L 375 1075 L 375 0 L 164 0 Z M 607 1337 C 607 1318 603 1300 596 1284 C 588 1267 578 1252 566 1240 C 553 1228 538 1218 522 1211 C 505 1203 488 1200 470 1200 C 450 1200 432 1203 416 1211 C 399 1218 384 1228 371 1240 C 358 1252 348 1267 341 1284 C 333 1300 330 1318 330 1337 C 330 1355 333 1373 341 1390 C 348 1407 358 1422 371 1435 C 384 1447 399 1457 416 1465 C 432 1472 450 1476 470 1476 C 488 1476 505 1472 522 1465 C 538 1457 553 1447 566 1435 C 578 1422 588 1407 596 1390 C 603 1373 607 1355 607 1337 Z M 208 1337 C 208 1318 204 1300 197 1284 C 189 1267 179 1252 167 1240 C 154 1228 139 1218 123 1211 C 106 1203 88 1200 70 1200 C 51 1200 33 1203 16 1211 C 0 1218 -15 1228 -28 1240 C -40 1252 -50 1267 -58 1284 C -65 1300 -69 1318 -69 1337 C -69 1355 -65 1373 -58 1390 C -50 1407 -40 1422 -28 1435 C -15 1447 0 1457 16 1465 C 33 1472 51 1476 70 1476 C 88 1476 106 1472 123 1465 C 139 1457 154 1447 167 1435 C 179 1422 189 1407 197 1390 C 204 1373 208 1355 208 1337 Z" unicode="ï" />
<glyph horiz-adv-x="1167" d="M 1063 596 C 1063 485 1050 390 1026 312 C 1001 234 967 170 924 120 C 880 70 829 34 770 11 C 710 -11 646 -23 578 -23 C 510 -23 447 -11 389 12 C 331 36 281 70 239 114 C 197 158 164 211 140 274 C 116 337 104 408 104 487 C 104 569 115 641 139 703 C 163 764 195 815 235 856 C 275 897 322 928 375 948 C 427 968 483 979 541 979 C 603 979 661 968 717 946 C 772 924 818 890 856 844 C 841 906 819 963 789 1017 C 759 1070 721 1117 674 1157 L 571 1051 L 451 1157 L 530 1241 C 480 1264 422 1278 356 1282 L 356 1456 C 414 1452 469 1444 520 1430 C 570 1416 617 1398 659 1376 L 735 1456 L 856 1350 L 795 1284 C 842 1241 883 1193 917 1139 C 951 1085 978 1029 1000 969 C 1022 909 1038 847 1048 784 C 1058 720 1063 658 1063 596 Z M 850 487 C 850 539 843 584 829 623 C 815 662 795 695 771 721 C 747 747 718 766 684 779 C 650 792 614 799 575 799 C 539 799 505 792 473 779 C 441 766 414 747 391 721 C 368 695 350 664 337 626 C 323 588 317 544 317 494 C 317 445 323 401 336 362 C 349 323 367 290 391 263 C 415 235 443 214 476 200 C 509 185 546 178 586 178 C 626 178 662 185 694 201 C 726 217 754 238 777 266 C 800 294 818 326 831 364 C 843 402 850 443 850 487 Z" unicode="ð" />
<glyph horiz-adv-x="1167" d="M 809 0 L 809 608 C 809 705 791 778 757 828 C 722 878 666 903 588 903 C 554 903 522 897 494 885 C 465 873 441 854 422 829 C 402 803 388 773 380 739 C 371 705 367 668 367 629 L 367 0 L 156 0 L 156 1075 L 367 1075 L 367 973 C 380 992 396 1009 416 1025 C 435 1041 456 1054 480 1065 C 503 1075 528 1083 555 1089 C 581 1095 609 1098 637 1098 C 701 1098 757 1087 805 1066 C 853 1045 892 1015 924 976 C 956 936 980 887 996 827 C 1012 767 1020 696 1020 616 L 1020 0 L 809 0 Z M 952 1491 C 952 1445 946 1405 935 1370 C 924 1335 909 1306 890 1283 C 871 1259 848 1242 822 1230 C 796 1218 767 1212 737 1212 C 717 1212 699 1213 681 1217 C 663 1220 645 1225 627 1233 C 608 1240 588 1249 567 1261 C 545 1272 521 1286 495 1303 C 481 1311 467 1317 453 1323 C 439 1328 426 1331 415 1331 C 392 1331 374 1322 362 1306 C 350 1290 341 1261 336 1219 L 190 1219 C 190 1264 195 1304 206 1339 C 217 1373 232 1402 251 1426 C 270 1449 293 1467 319 1479 C 345 1491 374 1497 405 1497 C 424 1497 442 1495 460 1492 C 478 1488 496 1483 515 1476 C 533 1469 553 1460 575 1449 C 596 1437 620 1423 647 1407 C 661 1399 675 1392 689 1386 C 703 1380 715 1378 727 1378 C 749 1378 767 1386 780 1403 C 792 1419 801 1449 807 1491 L 952 1491 Z" unicode="ñ" />
<glyph horiz-adv-x="1167" d="M 1063 543 C 1063 453 1050 374 1026 304 C 1001 234 967 174 924 126 C 880 77 829 40 770 15 C 710 -10 646 -23 578 -23 C 510 -23 447 -9 389 17 C 331 43 281 81 239 130 C 197 179 164 238 140 307 C 116 376 104 453 104 537 C 104 625 116 703 141 773 C 165 842 199 901 242 949 C 285 997 336 1034 394 1060 C 452 1085 516 1098 584 1098 C 652 1098 716 1084 774 1058 C 832 1032 883 994 926 946 C 968 898 1002 839 1026 771 C 1050 703 1063 627 1063 543 Z M 850 537 C 850 591 843 641 831 685 C 818 729 800 767 776 799 C 752 830 724 854 690 871 C 656 888 617 897 575 897 C 535 897 499 888 467 871 C 435 854 408 830 386 799 C 364 768 347 731 335 688 C 323 644 317 596 317 543 C 317 483 323 431 336 386 C 349 340 367 302 391 272 C 415 241 443 218 476 202 C 509 186 546 178 586 178 C 626 178 662 187 694 206 C 726 225 754 251 777 283 C 800 315 818 353 831 397 C 843 441 850 487 850 537 Z M 540 1219 L 202 1546 L 489 1546 L 708 1219 L 540 1219 Z" unicode="ò" />
<glyph horiz-adv-x="1167" d="M 1063 543 C 1063 453 1050 374 1026 304 C 1001 234 967 174 924 126 C 880 77 829 40 770 15 C 710 -10 646 -23 578 -23 C 510 -23 447 -9 389 17 C 331 43 281 81 239 130 C 197 179 164 238 140 307 C 116 376 104 453 104 537 C 104 625 116 703 141 773 C 165 842 199 901 242 949 C 285 997 336 1034 394 1060 C 452 1085 516 1098 584 1098 C 652 1098 716 1084 774 1058 C 832 1032 883 994 926 946 C 968 898 1002 839 1026 771 C 1050 703 1063 627 1063 543 Z M 850 537 C 850 591 843 641 831 685 C 818 729 800 767 776 799 C 752 830 724 854 690 871 C 656 888 617 897 575 897 C 535 897 499 888 467 871 C 435 854 408 830 386 799 C 364 768 347 731 335 688 C 323 644 317 596 317 543 C 317 483 323 431 336 386 C 349 340 367 302 391 272 C 415 241 443 218 476 202 C 509 186 546 178 586 178 C 626 178 662 187 694 206 C 726 225 754 251 777 283 C 800 315 818 353 831 397 C 843 441 850 487 850 537 Z M 620 1219 L 452 1219 L 671 1546 L 958 1546 L 620 1219 Z" unicode="ó" />
<glyph horiz-adv-x="1167" d="M 1063 543 C 1063 453 1050 374 1026 304 C 1001 234 967 174 924 126 C 880 77 829 40 770 15 C 710 -10 646 -23 578 -23 C 510 -23 447 -9 389 17 C 331 43 281 81 239 130 C 197 179 164 238 140 307 C 116 376 104 453 104 537 C 104 625 116 703 141 773 C 165 842 199 901 242 949 C 285 997 336 1034 394 1060 C 452 1085 516 1098 584 1098 C 652 1098 716 1084 774 1058 C 832 1032 883 994 926 946 C 968 898 1002 839 1026 771 C 1050 703 1063 627 1063 543 Z M 850 537 C 850 591 843 641 831 685 C 818 729 800 767 776 799 C 752 830 724 854 690 871 C 656 888 617 897 575 897 C 535 897 499 888 467 871 C 435 854 408 830 386 799 C 364 768 347 731 335 688 C 323 644 317 596 317 543 C 317 483 323 431 336 386 C 349 340 367 302 391 272 C 415 241 443 218 476 202 C 509 186 546 178 586 178 C 626 178 662 187 694 206 C 726 225 754 251 777 283 C 800 315 818 353 831 397 C 843 441 850 487 850 537 Z M 771 1200 L 576 1380 L 381 1200 L 216 1200 L 455 1527 L 701 1527 L 940 1200 L 771 1200 Z" unicode="ô" />
<glyph horiz-adv-x="1167" d="M 1063 543 C 1063 453 1050 374 1026 304 C 1001 234 967 174 924 126 C 880 77 829 40 770 15 C 710 -10 646 -23 578 -23 C 510 -23 447 -9 389 17 C 331 43 281 81 239 130 C 197 179 164 238 140 307 C 116 376 104 453 104 537 C 104 625 116 703 141 773 C 165 842 199 901 242 949 C 285 997 336 1034 394 1060 C 452 1085 516 1098 584 1098 C 652 1098 716 1084 774 1058 C 832 1032 883 994 926 946 C 968 898 1002 839 1026 771 C 1050 703 1063 627 1063 543 Z M 850 537 C 850 591 843 641 831 685 C 818 729 800 767 776 799 C 752 830 724 854 690 871 C 656 888 617 897 575 897 C 535 897 499 888 467 871 C 435 854 408 830 386 799 C 364 768 347 731 335 688 C 323 644 317 596 317 543 C 317 483 323 431 336 386 C 349 340 367 302 391 272 C 415 241 443 218 476 202 C 509 186 546 178 586 178 C 626 178 662 187 694 206 C 726 225 754 251 777 283 C 800 315 818 353 831 397 C 843 441 850 487 850 537 Z M 948 1491 C 948 1445 942 1405 931 1370 C 920 1335 905 1306 886 1283 C 867 1259 844 1242 818 1230 C 792 1218 763 1212 733 1212 C 713 1212 695 1213 677 1217 C 659 1220 641 1225 623 1233 C 604 1240 584 1249 563 1261 C 541 1272 517 1286 491 1303 C 477 1311 463 1317 449 1323 C 435 1328 422 1331 411 1331 C 388 1331 370 1322 358 1306 C 346 1290 337 1261 332 1219 L 186 1219 C 186 1264 191 1304 202 1339 C 213 1373 228 1402 247 1426 C 266 1449 289 1467 315 1479 C 341 1491 370 1497 401 1497 C 420 1497 438 1495 456 1492 C 474 1488 492 1483 511 1476 C 529 1469 549 1460 571 1449 C 592 1437 616 1423 643 1407 C 657 1399 671 1392 685 1386 C 699 1380 711 1378 723 1378 C 745 1378 763 1386 776 1403 C 788 1419 797 1449 803 1491 L 948 1491 Z" unicode="õ" />
<glyph horiz-adv-x="1167" d="M 1063 543 C 1063 453 1050 374 1026 304 C 1001 234 967 174 924 126 C 880 77 829 40 770 15 C 710 -10 646 -23 578 -23 C 510 -23 447 -9 389 17 C 331 43 281 81 239 130 C 197 179 164 238 140 307 C 116 376 104 453 104 537 C 104 625 116 703 141 773 C 165 842 199 901 242 949 C 285 997 336 1034 394 1060 C 452 1085 516 1098 584 1098 C 652 1098 716 1084 774 1058 C 832 1032 883 994 926 946 C 968 898 1002 839 1026 771 C 1050 703 1063 627 1063 543 Z M 850 537 C 850 591 843 641 831 685 C 818 729 800 767 776 799 C 752 830 724 854 690 871 C 656 888 617 897 575 897 C 535 897 499 888 467 871 C 435 854 408 830 386 799 C 364 768 347 731 335 688 C 323 644 317 596 317 543 C 317 483 323 431 336 386 C 349 340 367 302 391 272 C 415 241 443 218 476 202 C 509 186 546 178 586 178 C 626 178 662 187 694 206 C 726 225 754 251 777 283 C 800 315 818 353 831 397 C 843 441 850 487 850 537 Z M 916 1337 C 916 1318 912 1300 905 1284 C 897 1267 887 1252 875 1240 C 862 1228 847 1218 831 1211 C 814 1203 797 1200 779 1200 C 759 1200 741 1203 725 1211 C 708 1218 693 1228 680 1240 C 667 1252 657 1267 650 1284 C 642 1300 639 1318 639 1337 C 639 1355 642 1373 650 1390 C 657 1407 667 1422 680 1435 C 693 1447 708 1457 725 1465 C 741 1472 759 1476 779 1476 C 797 1476 814 1472 831 1465 C 847 1457 862 1447 875 1435 C 887 1422 897 1407 905 1390 C 912 1373 916 1355 916 1337 Z M 517 1337 C 517 1318 513 1300 506 1284 C 498 1267 488 1252 476 1240 C 463 1228 448 1218 432 1211 C 415 1203 397 1200 379 1200 C 360 1200 342 1203 325 1211 C 308 1218 293 1228 281 1240 C 268 1252 258 1267 251 1284 C 243 1300 240 1318 240 1337 C 240 1355 243 1373 251 1390 C 258 1407 268 1422 281 1435 C 293 1447 308 1457 325 1465 C 342 1472 360 1476 379 1476 C 397 1476 415 1472 432 1465 C 448 1457 463 1447 476 1435 C 488 1422 498 1407 506 1390 C 513 1373 517 1355 517 1337 Z" unicode="ö" />
<glyph horiz-adv-x="1270" d="M 784 1133 C 784 1111 780 1092 772 1074 C 764 1056 753 1040 739 1026 C 725 1012 710 1002 692 994 C 674 986 655 983 635 983 C 613 983 594 986 576 994 C 558 1002 542 1012 528 1026 C 514 1040 504 1056 496 1074 C 488 1092 485 1111 485 1133 C 485 1153 489 1173 497 1192 C 505 1210 515 1227 529 1241 C 543 1255 559 1266 577 1274 C 595 1282 614 1286 635 1286 C 655 1286 674 1282 692 1274 C 710 1266 725 1255 739 1241 C 753 1227 764 1210 772 1192 C 780 1173 784 1153 784 1133 Z M 141 610 L 141 799 L 1130 799 L 1130 610 L 141 610 Z M 784 272 C 784 250 780 231 772 213 C 764 195 753 179 739 166 C 725 152 710 142 692 134 C 674 126 655 123 635 123 C 613 123 594 126 576 134 C 558 142 542 152 528 166 C 514 179 504 195 496 213 C 488 231 485 250 485 272 C 485 292 489 312 497 331 C 505 349 515 366 529 380 C 543 394 559 405 577 413 C 595 421 614 426 635 426 C 655 426 674 421 692 413 C 710 405 725 394 739 380 C 753 366 764 349 772 331 C 780 312 784 292 784 272 Z" unicode="÷" />
<glyph horiz-adv-x="1167" d="M 1063 543 C 1063 453 1050 374 1026 304 C 1001 234 967 174 924 126 C 880 77 829 40 770 15 C 710 -10 646 -23 578 -23 C 526 -23 470 -12 408 10 L 350 -102 L 162 -102 L 264 104 C 214 154 175 215 147 288 C 118 360 104 443 104 537 C 104 625 116 703 141 773 C 165 842 199 901 242 949 C 285 997 336 1034 394 1060 C 452 1085 516 1098 584 1098 C 612 1098 640 1095 668 1090 C 695 1085 722 1078 748 1069 L 801 1178 L 989 1178 L 891 981 C 944 933 986 871 1017 797 C 1047 722 1063 637 1063 543 Z M 662 897 C 634 905 605 909 575 909 C 533 909 496 900 464 883 C 432 865 405 841 383 809 C 361 777 344 738 332 693 C 320 648 315 598 315 543 C 315 489 319 442 327 403 C 335 363 346 329 362 299 L 662 897 Z M 852 537 C 852 595 847 644 837 685 C 827 725 813 761 797 791 L 492 182 C 524 171 555 166 586 166 C 628 166 665 175 698 195 C 731 214 759 240 782 274 C 804 308 822 347 834 392 C 846 437 852 485 852 537 Z" unicode="ø" />
<glyph horiz-adv-x="1167" d="M 801 0 L 801 102 C 774 65 737 35 689 12 C 641 -11 588 -23 530 -23 C 404 -23 309 17 244 98 C 179 178 147 299 147 459 L 147 1075 L 358 1075 L 358 467 C 358 368 375 294 410 245 C 445 196 502 172 580 172 C 650 172 705 195 743 243 C 781 291 801 358 801 446 L 801 1075 L 1012 1075 L 1012 0 L 801 0 Z M 542 1219 L 204 1546 L 491 1546 L 710 1219 L 542 1219 Z" unicode="ù" />
<glyph horiz-adv-x="1167" d="M 801 0 L 801 102 C 774 65 737 35 689 12 C 641 -11 588 -23 530 -23 C 404 -23 309 17 244 98 C 179 178 147 299 147 459 L 147 1075 L 358 1075 L 358 467 C 358 368 375 294 410 245 C 445 196 502 172 580 172 C 650 172 705 195 743 243 C 781 291 801 358 801 446 L 801 1075 L 1012 1075 L 1012 0 L 801 0 Z M 622 1219 L 454 1219 L 673 1546 L 960 1546 L 622 1219 Z" unicode="ú" />
<glyph horiz-adv-x="1167" d="M 801 0 L 801 102 C 774 65 737 35 689 12 C 641 -11 588 -23 530 -23 C 404 -23 309 17 244 98 C 179 178 147 299 147 459 L 147 1075 L 358 1075 L 358 467 C 358 368 375 294 410 245 C 445 196 502 172 580 172 C 650 172 705 195 743 243 C 781 291 801 358 801 446 L 801 1075 L 1012 1075 L 1012 0 L 801 0 Z M 773 1219 L 578 1399 L 383 1219 L 218 1219 L 457 1546 L 703 1546 L 942 1219 L 773 1219 Z" unicode="û" />
<glyph horiz-adv-x="1167" d="M 801 0 L 801 102 C 774 65 737 35 689 12 C 641 -11 588 -23 530 -23 C 404 -23 309 17 244 98 C 179 178 147 299 147 459 L 147 1075 L 358 1075 L 358 467 C 358 368 375 294 410 245 C 445 196 502 172 580 172 C 650 172 705 195 743 243 C 781 291 801 358 801 446 L 801 1075 L 1012 1075 L 1012 0 L 801 0 Z M 918 1356 C 918 1337 914 1319 907 1303 C 899 1286 889 1271 877 1259 C 864 1247 849 1237 833 1230 C 816 1222 799 1219 781 1219 C 761 1219 743 1222 727 1230 C 710 1237 695 1247 682 1259 C 669 1271 659 1286 652 1303 C 644 1319 641 1337 641 1356 C 641 1374 644 1392 652 1409 C 659 1426 669 1441 682 1454 C 695 1466 710 1476 727 1484 C 743 1491 761 1495 781 1495 C 799 1495 816 1491 833 1484 C 849 1476 864 1466 877 1454 C 889 1441 899 1426 907 1409 C 914 1392 918 1374 918 1356 Z M 519 1356 C 519 1337 515 1319 508 1303 C 500 1286 490 1271 478 1259 C 465 1247 450 1237 434 1230 C 417 1222 399 1219 381 1219 C 362 1219 344 1222 327 1230 C 310 1237 295 1247 283 1259 C 270 1271 260 1286 253 1303 C 245 1319 242 1337 242 1356 C 242 1374 245 1392 253 1409 C 260 1426 270 1441 283 1454 C 295 1466 310 1476 327 1484 C 344 1491 362 1495 381 1495 C 399 1495 417 1491 434 1484 C 450 1476 465 1466 478 1454 C 490 1441 500 1426 508 1409 C 515 1392 519 1374 519 1356 Z" unicode="ü" />
<glyph horiz-adv-x="1139" d="M 530 -379 L 307 -379 L 463 20 L 68 1075 L 299 1075 L 569 265 L 848 1075 L 1071 1075 L 530 -379 Z M 610 1200 L 442 1200 L 661 1527 L 948 1527 L 610 1200 Z" unicode="ý" />
<glyph horiz-adv-x="1167" d="M 1059 520 C 1059 428 1047 348 1024 280 C 1000 212 969 155 930 110 C 891 65 846 32 795 10 C 744 -12 691 -23 635 -23 C 607 -23 581 -19 555 -13 C 529 -6 504 2 481 14 C 457 25 436 38 416 53 C 396 68 379 84 365 100 L 365 -287 L 156 -395 L 156 1384 L 365 1493 L 365 973 C 403 1009 445 1038 491 1062 C 537 1086 588 1098 645 1098 C 703 1098 757 1087 807 1065 C 857 1043 901 1009 939 963 C 976 916 1005 856 1027 783 C 1048 710 1059 622 1059 520 Z M 848 514 C 848 648 827 747 785 809 C 743 871 684 903 606 903 C 580 903 556 899 533 891 C 510 883 488 873 467 861 C 446 848 427 833 409 817 C 391 800 376 783 362 766 L 362 313 C 374 297 388 280 406 264 C 424 247 444 232 466 218 C 488 204 511 193 536 185 C 561 176 587 172 614 172 C 690 172 748 200 788 257 C 828 314 848 400 848 514 Z" unicode="þ" />
<glyph horiz-adv-x="1139" d="M 530 -379 L 307 -379 L 463 20 L 68 1075 L 299 1075 L 569 265 L 848 1075 L 1071 1075 L 530 -379 Z M 905 1337 C 905 1318 901 1300 894 1284 C 886 1267 876 1252 864 1240 C 851 1228 836 1218 820 1211 C 803 1203 786 1200 768 1200 C 748 1200 730 1203 714 1211 C 697 1218 682 1228 669 1240 C 656 1252 646 1267 639 1284 C 631 1300 628 1318 628 1337 C 628 1355 631 1373 639 1390 C 646 1407 656 1422 669 1435 C 682 1447 697 1457 714 1465 C 730 1472 748 1476 768 1476 C 786 1476 803 1472 820 1465 C 836 1457 851 1447 864 1435 C 876 1422 886 1407 894 1390 C 901 1373 905 1355 905 1337 Z M 506 1337 C 506 1318 502 1300 495 1284 C 487 1267 477 1252 465 1240 C 452 1228 437 1218 421 1211 C 404 1203 386 1200 368 1200 C 349 1200 331 1203 314 1211 C 297 1218 282 1228 270 1240 C 257 1252 247 1267 240 1284 C 232 1300 229 1318 229 1337 C 229 1355 232 1373 240 1390 C 247 1407 257 1422 270 1435 C 282 1447 297 1457 314 1465 C 331 1472 349 1476 368 1476 C 386 1476 404 1472 421 1465 C 437 1457 452 1447 465 1435 C 477 1422 487 1407 495 1390 C 502 1373 506 1355 506 1337 Z" unicode="ÿ" />
<glyph horiz-adv-x="1458" d="M 1362 0 L 1133 0 L 1012 340 L 438 340 L 319 0 L 96 0 L 612 1434 L 840 1434 L 1362 0 Z M 946 532 L 723 1171 L 504 532 L 946 532 Z M 442 1556 L 442 1741 L 1016 1741 L 1016 1556 L 442 1556 Z" unicode="Ā" />
<glyph horiz-adv-x="1126" d="M 772 0 L 772 106 C 744 80 722 62 704 50 C 686 38 667 27 648 17 C 628 7 604 -2 574 -10 C 544 -18 512 -23 477 -23 C 433 -23 389 -16 345 -3 C 301 9 261 30 225 59 C 189 88 160 126 138 172 C 115 218 104 274 104 340 C 104 400 114 451 136 495 C 158 539 188 575 226 604 C 264 632 310 653 362 667 C 414 681 471 688 532 688 C 588 688 636 684 675 676 C 713 668 746 659 772 647 L 772 727 C 772 785 754 830 720 862 C 685 893 635 909 569 909 C 513 909 463 903 419 893 C 374 882 331 865 289 842 L 207 1001 C 258 1033 313 1057 372 1073 C 431 1089 499 1098 575 1098 C 635 1098 689 1090 739 1076 C 789 1061 831 1039 867 1009 C 902 979 929 941 949 896 C 969 850 979 797 979 737 L 979 0 L 772 0 Z M 772 459 C 752 468 734 475 718 480 C 702 485 685 489 668 493 C 650 497 629 500 605 502 C 581 504 554 506 526 506 C 458 506 404 491 364 463 C 324 434 305 395 305 346 C 305 314 310 286 322 264 C 333 242 347 224 365 210 C 382 196 402 185 426 178 C 450 171 478 168 512 168 C 540 168 567 172 593 180 C 619 188 643 198 666 211 C 688 224 709 239 727 255 C 745 271 760 288 772 305 L 772 459 Z M 276 1249 L 276 1434 L 850 1434 L 850 1249 L 276 1249 Z" unicode="ā" />
<glyph horiz-adv-x="1458" d="M 1362 0 L 1133 0 L 1012 340 L 438 340 L 319 0 L 96 0 L 612 1434 L 840 1434 L 1362 0 Z M 946 532 L 723 1171 L 504 532 L 946 532 Z M 1091 1853 C 1087 1801 1075 1754 1057 1714 C 1039 1673 1014 1639 983 1611 C 952 1583 915 1561 873 1547 C 830 1533 781 1526 727 1526 C 675 1526 628 1533 586 1547 C 544 1561 507 1583 476 1611 C 445 1639 420 1673 402 1714 C 383 1754 371 1801 367 1853 L 518 1853 C 526 1805 547 1767 582 1740 C 616 1713 666 1700 731 1700 C 791 1700 840 1713 877 1739 C 913 1765 936 1803 944 1853 L 1091 1853 Z" unicode="Ă" />
<glyph horiz-adv-x="1126" d="M 772 0 L 772 106 C 744 80 722 62 704 50 C 686 38 667 27 648 17 C 628 7 604 -2 574 -10 C 544 -18 512 -23 477 -23 C 433 -23 389 -16 345 -3 C 301 9 261 30 225 59 C 189 88 160 126 138 172 C 115 218 104 274 104 340 C 104 400 114 451 136 495 C 158 539 188 575 226 604 C 264 632 310 653 362 667 C 414 681 471 688 532 688 C 588 688 636 684 675 676 C 713 668 746 659 772 647 L 772 727 C 772 785 754 830 720 862 C 685 893 635 909 569 909 C 513 909 463 903 419 893 C 374 882 331 865 289 842 L 207 1001 C 258 1033 313 1057 372 1073 C 431 1089 499 1098 575 1098 C 635 1098 689 1090 739 1076 C 789 1061 831 1039 867 1009 C 902 979 929 941 949 896 C 969 850 979 797 979 737 L 979 0 L 772 0 Z M 772 459 C 752 468 734 475 718 480 C 702 485 685 489 668 493 C 650 497 629 500 605 502 C 581 504 554 506 526 506 C 458 506 404 491 364 463 C 324 434 305 395 305 346 C 305 314 310 286 322 264 C 333 242 347 224 365 210 C 382 196 402 185 426 178 C 450 171 478 168 512 168 C 540 168 567 172 593 180 C 619 188 643 198 666 211 C 688 224 709 239 727 255 C 745 271 760 288 772 305 L 772 459 Z M 925 1546 C 921 1494 909 1447 891 1407 C 873 1366 848 1332 817 1304 C 786 1276 749 1254 707 1240 C 664 1226 615 1219 561 1219 C 509 1219 462 1226 420 1240 C 378 1254 341 1276 310 1304 C 279 1332 254 1366 236 1407 C 217 1447 205 1494 201 1546 L 352 1546 C 360 1498 381 1460 416 1433 C 450 1406 500 1393 565 1393 C 625 1393 674 1406 711 1432 C 747 1458 770 1496 778 1546 L 925 1546 Z" unicode="ă" />
<glyph horiz-adv-x="1458" d="M 1362 0 L 1133 0 L 1012 340 L 438 340 L 319 0 L 96 0 L 612 1434 L 840 1434 L 1362 0 Z M 946 532 L 723 1171 L 504 532 L 946 532 Z M 1340 0 C 1306 -17 1276 -35 1248 -54 C 1220 -72 1198 -90 1181 -108 C 1163 -126 1151 -142 1145 -158 C 1138 -174 1135 -187 1135 -199 C 1135 -217 1140 -232 1150 -244 C 1160 -256 1176 -262 1198 -262 C 1212 -262 1225 -259 1238 -254 C 1251 -249 1262 -242 1272 -233 L 1339 -338 C 1311 -361 1280 -379 1248 -391 C 1215 -403 1180 -410 1143 -410 C 1109 -410 1079 -405 1054 -396 C 1029 -386 1008 -374 992 -359 C 976 -344 964 -327 956 -308 C 948 -288 944 -268 944 -248 C 944 -222 948 -197 958 -173 C 967 -149 980 -127 997 -106 C 1013 -85 1033 -66 1056 -48 C 1079 -30 1105 -14 1133 0 L 1340 0 Z" unicode="Ą" />
<glyph horiz-adv-x="1126" d="M 772 0 L 772 106 C 744 80 722 62 704 50 C 686 38 667 27 648 17 C 628 7 604 -2 574 -10 C 544 -18 512 -23 477 -23 C 433 -23 389 -16 345 -3 C 301 9 261 30 225 59 C 189 88 160 126 138 172 C 115 218 104 274 104 340 C 104 400 114 451 136 495 C 158 539 188 575 226 604 C 264 632 310 653 362 667 C 414 681 471 688 532 688 C 588 688 636 684 675 676 C 713 668 746 659 772 647 L 772 727 C 772 785 754 830 720 862 C 685 893 635 909 569 909 C 513 909 463 903 419 893 C 374 882 331 865 289 842 L 207 1001 C 258 1033 313 1057 372 1073 C 431 1089 499 1098 575 1098 C 635 1098 689 1090 739 1076 C 789 1061 831 1039 867 1009 C 902 979 929 941 949 896 C 969 850 979 797 979 737 L 979 0 L 772 0 Z M 772 459 C 752 468 734 475 718 480 C 702 485 685 489 668 493 C 650 497 629 500 605 502 C 581 504 554 506 526 506 C 458 506 404 491 364 463 C 324 434 305 395 305 346 C 305 314 310 286 322 264 C 333 242 347 224 365 210 C 382 196 402 185 426 178 C 450 171 478 168 512 168 C 540 168 567 172 593 180 C 619 188 643 198 666 211 C 688 224 709 239 727 255 C 745 271 760 288 772 305 L 772 459 Z M 979 0 C 945 -17 915 -35 887 -54 C 859 -72 837 -90 820 -108 C 802 -126 790 -142 784 -158 C 777 -174 774 -187 774 -199 C 774 -217 779 -232 789 -244 C 799 -256 815 -262 837 -262 C 851 -262 864 -259 877 -254 C 890 -249 901 -242 911 -233 L 978 -338 C 950 -361 919 -379 887 -391 C 854 -403 819 -410 782 -410 C 748 -410 718 -405 693 -396 C 668 -386 647 -374 631 -359 C 615 -344 603 -327 595 -308 C 587 -288 583 -268 583 -248 C 583 -222 587 -197 597 -173 C 606 -149 619 -127 636 -106 C 652 -85 672 -66 695 -48 C 718 -30 744 -14 772 0 L 979 0 Z" unicode="ą" />
<glyph horiz-adv-x="1341" d="M 1022 1069 C 1003 1098 984 1123 965 1145 C 945 1167 924 1185 901 1199 C 877 1213 851 1223 823 1230 C 794 1237 761 1241 725 1241 C 662 1241 607 1228 559 1204 C 511 1180 470 1145 438 1099 C 406 1053 381 998 365 934 C 348 869 340 797 340 717 C 340 636 348 563 365 499 C 381 434 406 379 438 334 C 470 288 511 253 559 229 C 607 205 662 193 725 193 C 799 193 861 208 911 238 C 960 268 1003 312 1040 371 L 1219 252 C 1185 198 1154 157 1124 129 C 1094 101 1061 75 1024 53 C 987 31 944 12 894 -1 C 844 -15 788 -23 725 -23 C 657 -23 595 -14 541 4 C 487 22 438 46 394 78 C 350 109 310 148 274 195 C 238 242 210 291 189 342 C 167 392 150 449 138 512 C 125 574 119 643 119 717 C 119 825 133 925 161 1015 C 189 1105 230 1183 283 1249 C 335 1314 399 1365 474 1401 C 548 1437 632 1456 725 1456 C 841 1456 939 1433 1019 1387 C 1098 1341 1162 1274 1212 1188 L 1022 1069 Z M 721 1526 L 553 1526 L 772 1853 L 1059 1853 L 721 1526 Z" unicode="Ć" />
<glyph horiz-adv-x="1069" d="M 954 178 C 932 151 909 125 885 101 C 861 77 833 55 803 37 C 772 19 737 4 699 -6 C 661 -17 617 -23 569 -23 C 503 -23 442 -9 386 17 C 329 43 280 81 238 130 C 196 178 164 237 140 306 C 116 374 104 451 104 535 C 104 623 116 703 140 773 C 164 843 198 902 241 950 C 283 998 333 1034 391 1060 C 448 1085 509 1098 575 1098 C 654 1098 725 1082 787 1051 C 849 1020 906 975 956 915 L 831 766 C 805 791 784 811 766 825 C 748 839 728 852 706 864 C 684 875 662 883 640 889 C 618 894 594 897 569 897 C 531 897 496 888 465 872 C 434 855 408 831 386 801 C 364 770 347 733 335 689 C 323 645 317 595 317 541 C 317 488 322 439 334 395 C 345 351 361 312 383 280 C 405 248 432 223 464 205 C 496 187 533 178 575 178 C 600 178 623 180 644 186 C 664 192 684 200 703 211 C 722 222 741 236 759 253 C 777 269 797 289 819 311 L 954 178 Z M 653 1219 L 485 1219 L 704 1546 L 991 1546 L 653 1219 Z" unicode="ć" />
<glyph horiz-adv-x="1341" d="M 1022 1069 C 1003 1098 984 1123 965 1145 C 945 1167 924 1185 901 1199 C 877 1213 851 1223 823 1230 C 794 1237 761 1241 725 1241 C 662 1241 607 1228 559 1204 C 511 1180 470 1145 438 1099 C 406 1053 381 998 365 934 C 348 869 340 797 340 717 C 340 636 348 563 365 499 C 381 434 406 379 438 334 C 470 288 511 253 559 229 C 607 205 662 193 725 193 C 799 193 861 208 911 238 C 960 268 1003 312 1040 371 L 1219 252 C 1185 198 1154 157 1124 129 C 1094 101 1061 75 1024 53 C 987 31 944 12 894 -1 C 844 -15 788 -23 725 -23 C 657 -23 595 -14 541 4 C 487 22 438 46 394 78 C 350 109 310 148 274 195 C 238 242 210 291 189 342 C 167 392 150 449 138 512 C 125 574 119 643 119 717 C 119 825 133 925 161 1015 C 189 1105 230 1183 283 1249 C 335 1314 399 1365 474 1401 C 548 1437 632 1456 725 1456 C 841 1456 939 1433 1019 1387 C 1098 1341 1162 1274 1212 1188 L 1022 1069 Z M 910 1516 L 715 1696 L 520 1516 L 355 1516 L 594 1843 L 840 1843 L 1079 1516 L 910 1516 Z" unicode="Ĉ" />
<glyph horiz-adv-x="1069" d="M 954 178 C 932 151 909 125 885 101 C 861 77 833 55 803 37 C 772 19 737 4 699 -6 C 661 -17 617 -23 569 -23 C 503 -23 442 -9 386 17 C 329 43 280 81 238 130 C 196 178 164 237 140 306 C 116 374 104 451 104 535 C 104 623 116 703 140 773 C 164 843 198 902 241 950 C 283 998 333 1034 391 1060 C 448 1085 509 1098 575 1098 C 654 1098 725 1082 787 1051 C 849 1020 906 975 956 915 L 831 766 C 805 791 784 811 766 825 C 748 839 728 852 706 864 C 684 875 662 883 640 889 C 618 894 594 897 569 897 C 531 897 496 888 465 872 C 434 855 408 831 386 801 C 364 770 347 733 335 689 C 323 645 317 595 317 541 C 317 488 322 439 334 395 C 345 351 361 312 383 280 C 405 248 432 223 464 205 C 496 187 533 178 575 178 C 600 178 623 180 644 186 C 664 192 684 200 703 211 C 722 222 741 236 759 253 C 777 269 797 289 819 311 L 954 178 Z M 748 1219 L 553 1399 L 358 1219 L 193 1219 L 432 1546 L 678 1546 L 917 1219 L 748 1219 Z" unicode="ĉ" />
<glyph horiz-adv-x="1341" d="M 1022 1069 C 1003 1098 984 1123 965 1145 C 945 1167 924 1185 901 1199 C 877 1213 851 1223 823 1230 C 794 1237 761 1241 725 1241 C 662 1241 607 1228 559 1204 C 511 1180 470 1145 438 1099 C 406 1053 381 998 365 934 C 348 869 340 797 340 717 C 340 636 348 563 365 499 C 381 434 406 379 438 334 C 470 288 511 253 559 229 C 607 205 662 193 725 193 C 799 193 861 208 911 238 C 960 268 1003 312 1040 371 L 1219 252 C 1185 198 1154 157 1124 129 C 1094 101 1061 75 1024 53 C 987 31 944 12 894 -1 C 844 -15 788 -23 725 -23 C 657 -23 595 -14 541 4 C 487 22 438 46 394 78 C 350 109 310 148 274 195 C 238 242 210 291 189 342 C 167 392 150 449 138 512 C 125 574 119 643 119 717 C 119 825 133 925 161 1015 C 189 1105 230 1183 283 1249 C 335 1314 399 1365 474 1401 C 548 1437 632 1456 725 1456 C 841 1456 939 1433 1019 1387 C 1098 1341 1162 1274 1212 1188 L 1022 1069 Z M 858 1663 C 858 1644 854 1626 847 1610 C 839 1593 829 1578 817 1566 C 804 1554 789 1544 773 1537 C 757 1529 739 1526 721 1526 C 701 1526 683 1529 667 1537 C 650 1544 635 1554 623 1566 C 610 1578 600 1593 593 1610 C 585 1626 582 1644 582 1663 C 582 1681 585 1699 593 1716 C 600 1733 610 1748 623 1761 C 635 1773 650 1783 667 1791 C 683 1798 701 1802 721 1802 C 739 1802 757 1798 773 1791 C 789 1783 804 1773 817 1761 C 829 1748 839 1733 847 1716 C 854 1699 858 1681 858 1663 Z" unicode="Ċ" />
<glyph horiz-adv-x="1069" d="M 954 178 C 932 151 909 125 885 101 C 861 77 833 55 803 37 C 772 19 737 4 699 -6 C 661 -17 617 -23 569 -23 C 503 -23 442 -9 386 17 C 329 43 280 81 238 130 C 196 178 164 237 140 306 C 116 374 104 451 104 535 C 104 623 116 703 140 773 C 164 843 198 902 241 950 C 283 998 333 1034 391 1060 C 448 1085 509 1098 575 1098 C 654 1098 725 1082 787 1051 C 849 1020 906 975 956 915 L 831 766 C 805 791 784 811 766 825 C 748 839 728 852 706 864 C 684 875 662 883 640 889 C 618 894 594 897 569 897 C 531 897 496 888 465 872 C 434 855 408 831 386 801 C 364 770 347 733 335 689 C 323 645 317 595 317 541 C 317 488 322 439 334 395 C 345 351 361 312 383 280 C 405 248 432 223 464 205 C 496 187 533 178 575 178 C 600 178 623 180 644 186 C 664 192 684 200 703 211 C 722 222 741 236 759 253 C 777 269 797 289 819 311 L 954 178 Z M 708 1356 C 708 1337 704 1319 697 1303 C 689 1286 679 1271 667 1259 C 654 1247 639 1237 623 1230 C 607 1222 589 1219 571 1219 C 551 1219 533 1222 517 1230 C 500 1237 485 1247 473 1259 C 460 1271 450 1286 443 1303 C 435 1319 432 1337 432 1356 C 432 1374 435 1392 443 1409 C 450 1426 460 1441 473 1454 C 485 1466 500 1476 517 1484 C 533 1491 551 1495 571 1495 C 589 1495 607 1491 623 1484 C 639 1476 654 1466 667 1454 C 679 1441 689 1426 697 1409 C 704 1392 708 1374 708 1356 Z" unicode="ċ" />
<glyph horiz-adv-x="1341" d="M 1022 1069 C 1003 1098 984 1123 965 1145 C 945 1167 924 1185 901 1199 C 877 1213 851 1223 823 1230 C 794 1237 761 1241 725 1241 C 662 1241 607 1228 559 1204 C 511 1180 470 1145 438 1099 C 406 1053 381 998 365 934 C 348 869 340 797 340 717 C 340 636 348 563 365 499 C 381 434 406 379 438 334 C 470 288 511 253 559 229 C 607 205 662 193 725 193 C 799 193 861 208 911 238 C 960 268 1003 312 1040 371 L 1219 252 C 1185 198 1154 157 1124 129 C 1094 101 1061 75 1024 53 C 987 31 944 12 894 -1 C 844 -15 788 -23 725 -23 C 657 -23 595 -14 541 4 C 487 22 438 46 394 78 C 350 109 310 148 274 195 C 238 242 210 291 189 342 C 167 392 150 449 138 512 C 125 574 119 643 119 717 C 119 825 133 925 161 1015 C 189 1105 230 1183 283 1249 C 335 1314 399 1365 474 1401 C 548 1437 632 1456 725 1456 C 841 1456 939 1433 1019 1387 C 1098 1341 1162 1274 1212 1188 L 1022 1069 Z M 838 1516 L 592 1516 L 353 1843 L 522 1843 L 717 1663 L 912 1843 L 1077 1843 L 838 1516 Z" unicode="Č" />
<glyph horiz-adv-x="1069" d="M 954 178 C 932 151 909 125 885 101 C 861 77 833 55 803 37 C 772 19 737 4 699 -6 C 661 -17 617 -23 569 -23 C 503 -23 442 -9 386 17 C 329 43 280 81 238 130 C 196 178 164 237 140 306 C 116 374 104 451 104 535 C 104 623 116 703 140 773 C 164 843 198 902 241 950 C 283 998 333 1034 391 1060 C 448 1085 509 1098 575 1098 C 654 1098 725 1082 787 1051 C 849 1020 906 975 956 915 L 831 766 C 805 791 784 811 766 825 C 748 839 728 852 706 864 C 684 875 662 883 640 889 C 618 894 594 897 569 897 C 531 897 496 888 465 872 C 434 855 408 831 386 801 C 364 770 347 733 335 689 C 323 645 317 595 317 541 C 317 488 322 439 334 395 C 345 351 361 312 383 280 C 405 248 432 223 464 205 C 496 187 533 178 575 178 C 600 178 623 180 644 186 C 664 192 684 200 703 211 C 722 222 741 236 759 253 C 777 269 797 289 819 311 L 954 178 Z M 658 1219 L 412 1219 L 173 1546 L 342 1546 L 537 1366 L 732 1546 L 897 1546 L 658 1219 Z" unicode="č" />
<glyph horiz-adv-x="1391" d="M 1276 717 C 1276 632 1267 556 1250 488 C 1233 420 1209 359 1178 306 C 1147 253 1110 207 1067 169 C 1024 130 977 98 925 73 C 873 48 818 30 759 18 C 700 6 640 0 578 0 L 186 0 L 186 1434 L 578 1434 C 674 1434 764 1420 849 1393 C 934 1365 1008 1323 1071 1265 C 1134 1207 1184 1132 1221 1042 C 1257 952 1276 843 1276 717 Z M 1057 717 C 1057 792 1048 861 1030 923 C 1012 985 983 1039 945 1084 C 906 1128 856 1163 796 1188 C 735 1212 662 1225 578 1225 L 401 1225 L 401 209 L 578 209 C 662 209 735 221 796 246 C 856 270 906 305 945 350 C 983 394 1012 448 1030 510 C 1048 572 1057 641 1057 717 Z M 799 1516 L 553 1516 L 314 1843 L 483 1843 L 678 1663 L 873 1843 L 1038 1843 L 799 1516 Z" unicode="Ď" />
<glyph horiz-adv-x="1297" d="M 803 0 L 803 102 C 783 84 762 67 741 52 C 719 36 696 23 672 11 C 647 -1 622 -9 598 -15 C 573 -20 548 -23 522 -23 C 464 -23 410 -12 360 9 C 310 31 266 65 229 112 C 191 158 162 218 141 291 C 119 364 109 452 109 555 C 109 647 120 727 143 795 C 166 863 197 920 236 965 C 275 1009 320 1043 371 1065 C 422 1087 476 1098 532 1098 C 559 1098 586 1094 612 1088 C 638 1081 662 1072 686 1061 C 709 1049 730 1036 750 1021 C 770 1006 787 991 803 975 L 803 1384 L 1012 1493 L 1012 0 L 803 0 Z M 805 762 C 793 778 778 794 760 811 C 742 827 723 842 701 856 C 679 870 655 881 630 890 C 605 898 579 903 553 903 C 476 903 418 874 378 817 C 338 760 319 675 319 561 C 319 493 324 435 335 386 C 345 337 361 297 382 265 C 402 233 428 210 458 195 C 488 179 522 172 561 172 C 586 172 610 175 634 183 C 657 191 679 201 700 214 C 720 227 739 242 757 258 C 775 274 791 291 805 309 L 805 762 Z M 1261 920 L 1120 920 L 1149 1434 L 1417 1434 L 1261 920 Z" unicode="ď" />
<glyph horiz-adv-x="1421" d="M 1307 717 C 1307 590 1288 481 1250 391 C 1212 301 1162 227 1098 169 C 1034 111 959 68 875 41 C 791 13 702 0 608 0 L 217 0 L 217 647 L 82 647 L 82 852 L 217 852 L 217 1434 L 608 1434 C 704 1434 794 1420 879 1393 C 964 1365 1038 1323 1102 1265 C 1165 1207 1215 1132 1252 1042 C 1288 952 1307 843 1307 717 Z M 1087 717 C 1087 792 1078 861 1060 923 C 1042 985 1013 1038 975 1083 C 936 1127 886 1162 826 1186 C 765 1210 692 1223 608 1223 L 426 1223 L 426 852 L 686 852 L 686 647 L 426 647 L 426 211 L 608 211 C 692 211 765 223 826 247 C 886 271 936 306 975 351 C 1013 395 1042 449 1060 511 C 1078 573 1087 641 1087 717 Z" unicode="Đ" />
<glyph horiz-adv-x="1167" d="M 1194 1294 L 1194 1153 L 1012 1153 L 1012 0 L 803 0 L 803 102 C 763 66 721 36 675 12 C 629 -11 578 -23 522 -23 C 464 -23 410 -12 360 9 C 310 31 266 65 229 112 C 191 158 162 218 141 291 C 119 364 109 452 109 555 C 109 647 120 727 143 795 C 166 863 197 920 236 965 C 275 1009 320 1043 371 1065 C 422 1087 476 1098 532 1098 C 559 1098 586 1094 612 1088 C 638 1081 662 1072 686 1061 C 709 1049 730 1036 750 1021 C 770 1006 787 991 803 975 L 803 1153 L 621 1153 L 621 1294 L 803 1294 L 803 1384 L 1012 1493 L 1012 1294 L 1194 1294 Z M 805 762 C 793 778 778 794 760 811 C 742 827 723 842 701 856 C 679 870 655 881 630 890 C 605 898 579 903 553 903 C 476 903 418 874 378 817 C 338 760 319 675 319 561 C 319 493 324 435 335 386 C 345 337 361 297 382 265 C 402 233 428 210 458 195 C 488 179 522 172 561 172 C 586 172 610 175 634 183 C 657 191 679 201 700 214 C 720 227 739 242 757 258 C 775 274 791 291 805 309 L 805 762 Z" unicode="đ" />
<glyph horiz-adv-x="1260" d="M 1141 0 L 186 0 L 186 1434 L 1110 1434 L 1110 1225 L 401 1225 L 401 870 L 977 870 L 977 662 L 401 662 L 401 209 L 1141 209 L 1141 0 Z M 362 1556 L 362 1741 L 936 1741 L 936 1556 L 362 1556 Z" unicode="Ē" />
<glyph horiz-adv-x="1135" d="M 1028 559 C 1028 539 1027 521 1026 505 C 1024 488 1023 474 1022 463 L 311 463 C 317 411 328 366 345 329 C 361 292 382 262 406 238 C 430 214 457 196 487 185 C 517 173 549 168 582 168 C 605 168 627 170 648 174 C 668 178 688 184 707 192 C 726 200 743 208 758 216 C 772 224 791 237 815 254 L 940 119 C 913 93 887 73 863 57 C 839 41 812 27 784 15 C 756 3 724 -6 688 -13 C 652 -19 612 -23 569 -23 C 522 -23 478 -16 438 -3 C 397 9 361 26 330 47 C 298 68 270 92 245 119 C 220 146 196 181 174 223 C 151 265 134 313 122 365 C 110 417 104 475 104 537 C 104 627 115 708 138 778 C 161 848 193 906 235 954 C 276 1001 326 1037 384 1061 C 442 1085 505 1098 575 1098 C 651 1098 718 1083 775 1054 C 831 1025 878 986 916 937 C 953 888 981 831 1000 766 C 1018 700 1028 631 1028 559 Z M 815 637 C 812 673 805 708 795 741 C 785 773 769 802 749 827 C 729 851 703 871 672 885 C 641 899 604 907 561 907 C 523 907 491 900 463 888 C 435 876 411 858 391 836 C 371 813 354 785 341 752 C 328 719 319 681 315 637 L 815 637 Z M 280 1249 L 280 1434 L 854 1434 L 854 1249 L 280 1249 Z" unicode="ē" />
<glyph horiz-adv-x="1260" d="M 1141 0 L 186 0 L 186 1434 L 1110 1434 L 1110 1225 L 401 1225 L 401 870 L 977 870 L 977 662 L 401 662 L 401 209 L 1141 209 L 1141 0 Z M 1001 1843 C 997 1791 985 1744 967 1704 C 949 1663 924 1629 893 1601 C 862 1573 825 1551 783 1537 C 740 1523 691 1516 637 1516 C 585 1516 538 1523 496 1537 C 454 1551 417 1573 386 1601 C 355 1629 330 1663 312 1704 C 293 1744 281 1791 277 1843 L 428 1843 C 436 1795 457 1757 492 1730 C 526 1703 576 1690 641 1690 C 701 1690 750 1703 787 1729 C 823 1755 846 1793 854 1843 L 1001 1843 Z" unicode="Ĕ" />
<glyph horiz-adv-x="1135" d="M 1028 559 C 1028 539 1027 521 1026 505 C 1024 488 1023 474 1022 463 L 311 463 C 317 411 328 366 345 329 C 361 292 382 262 406 238 C 430 214 457 196 487 185 C 517 173 549 168 582 168 C 605 168 627 170 648 174 C 668 178 688 184 707 192 C 726 200 743 208 758 216 C 772 224 791 237 815 254 L 940 119 C 913 93 887 73 863 57 C 839 41 812 27 784 15 C 756 3 724 -6 688 -13 C 652 -19 612 -23 569 -23 C 522 -23 478 -16 438 -3 C 397 9 361 26 330 47 C 298 68 270 92 245 119 C 220 146 196 181 174 223 C 151 265 134 313 122 365 C 110 417 104 475 104 537 C 104 627 115 708 138 778 C 161 848 193 906 235 954 C 276 1001 326 1037 384 1061 C 442 1085 505 1098 575 1098 C 651 1098 718 1083 775 1054 C 831 1025 878 986 916 937 C 953 888 981 831 1000 766 C 1018 700 1028 631 1028 559 Z M 815 637 C 812 673 805 708 795 741 C 785 773 769 802 749 827 C 729 851 703 871 672 885 C 641 899 604 907 561 907 C 523 907 491 900 463 888 C 435 876 411 858 391 836 C 371 813 354 785 341 752 C 328 719 319 681 315 637 L 815 637 Z M 919 1546 C 915 1494 903 1447 885 1407 C 867 1366 842 1332 811 1304 C 780 1276 743 1254 701 1240 C 658 1226 609 1219 555 1219 C 503 1219 456 1226 414 1240 C 372 1254 335 1276 304 1304 C 273 1332 248 1366 230 1407 C 211 1447 199 1494 195 1546 L 346 1546 C 354 1498 375 1460 410 1433 C 444 1406 494 1393 559 1393 C 619 1393 668 1406 705 1432 C 741 1458 764 1496 772 1546 L 919 1546 Z" unicode="ĕ" />
<glyph horiz-adv-x="1260" d="M 1141 0 L 186 0 L 186 1434 L 1110 1434 L 1110 1225 L 401 1225 L 401 870 L 977 870 L 977 662 L 401 662 L 401 209 L 1141 209 L 1141 0 Z M 766 1663 C 766 1644 762 1626 755 1610 C 747 1593 737 1578 725 1566 C 712 1554 697 1544 681 1537 C 665 1529 647 1526 629 1526 C 609 1526 591 1529 575 1537 C 558 1544 543 1554 531 1566 C 518 1578 508 1593 501 1610 C 493 1626 490 1644 490 1663 C 490 1681 493 1699 501 1716 C 508 1733 518 1748 531 1761 C 543 1773 558 1783 575 1791 C 591 1798 609 1802 629 1802 C 647 1802 665 1798 681 1791 C 697 1783 712 1773 725 1761 C 737 1748 747 1733 755 1716 C 762 1699 766 1681 766 1663 Z" unicode="Ė" />
<glyph horiz-adv-x="1135" d="M 1028 559 C 1028 539 1027 521 1026 505 C 1024 488 1023 474 1022 463 L 311 463 C 317 411 328 366 345 329 C 361 292 382 262 406 238 C 430 214 457 196 487 185 C 517 173 549 168 582 168 C 605 168 627 170 648 174 C 668 178 688 184 707 192 C 726 200 743 208 758 216 C 772 224 791 237 815 254 L 940 119 C 913 93 887 73 863 57 C 839 41 812 27 784 15 C 756 3 724 -6 688 -13 C 652 -19 612 -23 569 -23 C 522 -23 478 -16 438 -3 C 397 9 361 26 330 47 C 298 68 270 92 245 119 C 220 146 196 181 174 223 C 151 265 134 313 122 365 C 110 417 104 475 104 537 C 104 627 115 708 138 778 C 161 848 193 906 235 954 C 276 1001 326 1037 384 1061 C 442 1085 505 1098 575 1098 C 651 1098 718 1083 775 1054 C 831 1025 878 986 916 937 C 953 888 981 831 1000 766 C 1018 700 1028 631 1028 559 Z M 815 637 C 812 673 805 708 795 741 C 785 773 769 802 749 827 C 729 851 703 871 672 885 C 641 899 604 907 561 907 C 523 907 491 900 463 888 C 435 876 411 858 391 836 C 371 813 354 785 341 752 C 328 719 319 681 315 637 L 815 637 Z M 704 1356 C 704 1337 700 1319 693 1303 C 685 1286 675 1271 663 1259 C 650 1247 635 1237 619 1230 C 603 1222 585 1219 567 1219 C 547 1219 529 1222 513 1230 C 496 1237 481 1247 469 1259 C 456 1271 446 1286 439 1303 C 431 1319 428 1337 428 1356 C 428 1374 431 1392 439 1409 C 446 1426 456 1441 469 1454 C 481 1466 496 1476 513 1484 C 529 1491 547 1495 567 1495 C 585 1495 603 1491 619 1484 C 635 1476 650 1466 663 1454 C 675 1441 685 1426 693 1409 C 700 1392 704 1374 704 1356 Z" unicode="ė" />
<glyph horiz-adv-x="1260" d="M 1141 0 L 186 0 L 186 1434 L 1110 1434 L 1110 1225 L 401 1225 L 401 870 L 977 870 L 977 662 L 401 662 L 401 209 L 1141 209 L 1141 0 Z M 1141 0 C 1107 -17 1077 -35 1049 -54 C 1021 -72 999 -90 982 -108 C 964 -126 952 -142 946 -158 C 939 -174 936 -187 936 -199 C 936 -217 941 -232 951 -244 C 961 -256 977 -262 999 -262 C 1013 -262 1026 -259 1039 -254 C 1052 -249 1063 -242 1073 -233 L 1140 -338 C 1112 -361 1081 -379 1049 -391 C 1016 -403 981 -410 944 -410 C 910 -410 880 -405 855 -396 C 830 -386 809 -374 793 -359 C 777 -344 765 -327 757 -308 C 749 -288 745 -268 745 -248 C 745 -222 749 -197 759 -173 C 768 -149 781 -127 798 -106 C 814 -85 834 -66 857 -48 C 880 -30 906 -14 934 0 L 1141 0 Z" unicode="Ę" />
<glyph horiz-adv-x="1135" d="M 815 254 L 940 119 C 916 95 890 75 861 57 C 832 39 803 22 773 6 C 743 -9 713 -24 685 -39 C 657 -53 632 -68 610 -84 C 588 -100 570 -117 557 -136 C 543 -154 537 -175 537 -199 C 537 -217 542 -232 552 -244 C 562 -256 578 -262 600 -262 C 611 -262 623 -260 635 -256 C 647 -252 660 -244 674 -233 L 741 -338 C 716 -359 687 -376 655 -390 C 622 -403 585 -410 545 -410 C 511 -410 481 -405 456 -396 C 431 -386 410 -374 394 -359 C 378 -344 366 -327 358 -308 C 350 -288 346 -268 346 -248 C 346 -200 360 -157 389 -118 C 418 -79 456 -46 504 -18 C 448 -10 395 8 347 36 C 298 64 256 102 220 150 C 184 197 155 253 135 318 C 114 382 104 455 104 537 C 104 627 115 708 138 778 C 161 848 193 906 235 954 C 276 1001 326 1037 384 1061 C 442 1085 505 1098 575 1098 C 651 1098 718 1083 775 1054 C 831 1025 878 986 916 937 C 953 888 981 831 1000 766 C 1018 700 1028 631 1028 559 C 1028 539 1027 521 1026 505 C 1024 488 1023 474 1022 463 L 311 463 C 317 411 328 366 345 329 C 361 292 382 262 406 238 C 430 214 457 196 487 185 C 517 173 549 168 582 168 C 627 168 668 175 705 191 C 742 206 779 227 815 254 Z M 815 637 C 812 673 805 708 795 741 C 785 773 769 802 749 827 C 729 851 703 871 672 885 C 641 899 604 907 561 907 C 526 907 494 900 465 888 C 435 876 410 857 390 833 C 369 809 352 780 340 748 C 328 716 319 679 315 637 L 815 637 Z" unicode="ę" />
<glyph horiz-adv-x="1260" d="M 1141 0 L 186 0 L 186 1434 L 1110 1434 L 1110 1225 L 401 1225 L 401 870 L 977 870 L 977 662 L 401 662 L 401 209 L 1141 209 L 1141 0 Z M 760 1516 L 514 1516 L 275 1843 L 444 1843 L 639 1663 L 834 1843 L 999 1843 L 760 1516 Z" unicode="Ě" />
<glyph horiz-adv-x="1135" d="M 1028 559 C 1028 539 1027 521 1026 505 C 1024 488 1023 474 1022 463 L 311 463 C 317 411 328 366 345 329 C 361 292 382 262 406 238 C 430 214 457 196 487 185 C 517 173 549 168 582 168 C 605 168 627 170 648 174 C 668 178 688 184 707 192 C 726 200 743 208 758 216 C 772 224 791 237 815 254 L 940 119 C 913 93 887 73 863 57 C 839 41 812 27 784 15 C 756 3 724 -6 688 -13 C 652 -19 612 -23 569 -23 C 522 -23 478 -16 438 -3 C 397 9 361 26 330 47 C 298 68 270 92 245 119 C 220 146 196 181 174 223 C 151 265 134 313 122 365 C 110 417 104 475 104 537 C 104 627 115 708 138 778 C 161 848 193 906 235 954 C 276 1001 326 1037 384 1061 C 442 1085 505 1098 575 1098 C 651 1098 718 1083 775 1054 C 831 1025 878 986 916 937 C 953 888 981 831 1000 766 C 1018 700 1028 631 1028 559 Z M 815 637 C 812 673 805 708 795 741 C 785 773 769 802 749 827 C 729 851 703 871 672 885 C 641 899 604 907 561 907 C 523 907 491 900 463 888 C 435 876 411 858 391 836 C 371 813 354 785 341 752 C 328 719 319 681 315 637 L 815 637 Z M 690 1219 L 444 1219 L 205 1546 L 374 1546 L 569 1366 L 764 1546 L 929 1546 L 690 1219 Z" unicode="ě" />
<glyph horiz-adv-x="1389" d="M 1270 561 C 1270 469 1256 386 1229 314 C 1202 242 1165 181 1117 131 C 1069 81 1011 42 945 16 C 878 -9 805 -23 725 -23 C 632 -23 548 -4 474 31 C 399 67 335 118 283 184 C 230 249 189 327 161 418 C 133 508 119 608 119 717 C 119 825 133 925 161 1015 C 189 1105 230 1183 283 1249 C 335 1314 399 1365 474 1401 C 548 1437 632 1456 725 1456 C 841 1456 939 1433 1019 1387 C 1098 1341 1162 1274 1212 1188 L 1024 1071 C 1005 1100 986 1125 966 1147 C 946 1168 925 1186 902 1200 C 878 1214 852 1224 823 1231 C 794 1237 761 1241 725 1241 C 662 1241 607 1228 559 1204 C 511 1180 470 1145 438 1099 C 405 1053 380 998 363 934 C 346 869 338 797 338 717 C 338 636 346 563 363 499 C 380 434 405 379 438 334 C 470 288 511 253 559 229 C 607 205 662 193 725 193 C 827 193 907 221 965 279 C 1022 337 1051 415 1051 514 L 1051 520 L 817 520 L 817 727 L 1270 727 L 1270 561 Z M 910 1516 L 715 1696 L 520 1516 L 355 1516 L 594 1843 L 840 1843 L 1079 1516 L 910 1516 Z" unicode="Ĝ" />
<glyph horiz-adv-x="1167" d="M 1012 102 C 1012 28 1004 -37 989 -93 C 974 -149 950 -198 916 -240 C 874 -290 816 -328 744 -354 C 671 -380 579 -394 467 -397 L 406 -225 C 488 -222 559 -213 619 -198 C 679 -182 722 -161 746 -133 C 768 -109 782 -80 790 -44 C 797 -8 801 34 801 84 L 801 102 C 781 84 761 67 740 52 C 719 37 697 24 674 13 C 651 1 627 -7 602 -13 C 576 -19 550 -23 522 -23 C 464 -23 411 -12 361 9 C 311 31 267 65 230 112 C 192 158 163 218 141 291 C 119 364 109 452 109 555 C 109 647 120 727 144 795 C 167 863 198 920 237 965 C 276 1009 321 1043 372 1065 C 423 1087 476 1098 532 1098 C 559 1098 586 1094 612 1088 C 638 1081 662 1072 685 1061 C 708 1049 729 1036 749 1021 C 769 1006 786 991 801 975 L 801 1075 L 1012 1075 L 1012 102 Z M 561 172 C 606 172 649 184 690 209 C 731 233 769 267 805 309 L 805 762 C 793 778 778 794 760 811 C 742 827 723 842 701 856 C 679 870 655 881 630 890 C 605 898 579 903 553 903 C 476 903 418 874 378 817 C 338 760 319 675 319 561 C 319 435 338 338 378 272 C 418 205 479 172 561 172 Z M 756 1219 L 561 1399 L 366 1219 L 201 1219 L 440 1546 L 686 1546 L 925 1219 L 756 1219 Z" unicode="ĝ" />
<glyph horiz-adv-x="1389" d="M 1270 561 C 1270 469 1256 386 1229 314 C 1202 242 1165 181 1117 131 C 1069 81 1011 42 945 16 C 878 -9 805 -23 725 -23 C 632 -23 548 -4 474 31 C 399 67 335 118 283 184 C 230 249 189 327 161 418 C 133 508 119 608 119 717 C 119 825 133 925 161 1015 C 189 1105 230 1183 283 1249 C 335 1314 399 1365 474 1401 C 548 1437 632 1456 725 1456 C 841 1456 939 1433 1019 1387 C 1098 1341 1162 1274 1212 1188 L 1024 1071 C 1005 1100 986 1125 966 1147 C 946 1168 925 1186 902 1200 C 878 1214 852 1224 823 1231 C 794 1237 761 1241 725 1241 C 662 1241 607 1228 559 1204 C 511 1180 470 1145 438 1099 C 405 1053 380 998 363 934 C 346 869 338 797 338 717 C 338 636 346 563 363 499 C 380 434 405 379 438 334 C 470 288 511 253 559 229 C 607 205 662 193 725 193 C 827 193 907 221 965 279 C 1022 337 1051 415 1051 514 L 1051 520 L 817 520 L 817 727 L 1270 727 L 1270 561 Z M 1052 1853 C 1048 1801 1036 1754 1018 1714 C 1000 1673 975 1639 944 1611 C 913 1583 876 1561 834 1547 C 791 1533 742 1526 688 1526 C 636 1526 589 1533 547 1547 C 505 1561 468 1583 437 1611 C 406 1639 381 1673 363 1714 C 344 1754 332 1801 328 1853 L 479 1853 C 487 1805 508 1767 543 1740 C 577 1713 627 1700 692 1700 C 752 1700 801 1713 838 1739 C 874 1765 897 1803 905 1853 L 1052 1853 Z" unicode="Ğ" />
<glyph horiz-adv-x="1167" d="M 1012 102 C 1012 28 1004 -37 989 -93 C 974 -149 950 -198 916 -240 C 874 -290 816 -328 744 -354 C 671 -380 579 -394 467 -397 L 406 -225 C 488 -222 559 -213 619 -198 C 679 -182 722 -161 746 -133 C 768 -109 782 -80 790 -44 C 797 -8 801 34 801 84 L 801 102 C 781 84 761 67 740 52 C 719 37 697 24 674 13 C 651 1 627 -7 602 -13 C 576 -19 550 -23 522 -23 C 464 -23 411 -12 361 9 C 311 31 267 65 230 112 C 192 158 163 218 141 291 C 119 364 109 452 109 555 C 109 647 120 727 144 795 C 167 863 198 920 237 965 C 276 1009 321 1043 372 1065 C 423 1087 476 1098 532 1098 C 559 1098 586 1094 612 1088 C 638 1081 662 1072 685 1061 C 708 1049 729 1036 749 1021 C 769 1006 786 991 801 975 L 801 1075 L 1012 1075 L 1012 102 Z M 561 172 C 606 172 649 184 690 209 C 731 233 769 267 805 309 L 805 762 C 793 778 778 794 760 811 C 742 827 723 842 701 856 C 679 870 655 881 630 890 C 605 898 579 903 553 903 C 476 903 418 874 378 817 C 338 760 319 675 319 561 C 319 435 338 338 378 272 C 418 205 479 172 561 172 Z M 925 1546 C 921 1494 909 1447 891 1407 C 873 1366 848 1332 817 1304 C 786 1276 749 1254 707 1240 C 664 1226 615 1219 561 1219 C 509 1219 462 1226 420 1240 C 378 1254 341 1276 310 1304 C 279 1332 254 1366 236 1407 C 217 1447 205 1494 201 1546 L 352 1546 C 360 1498 381 1460 416 1433 C 450 1406 500 1393 565 1393 C 625 1393 674 1406 711 1432 C 747 1458 770 1496 778 1546 L 925 1546 Z" unicode="ğ" />
<glyph horiz-adv-x="1389" d="M 1270 561 C 1270 469 1256 386 1229 314 C 1202 242 1165 181 1117 131 C 1069 81 1011 42 945 16 C 878 -9 805 -23 725 -23 C 632 -23 548 -4 474 31 C 399 67 335 118 283 184 C 230 249 189 327 161 418 C 133 508 119 608 119 717 C 119 825 133 925 161 1015 C 189 1105 230 1183 283 1249 C 335 1314 399 1365 474 1401 C 548 1437 632 1456 725 1456 C 841 1456 939 1433 1019 1387 C 1098 1341 1162 1274 1212 1188 L 1024 1071 C 1005 1100 986 1125 966 1147 C 946 1168 925 1186 902 1200 C 878 1214 852 1224 823 1231 C 794 1237 761 1241 725 1241 C 662 1241 607 1228 559 1204 C 511 1180 470 1145 438 1099 C 405 1053 380 998 363 934 C 346 869 338 797 338 717 C 338 636 346 563 363 499 C 380 434 405 379 438 334 C 470 288 511 253 559 229 C 607 205 662 193 725 193 C 827 193 907 221 965 279 C 1022 337 1051 415 1051 514 L 1051 520 L 817 520 L 817 727 L 1270 727 L 1270 561 Z M 858 1663 C 858 1644 854 1626 847 1610 C 839 1593 829 1578 817 1566 C 804 1554 789 1544 773 1537 C 757 1529 739 1526 721 1526 C 701 1526 683 1529 667 1537 C 650 1544 635 1554 623 1566 C 610 1578 600 1593 593 1610 C 585 1626 582 1644 582 1663 C 582 1681 585 1699 593 1716 C 600 1733 610 1748 623 1761 C 635 1773 650 1783 667 1791 C 683 1798 701 1802 721 1802 C 739 1802 757 1798 773 1791 C 789 1783 804 1773 817 1761 C 829 1748 839 1733 847 1716 C 854 1699 858 1681 858 1663 Z" unicode="Ġ" />
<glyph horiz-adv-x="1167" d="M 1012 102 C 1012 28 1004 -37 989 -93 C 974 -149 950 -198 916 -240 C 874 -290 816 -328 744 -354 C 671 -380 579 -394 467 -397 L 406 -225 C 488 -222 559 -213 619 -198 C 679 -182 722 -161 746 -133 C 768 -109 782 -80 790 -44 C 797 -8 801 34 801 84 L 801 102 C 781 84 761 67 740 52 C 719 37 697 24 674 13 C 651 1 627 -7 602 -13 C 576 -19 550 -23 522 -23 C 464 -23 411 -12 361 9 C 311 31 267 65 230 112 C 192 158 163 218 141 291 C 119 364 109 452 109 555 C 109 647 120 727 144 795 C 167 863 198 920 237 965 C 276 1009 321 1043 372 1065 C 423 1087 476 1098 532 1098 C 559 1098 586 1094 612 1088 C 638 1081 662 1072 685 1061 C 708 1049 729 1036 749 1021 C 769 1006 786 991 801 975 L 801 1075 L 1012 1075 L 1012 102 Z M 561 172 C 606 172 649 184 690 209 C 731 233 769 267 805 309 L 805 762 C 793 778 778 794 760 811 C 742 827 723 842 701 856 C 679 870 655 881 630 890 C 605 898 579 903 553 903 C 476 903 418 874 378 817 C 338 760 319 675 319 561 C 319 435 338 338 378 272 C 418 205 479 172 561 172 Z M 698 1356 C 698 1337 694 1319 687 1303 C 679 1286 669 1271 657 1259 C 644 1247 629 1237 613 1230 C 597 1222 579 1219 561 1219 C 541 1219 523 1222 507 1230 C 490 1237 475 1247 463 1259 C 450 1271 440 1286 433 1303 C 425 1319 422 1337 422 1356 C 422 1374 425 1392 433 1409 C 440 1426 450 1441 463 1454 C 475 1466 490 1476 507 1484 C 523 1491 541 1495 561 1495 C 579 1495 597 1491 613 1484 C 629 1476 644 1466 657 1454 C 669 1441 679 1426 687 1409 C 694 1392 698 1374 698 1356 Z" unicode="ġ" />
<glyph horiz-adv-x="1389" d="M 1270 561 C 1270 469 1256 386 1229 314 C 1202 242 1165 181 1117 131 C 1069 81 1011 42 945 16 C 878 -9 805 -23 725 -23 C 632 -23 548 -4 474 31 C 399 67 335 118 283 184 C 230 249 189 327 161 418 C 133 508 119 608 119 717 C 119 825 133 925 161 1015 C 189 1105 230 1183 283 1249 C 335 1314 399 1365 474 1401 C 548 1437 632 1456 725 1456 C 841 1456 939 1433 1019 1387 C 1098 1341 1162 1274 1212 1188 L 1024 1071 C 1005 1100 986 1125 966 1147 C 946 1168 925 1186 902 1200 C 878 1214 852 1224 823 1231 C 794 1237 761 1241 725 1241 C 662 1241 607 1228 559 1204 C 511 1180 470 1145 438 1099 C 405 1053 380 998 363 934 C 346 869 338 797 338 717 C 338 636 346 563 363 499 C 380 434 405 379 438 334 C 470 288 511 253 559 229 C 607 205 662 193 725 193 C 827 193 907 221 965 279 C 1022 337 1051 415 1051 514 L 1051 520 L 817 520 L 817 727 L 1270 727 L 1270 561 Z M 701 -490 L 582 -490 L 599 -97 L 816 -97 L 701 -490 Z" unicode="Ģ" />
<glyph horiz-adv-x="1167" d="M 1012 102 C 1012 28 1004 -37 989 -93 C 974 -149 950 -198 916 -240 C 874 -290 816 -328 744 -354 C 671 -380 579 -394 467 -397 L 406 -225 C 488 -222 559 -213 619 -198 C 679 -182 722 -161 746 -133 C 768 -109 782 -80 790 -44 C 797 -8 801 34 801 84 L 801 102 C 781 84 761 67 740 52 C 719 37 697 24 674 13 C 651 1 627 -7 602 -13 C 576 -19 550 -23 522 -23 C 464 -23 411 -12 361 9 C 311 31 267 65 230 112 C 192 158 163 218 141 291 C 119 364 109 452 109 555 C 109 647 120 727 144 795 C 167 863 198 920 237 965 C 276 1009 321 1043 372 1065 C 423 1087 476 1098 532 1098 C 559 1098 586 1094 612 1088 C 638 1081 662 1072 685 1061 C 708 1049 729 1036 749 1021 C 769 1006 786 991 801 975 L 801 1075 L 1012 1075 L 1012 102 Z M 561 172 C 606 172 649 184 690 209 C 731 233 769 267 805 309 L 805 762 C 793 778 778 794 760 811 C 742 827 723 842 701 856 C 679 870 655 881 630 890 C 605 898 579 903 553 903 C 476 903 418 874 378 817 C 338 760 319 675 319 561 C 319 435 338 338 378 272 C 418 205 479 172 561 172 Z M 594 1619 L 713 1619 L 696 1226 L 479 1226 L 594 1619 Z" unicode="ģ" />
<glyph horiz-adv-x="1462" d="M 1061 0 L 1061 639 L 401 639 L 401 0 L 186 0 L 186 1434 L 401 1434 L 401 854 L 1061 854 L 1061 1434 L 1276 1434 L 1276 0 L 1061 0 Z M 922 1526 L 727 1706 L 532 1526 L 367 1526 L 606 1853 L 852 1853 L 1091 1526 L 922 1526 Z" unicode="Ĥ" />
<glyph horiz-adv-x="1167" d="M 809 0 L 809 608 C 809 707 791 781 756 830 C 720 878 664 903 588 903 C 555 903 525 897 497 887 C 469 876 446 858 426 834 C 406 809 392 780 382 747 C 372 713 367 674 367 629 L 367 0 L 156 0 L 156 1382 L 367 1493 L 367 973 C 380 992 396 1009 416 1025 C 435 1041 456 1054 480 1065 C 503 1075 528 1083 555 1089 C 581 1095 609 1098 637 1098 C 701 1098 757 1087 805 1067 C 852 1046 892 1015 924 975 C 956 935 980 883 996 821 C 1012 759 1020 690 1020 616 L 1020 0 L 809 0 Z M 778 1512 L 583 1692 L 388 1512 L 223 1512 L 462 1839 L 708 1839 L 947 1512 L 778 1512 Z" unicode="ĥ" />
<glyph horiz-adv-x="1462" d="M 1061 0 L 1061 639 L 401 639 L 401 0 L 186 0 L 186 1044 L 84 1044 L 84 1260 L 186 1260 L 186 1434 L 401 1434 L 401 1260 L 1061 1260 L 1061 1434 L 1276 1434 L 1276 1260 L 1378 1260 L 1378 1044 L 1276 1044 L 1276 0 L 1061 0 Z M 1061 854 L 1061 1044 L 401 1044 L 401 854 L 1061 854 Z" unicode="Ħ" />
<glyph horiz-adv-x="1167" d="M 809 0 L 809 608 C 809 662 804 707 794 745 C 784 783 769 813 750 837 C 731 860 708 877 681 887 C 653 897 622 903 588 903 C 516 903 462 879 424 831 C 386 783 367 716 367 629 L 367 0 L 156 0 L 156 1153 L -27 1153 L -27 1294 L 156 1294 L 156 1382 L 367 1493 L 367 1294 L 547 1294 L 547 1153 L 367 1153 L 367 973 C 380 992 396 1009 416 1025 C 435 1041 456 1054 480 1065 C 503 1075 528 1083 555 1089 C 581 1095 609 1098 637 1098 C 763 1098 858 1057 923 977 C 987 896 1020 776 1020 616 L 1020 0 L 809 0 Z" unicode="ħ" />
<glyph horiz-adv-x="608" d="M 197 0 L 197 1434 L 412 1434 L 412 0 L 197 0 Z M 687 1798 C 687 1752 681 1712 670 1677 C 659 1642 644 1613 625 1590 C 606 1566 583 1549 557 1537 C 531 1525 502 1519 472 1519 C 452 1519 434 1520 416 1524 C 398 1527 380 1532 362 1540 C 343 1547 323 1556 302 1568 C 280 1579 256 1593 230 1610 C 216 1618 202 1624 188 1630 C 174 1635 161 1638 150 1638 C 127 1638 109 1629 97 1613 C 85 1597 76 1568 71 1526 L -75 1526 C -75 1571 -69 1611 -58 1646 C -47 1680 -32 1709 -13 1733 C 5 1756 28 1774 54 1786 C 80 1798 109 1804 140 1804 C 159 1804 177 1802 195 1799 C 213 1795 231 1790 250 1783 C 268 1776 288 1767 310 1756 C 331 1744 355 1730 382 1714 C 396 1706 410 1699 424 1693 C 438 1687 450 1685 462 1685 C 484 1685 502 1693 515 1710 C 527 1726 536 1756 542 1798 L 687 1798 Z" unicode="Ĩ" />
<glyph horiz-adv-x="543" d="M 164 0 L 164 1075 L 375 1075 L 375 0 L 164 0 Z M 654 1491 C 654 1445 648 1405 637 1370 C 626 1335 611 1306 592 1283 C 573 1259 550 1242 524 1230 C 498 1218 469 1212 439 1212 C 419 1212 401 1213 383 1217 C 365 1220 347 1225 329 1233 C 310 1240 290 1249 269 1261 C 247 1272 223 1286 197 1303 C 183 1311 169 1317 155 1323 C 141 1328 128 1331 117 1331 C 94 1331 76 1322 64 1306 C 52 1290 43 1261 38 1219 L -108 1219 C -108 1264 -102 1304 -91 1339 C -80 1373 -65 1402 -46 1426 C -27 1449 -4 1467 21 1479 C 47 1491 76 1497 107 1497 C 126 1497 144 1495 162 1492 C 180 1488 198 1483 217 1476 C 235 1469 255 1460 277 1449 C 298 1437 322 1423 349 1407 C 363 1399 377 1392 391 1386 C 405 1380 417 1378 429 1378 C 451 1378 469 1386 482 1403 C 494 1419 503 1449 509 1491 L 654 1491 Z" unicode="ĩ" />
<glyph horiz-adv-x="608" d="M 197 0 L 197 1434 L 412 1434 L 412 0 L 197 0 Z M 17 1556 L 17 1741 L 591 1741 L 591 1556 L 17 1556 Z" unicode="Ī" />
<glyph horiz-adv-x="543" d="M 164 0 L 164 1075 L 375 1075 L 375 0 L 164 0 Z M -16 1249 L -16 1434 L 558 1434 L 558 1249 L -16 1249 Z" unicode="ī" />
<glyph horiz-adv-x="608" d="M 197 0 L 197 1434 L 412 1434 L 412 0 L 197 0 Z M 668 1853 C 664 1801 652 1754 634 1714 C 616 1673 591 1639 560 1611 C 529 1583 492 1561 450 1547 C 407 1533 358 1526 304 1526 C 252 1526 205 1533 163 1547 C 121 1561 84 1583 53 1611 C 22 1639 -2 1673 -21 1714 C -39 1754 -51 1801 -56 1853 L 95 1853 C 103 1805 124 1767 159 1740 C 193 1713 243 1700 308 1700 C 368 1700 417 1713 454 1739 C 490 1765 513 1803 521 1853 L 668 1853 Z" unicode="Ĭ" />
<glyph horiz-adv-x="543" d="M 164 0 L 164 1075 L 375 1075 L 375 0 L 164 0 Z M 635 1546 C 631 1494 619 1447 601 1407 C 583 1366 558 1332 527 1304 C 496 1276 459 1254 417 1240 C 374 1226 325 1219 271 1219 C 219 1219 172 1226 130 1240 C 88 1254 51 1276 20 1304 C -10 1332 -35 1366 -54 1407 C -72 1447 -84 1494 -89 1546 L 62 1546 C 70 1498 91 1460 126 1433 C 160 1406 210 1393 275 1393 C 335 1393 384 1406 421 1432 C 457 1458 480 1496 488 1546 L 635 1546 Z" unicode="ĭ" />
<glyph horiz-adv-x="608" d="M 197 0 L 197 1434 L 412 1434 L 412 0 L 197 0 Z M 406 0 C 372 -17 342 -35 314 -54 C 286 -72 264 -90 247 -108 C 229 -126 217 -142 211 -158 C 204 -174 201 -187 201 -199 C 201 -217 206 -232 216 -244 C 226 -256 242 -262 264 -262 C 278 -262 291 -259 304 -254 C 317 -249 328 -242 338 -233 L 405 -338 C 377 -361 346 -379 314 -391 C 281 -403 246 -410 209 -410 C 175 -410 145 -405 120 -396 C 95 -386 74 -374 58 -359 C 42 -344 30 -327 22 -308 C 14 -288 10 -268 10 -248 C 10 -222 14 -197 24 -173 C 33 -149 46 -127 63 -106 C 79 -85 99 -66 122 -48 C 145 -30 171 -14 199 0 L 406 0 Z" unicode="Į" />
<glyph horiz-adv-x="543" d="M 408 1350 C 408 1331 404 1313 397 1297 C 389 1281 379 1266 367 1254 C 355 1242 340 1232 324 1225 C 308 1217 290 1214 272 1214 C 253 1214 235 1217 219 1225 C 202 1232 187 1242 175 1254 C 163 1266 153 1281 146 1297 C 138 1313 135 1331 135 1350 C 135 1368 138 1386 146 1403 C 153 1419 163 1434 175 1446 C 187 1458 202 1468 219 1476 C 235 1483 253 1487 272 1487 C 290 1487 308 1483 324 1476 C 340 1468 355 1458 367 1446 C 379 1434 389 1419 397 1403 C 404 1386 408 1368 408 1350 Z M 166 0 L 166 1075 L 377 1075 L 377 0 L 166 0 Z M 374 0 C 340 -17 310 -35 282 -54 C 254 -72 232 -90 215 -108 C 197 -126 185 -142 179 -158 C 172 -174 169 -187 169 -199 C 169 -217 174 -232 184 -244 C 194 -256 210 -262 232 -262 C 246 -262 259 -259 272 -254 C 285 -249 296 -242 306 -233 L 373 -338 C 345 -361 314 -379 282 -391 C 249 -403 214 -410 177 -410 C 143 -410 113 -405 88 -396 C 63 -386 42 -374 26 -359 C 10 -344 -2 -327 -10 -308 C -18 -288 -22 -268 -22 -248 C -22 -222 -17 -197 -8 -173 C 1 -149 14 -127 31 -106 C 47 -85 67 -66 90 -48 C 113 -30 139 -14 167 0 L 374 0 Z" unicode="į" />
<glyph horiz-adv-x="608" d="M 197 0 L 197 1434 L 412 1434 L 412 0 L 197 0 Z M 443 1663 C 443 1644 439 1626 432 1610 C 424 1593 414 1578 402 1566 C 389 1554 374 1544 358 1537 C 342 1529 324 1526 306 1526 C 286 1526 268 1529 252 1537 C 235 1544 220 1554 208 1566 C 195 1578 185 1593 178 1610 C 170 1626 167 1644 167 1663 C 167 1681 170 1699 178 1716 C 185 1733 195 1748 208 1761 C 220 1773 235 1783 252 1791 C 268 1798 286 1802 306 1802 C 324 1802 342 1798 358 1791 C 374 1783 389 1773 402 1761 C 414 1748 424 1733 432 1716 C 439 1699 443 1681 443 1663 Z" unicode="İ" />
<glyph horiz-adv-x="543" d="M 164 0 L 164 1075 L 375 1075 L 375 0 L 164 0 Z" unicode="ı" />
<glyph horiz-adv-x="1843" d="M 197 0 L 197 1434 L 412 1434 L 412 0 L 197 0 Z M 1667 565 C 1667 372 1625 226 1541 126 C 1457 26 1329 -23 1157 -23 C 1089 -23 1029 -14 975 3 C 921 20 874 45 833 78 C 792 110 757 150 728 197 C 698 244 675 298 657 358 L 866 420 C 879 384 894 353 911 327 C 927 300 947 277 969 257 C 991 237 1019 221 1051 210 C 1083 198 1120 193 1163 193 C 1215 193 1259 200 1295 215 C 1331 230 1361 253 1385 285 C 1408 316 1425 356 1436 406 C 1446 455 1452 514 1452 582 L 1452 1434 L 1667 1434 L 1667 565 Z" unicode="Ĳ" />
<glyph horiz-adv-x="1085" d="M 408 1350 C 408 1331 404 1313 397 1297 C 389 1281 379 1266 367 1254 C 355 1242 340 1232 324 1225 C 308 1217 290 1214 272 1214 C 253 1214 235 1217 219 1225 C 202 1232 187 1242 175 1254 C 163 1266 153 1281 146 1297 C 138 1313 135 1331 135 1350 C 135 1368 138 1386 146 1403 C 153 1419 163 1434 175 1446 C 187 1458 202 1468 219 1476 C 235 1483 253 1487 272 1487 C 290 1487 308 1483 324 1476 C 340 1468 355 1458 367 1446 C 379 1434 389 1419 397 1403 C 404 1386 408 1368 408 1350 Z M 166 0 L 166 1075 L 377 1075 L 377 0 L 166 0 Z M 951 1350 C 951 1331 947 1313 940 1297 C 932 1281 922 1266 910 1254 C 898 1242 883 1232 867 1225 C 851 1217 833 1214 815 1214 C 796 1214 778 1217 762 1225 C 745 1232 730 1242 718 1254 C 706 1266 696 1281 689 1297 C 681 1313 678 1331 678 1350 C 678 1368 681 1386 689 1403 C 696 1419 706 1434 718 1446 C 730 1458 745 1468 762 1476 C 778 1483 796 1487 815 1487 C 833 1487 851 1483 867 1476 C 883 1468 898 1458 910 1446 C 922 1434 932 1419 940 1403 C 947 1386 951 1368 951 1350 Z M 920 49 C 920 -18 914 -76 904 -125 C 894 -174 875 -216 848 -251 C 821 -286 784 -315 737 -338 C 689 -360 629 -379 555 -395 L 484 -236 C 532 -222 571 -208 601 -194 C 631 -180 654 -163 670 -143 C 686 -123 696 -98 701 -68 C 706 -38 709 -1 709 45 L 709 1075 L 920 1075 L 920 49 Z" unicode="ĳ" />
<glyph horiz-adv-x="1235" d="M 1059 565 C 1059 372 1017 226 933 126 C 849 26 721 -23 549 -23 C 481 -23 421 -14 367 3 C 313 20 266 45 225 78 C 184 110 149 150 120 197 C 90 244 67 298 49 358 L 258 420 C 271 384 286 353 303 327 C 319 300 339 277 361 257 C 383 237 411 221 443 210 C 475 198 512 193 555 193 C 607 193 651 200 687 215 C 723 230 753 253 777 285 C 800 316 817 356 828 406 C 838 455 844 514 844 582 L 844 1434 L 1059 1434 L 1059 565 Z M 1143 1512 L 948 1692 L 753 1512 L 588 1512 L 827 1839 L 1073 1839 L 1312 1512 L 1143 1512 Z" unicode="Ĵ" />
<glyph horiz-adv-x="543" d="M 377 49 C 377 -18 371 -76 361 -125 C 351 -174 332 -216 305 -251 C 278 -286 241 -315 194 -338 C 146 -360 86 -379 12 -395 L -59 -236 C -10 -222 28 -208 58 -194 C 88 -180 111 -163 127 -143 C 143 -123 153 -98 158 -68 C 163 -38 166 -1 166 45 L 166 1075 L 377 1075 L 377 49 Z M 467 1219 L 272 1399 L 78 1219 L -88 1219 L 152 1546 L 397 1546 L 637 1219 L 467 1219 Z" unicode="ĵ" />
<glyph horiz-adv-x="1403" d="M 1317 0 L 1073 0 L 662 735 L 395 414 L 395 0 L 186 0 L 186 1434 L 395 1434 L 395 702 L 981 1434 L 1225 1434 L 805 913 L 1317 0 Z M 705 -490 L 586 -490 L 603 -97 L 820 -97 L 705 -490 Z" unicode="Ķ" />
<glyph horiz-adv-x="1083" d="M 768 0 L 530 535 L 367 317 L 367 0 L 156 0 L 156 1382 L 367 1493 L 367 599 L 707 1075 L 946 1075 L 674 715 L 997 0 L 768 0 Z M 552 -490 L 433 -490 L 450 -97 L 667 -97 L 552 -490 Z" unicode="ķ" />
<glyph horiz-adv-x="1083" d="M 768 0 L 530 535 L 367 317 L 367 0 L 156 0 L 156 1075 L 367 1075 L 367 599 L 707 1075 L 946 1075 L 674 715 L 997 0 L 768 0 Z" unicode="ĸ" />
<glyph horiz-adv-x="1219" d="M 186 0 L 186 1434 L 401 1434 L 401 211 L 1116 211 L 1116 0 L 186 0 Z M 367 1526 L 199 1526 L 418 1853 L 705 1853 L 367 1526 Z" unicode="Ĺ" />
<glyph horiz-adv-x="543" d="M 166 0 L 166 1382 L 377 1493 L 377 0 L 166 0 Z M 343 1567 L 175 1567 L 394 1894 L 681 1894 L 343 1567 Z" unicode="ĺ" />
<glyph horiz-adv-x="1219" d="M 186 0 L 186 1434 L 401 1434 L 401 211 L 1116 211 L 1116 0 L 186 0 Z M 613 -490 L 494 -490 L 511 -97 L 728 -97 L 613 -490 Z" unicode="Ļ" />
<glyph horiz-adv-x="543" d="M 166 0 L 166 1382 L 377 1493 L 377 0 L 166 0 Z M 266 -490 L 147 -490 L 164 -97 L 381 -97 L 266 -490 Z" unicode="ļ" />
<glyph horiz-adv-x="1219" d="M 186 0 L 186 1434 L 401 1434 L 401 211 L 1116 211 L 1116 0 L 186 0 Z M 745 1125 L 604 1125 L 633 1639 L 901 1639 L 745 1125 Z" unicode="Ľ" />
<glyph horiz-adv-x="662" d="M 166 0 L 166 1382 L 377 1493 L 377 0 L 166 0 Z M 626 920 L 485 920 L 514 1434 L 782 1434 L 626 920 Z" unicode="ľ" />
<glyph horiz-adv-x="1219" d="M 186 0 L 186 1434 L 401 1434 L 401 211 L 1116 211 L 1116 0 L 186 0 Z M 965 752 C 965 730 960 709 952 689 C 943 669 931 652 917 638 C 902 623 885 611 865 603 C 845 594 825 590 803 590 C 781 590 760 594 740 603 C 720 611 703 623 689 638 C 674 652 662 669 654 689 C 645 709 641 730 641 752 C 641 774 645 794 654 814 C 662 834 674 851 689 866 C 703 881 720 893 740 902 C 760 910 781 915 803 915 C 825 915 845 910 865 902 C 885 893 902 881 917 866 C 931 851 943 834 952 814 C 960 794 965 774 965 752 Z" unicode="Ŀ" />
<glyph horiz-adv-x="981" d="M 166 0 L 166 1382 L 377 1493 L 377 0 L 166 0 Z M 883 752 C 883 730 878 709 870 689 C 861 669 849 652 835 638 C 820 623 803 611 783 603 C 763 594 743 590 721 590 C 699 590 678 594 658 603 C 638 611 621 623 607 638 C 592 652 580 669 572 689 C 563 709 559 730 559 752 C 559 774 563 794 572 814 C 580 834 592 851 607 866 C 621 881 638 893 658 902 C 678 910 699 915 721 915 C 743 915 763 910 783 902 C 803 893 820 881 835 866 C 849 851 861 834 870 814 C 878 794 883 774 883 752 Z" unicode="ŀ" />
<glyph horiz-adv-x="1249" d="M 217 0 L 217 479 L 82 373 L 82 608 L 217 715 L 217 1434 L 428 1434 L 428 862 L 715 1098 L 715 862 L 428 627 L 428 211 L 1147 211 L 1147 0 L 217 0 Z" unicode="Ł" />
<glyph horiz-adv-x="584" d="M 395 639 L 395 0 L 188 0 L 188 487 L 82 408 L 82 643 L 188 725 L 188 1384 L 395 1493 L 395 877 L 502 967 L 502 731 L 395 639 Z" unicode="ł" />
<glyph horiz-adv-x="1462" d="M 1276 0 L 1071 0 L 395 1062 L 395 0 L 186 0 L 186 1434 L 406 1434 L 1067 372 L 1067 1434 L 1276 1434 L 1276 0 Z M 782 1526 L 614 1526 L 833 1853 L 1120 1853 L 782 1526 Z" unicode="Ń" />
<glyph horiz-adv-x="1167" d="M 809 0 L 809 608 C 809 705 791 778 757 828 C 722 878 666 903 588 903 C 554 903 522 897 494 885 C 465 873 441 854 422 829 C 402 803 388 773 380 739 C 371 705 367 668 367 629 L 367 0 L 156 0 L 156 1075 L 367 1075 L 367 973 C 380 992 396 1009 416 1025 C 435 1041 456 1054 480 1065 C 503 1075 528 1083 555 1089 C 581 1095 609 1098 637 1098 C 701 1098 757 1087 805 1066 C 853 1045 892 1015 924 976 C 956 936 980 887 996 827 C 1012 767 1020 696 1020 616 L 1020 0 L 809 0 Z M 618 1219 L 450 1219 L 669 1546 L 956 1546 L 618 1219 Z" unicode="ń" />
<glyph horiz-adv-x="1462" d="M 1276 0 L 1071 0 L 395 1062 L 395 0 L 186 0 L 186 1434 L 406 1434 L 1067 372 L 1067 1434 L 1276 1434 L 1276 0 Z M 733 -490 L 614 -490 L 631 -97 L 848 -97 L 733 -490 Z" unicode="Ņ" />
<glyph horiz-adv-x="1167" d="M 809 0 L 809 608 C 809 705 791 778 757 828 C 722 878 666 903 588 903 C 554 903 522 897 494 885 C 465 873 441 854 422 829 C 402 803 388 773 380 739 C 371 705 367 668 367 629 L 367 0 L 156 0 L 156 1075 L 367 1075 L 367 973 C 380 992 396 1009 416 1025 C 435 1041 456 1054 480 1065 C 503 1075 528 1083 555 1089 C 581 1095 609 1098 637 1098 C 701 1098 757 1087 805 1066 C 853 1045 892 1015 924 976 C 956 936 980 887 996 827 C 1012 767 1020 696 1020 616 L 1020 0 L 809 0 Z M 588 -490 L 469 -490 L 486 -97 L 703 -97 L 588 -490 Z" unicode="ņ" />
<glyph horiz-adv-x="1462" d="M 1276 0 L 1071 0 L 395 1062 L 395 0 L 186 0 L 186 1434 L 406 1434 L 1067 372 L 1067 1434 L 1276 1434 L 1276 0 Z M 854 1526 L 608 1526 L 369 1853 L 538 1853 L 733 1673 L 928 1853 L 1093 1853 L 854 1526 Z" unicode="Ň" />
<glyph horiz-adv-x="1167" d="M 809 0 L 809 608 C 809 705 791 778 757 828 C 722 878 666 903 588 903 C 554 903 522 897 494 885 C 465 873 441 854 422 829 C 402 803 388 773 380 739 C 371 705 367 668 367 629 L 367 0 L 156 0 L 156 1075 L 367 1075 L 367 973 C 380 992 396 1009 416 1025 C 435 1041 456 1054 480 1065 C 503 1075 528 1083 555 1089 C 581 1095 609 1098 637 1098 C 701 1098 757 1087 805 1066 C 853 1045 892 1015 924 976 C 956 936 980 887 996 827 C 1012 767 1020 696 1020 616 L 1020 0 L 809 0 Z M 707 1219 L 461 1219 L 222 1546 L 391 1546 L 586 1366 L 781 1546 L 946 1546 L 707 1219 Z" unicode="ň" />
<glyph horiz-adv-x="1628" d="M 1270 0 L 1270 608 C 1270 705 1252 778 1218 828 C 1183 878 1127 903 1049 903 C 1015 903 983 897 955 885 C 926 873 902 854 883 829 C 863 803 849 773 841 739 C 832 705 828 668 828 629 L 828 0 L 617 0 L 617 1075 L 828 1075 L 828 973 C 841 992 857 1009 877 1025 C 896 1041 917 1054 941 1065 C 964 1075 989 1083 1016 1089 C 1042 1095 1070 1098 1098 1098 C 1162 1098 1218 1087 1266 1066 C 1314 1045 1353 1015 1385 976 C 1417 936 1441 887 1457 827 C 1473 767 1481 696 1481 616 L 1481 0 L 1270 0 Z M 274 920 L 133 920 L 162 1434 L 430 1434 L 274 920 Z" unicode="ŉ" />
<glyph horiz-adv-x="1462" d="M 1276 49 C 1276 -18 1270 -76 1260 -125 C 1250 -174 1231 -216 1204 -251 C 1177 -286 1140 -315 1093 -338 C 1045 -360 985 -379 911 -395 L 840 -236 C 885 -223 922 -210 951 -197 C 979 -184 1002 -169 1019 -151 C 1035 -133 1047 -111 1053 -85 C 1059 -59 1063 -28 1065 10 L 395 1072 L 395 0 L 186 0 L 186 1434 L 406 1434 L 1067 359 L 1067 1434 L 1276 1434 L 1276 49 Z" unicode="Ŋ" />
<glyph horiz-adv-x="1167" d="M 367 0 L 156 0 L 156 1075 L 367 1075 L 367 973 C 396 1013 434 1044 482 1066 C 530 1087 581 1098 637 1098 C 703 1098 760 1087 807 1066 C 853 1044 893 1012 927 970 C 960 927 984 875 998 814 C 1012 752 1020 686 1020 616 L 1020 0 C 1016 -59 1009 -110 997 -153 C 985 -196 965 -233 938 -264 C 910 -295 874 -321 828 -342 C 782 -363 725 -381 655 -395 L 584 -236 C 632 -222 671 -208 701 -194 C 731 -180 754 -163 770 -143 C 786 -123 796 -98 801 -68 C 806 -38 809 -1 809 45 L 809 608 C 809 662 804 707 794 745 C 784 783 769 813 750 837 C 731 860 708 877 681 887 C 653 897 622 903 588 903 C 557 903 528 897 500 887 C 472 876 447 858 427 834 C 407 809 392 780 382 747 C 372 714 367 675 367 629 L 367 0 Z" unicode="ŋ" />
<glyph horiz-adv-x="1456" d="M 1339 719 C 1339 607 1324 505 1294 414 C 1264 323 1223 245 1169 180 C 1115 115 1050 65 975 30 C 899 -5 816 -23 725 -23 C 634 -23 551 -5 477 29 C 402 64 338 114 285 178 C 231 242 190 320 161 411 C 131 501 117 603 117 715 C 117 826 131 927 161 1019 C 191 1110 233 1188 287 1253 C 341 1317 405 1367 480 1403 C 555 1438 638 1456 729 1456 C 820 1456 903 1438 978 1403 C 1053 1368 1117 1318 1171 1254 C 1224 1190 1265 1112 1295 1022 C 1324 931 1339 830 1339 719 Z M 1120 715 C 1120 796 1110 869 1090 934 C 1070 999 1042 1054 1007 1100 C 971 1146 929 1181 881 1206 C 833 1230 780 1243 723 1243 C 666 1243 614 1231 567 1207 C 519 1183 478 1148 444 1103 C 410 1057 383 1002 364 938 C 345 873 336 800 336 719 C 336 637 345 564 365 499 C 385 433 412 378 447 332 C 482 286 524 251 572 227 C 620 202 673 190 731 190 C 787 190 839 202 887 226 C 935 250 976 284 1010 330 C 1044 375 1071 430 1091 495 C 1110 560 1120 633 1120 715 Z M 440 1556 L 440 1741 L 1014 1741 L 1014 1556 L 440 1556 Z" unicode="Ō" />
<glyph horiz-adv-x="1167" d="M 1063 543 C 1063 453 1050 374 1026 304 C 1001 234 967 174 924 126 C 880 77 829 40 770 15 C 710 -10 646 -23 578 -23 C 510 -23 447 -9 389 17 C 331 43 281 81 239 130 C 197 179 164 238 140 307 C 116 376 104 453 104 537 C 104 625 116 703 141 773 C 165 842 199 901 242 949 C 285 997 336 1034 394 1060 C 452 1085 516 1098 584 1098 C 652 1098 716 1084 774 1058 C 832 1032 883 994 926 946 C 968 898 1002 839 1026 771 C 1050 703 1063 627 1063 543 Z M 850 537 C 850 591 843 641 831 685 C 818 729 800 767 776 799 C 752 830 724 854 690 871 C 656 888 617 897 575 897 C 535 897 499 888 467 871 C 435 854 408 830 386 799 C 364 768 347 731 335 688 C 323 644 317 596 317 543 C 317 483 323 431 336 386 C 349 340 367 302 391 272 C 415 241 443 218 476 202 C 509 186 546 178 586 178 C 626 178 662 187 694 206 C 726 225 754 251 777 283 C 800 315 818 353 831 397 C 843 441 850 487 850 537 Z M 297 1249 L 297 1434 L 871 1434 L 871 1249 L 297 1249 Z" unicode="ō" />
<glyph horiz-adv-x="1456" d="M 1339 719 C 1339 607 1324 505 1294 414 C 1264 323 1223 245 1169 180 C 1115 115 1050 65 975 30 C 899 -5 816 -23 725 -23 C 634 -23 551 -5 477 29 C 402 64 338 114 285 178 C 231 242 190 320 161 411 C 131 501 117 603 117 715 C 117 826 131 927 161 1019 C 191 1110 233 1188 287 1253 C 341 1317 405 1367 480 1403 C 555 1438 638 1456 729 1456 C 820 1456 903 1438 978 1403 C 1053 1368 1117 1318 1171 1254 C 1224 1190 1265 1112 1295 1022 C 1324 931 1339 830 1339 719 Z M 1120 715 C 1120 796 1110 869 1090 934 C 1070 999 1042 1054 1007 1100 C 971 1146 929 1181 881 1206 C 833 1230 780 1243 723 1243 C 666 1243 614 1231 567 1207 C 519 1183 478 1148 444 1103 C 410 1057 383 1002 364 938 C 345 873 336 800 336 719 C 336 637 345 564 365 499 C 385 433 412 378 447 332 C 482 286 524 251 572 227 C 620 202 673 190 731 190 C 787 190 839 202 887 226 C 935 250 976 284 1010 330 C 1044 375 1071 430 1091 495 C 1110 560 1120 633 1120 715 Z M 1089 1853 C 1085 1801 1073 1754 1055 1714 C 1037 1673 1012 1639 981 1611 C 950 1583 913 1561 871 1547 C 828 1533 779 1526 725 1526 C 673 1526 626 1533 584 1547 C 542 1561 505 1583 474 1611 C 443 1639 418 1673 400 1714 C 381 1754 369 1801 365 1853 L 516 1853 C 524 1805 545 1767 580 1740 C 614 1713 664 1700 729 1700 C 789 1700 838 1713 875 1739 C 911 1765 934 1803 942 1853 L 1089 1853 Z" unicode="Ŏ" />
<glyph horiz-adv-x="1167" d="M 1063 543 C 1063 453 1050 374 1026 304 C 1001 234 967 174 924 126 C 880 77 829 40 770 15 C 710 -10 646 -23 578 -23 C 510 -23 447 -9 389 17 C 331 43 281 81 239 130 C 197 179 164 238 140 307 C 116 376 104 453 104 537 C 104 625 116 703 141 773 C 165 842 199 901 242 949 C 285 997 336 1034 394 1060 C 452 1085 516 1098 584 1098 C 652 1098 716 1084 774 1058 C 832 1032 883 994 926 946 C 968 898 1002 839 1026 771 C 1050 703 1063 627 1063 543 Z M 850 537 C 850 591 843 641 831 685 C 818 729 800 767 776 799 C 752 830 724 854 690 871 C 656 888 617 897 575 897 C 535 897 499 888 467 871 C 435 854 408 830 386 799 C 364 768 347 731 335 688 C 323 644 317 596 317 543 C 317 483 323 431 336 386 C 349 340 367 302 391 272 C 415 241 443 218 476 202 C 509 186 546 178 586 178 C 626 178 662 187 694 206 C 726 225 754 251 777 283 C 800 315 818 353 831 397 C 843 441 850 487 850 537 Z M 946 1546 C 942 1494 930 1447 912 1407 C 894 1366 869 1332 838 1304 C 807 1276 770 1254 728 1240 C 685 1226 636 1219 582 1219 C 530 1219 483 1226 441 1240 C 399 1254 362 1276 331 1304 C 300 1332 275 1366 257 1407 C 238 1447 226 1494 222 1546 L 373 1546 C 381 1498 402 1460 437 1433 C 471 1406 521 1393 586 1393 C 646 1393 695 1406 732 1432 C 768 1458 791 1496 799 1546 L 946 1546 Z" unicode="ŏ" />
<glyph horiz-adv-x="1456" d="M 1339 719 C 1339 607 1324 505 1294 414 C 1264 323 1223 245 1169 180 C 1115 115 1050 65 975 30 C 899 -5 816 -23 725 -23 C 634 -23 551 -5 477 29 C 402 64 338 114 285 178 C 231 242 190 320 161 411 C 131 501 117 603 117 715 C 117 826 131 927 161 1019 C 191 1110 233 1188 287 1253 C 341 1317 405 1367 480 1403 C 555 1438 638 1456 729 1456 C 820 1456 903 1438 978 1403 C 1053 1368 1117 1318 1171 1254 C 1224 1190 1265 1112 1295 1022 C 1324 931 1339 830 1339 719 Z M 1120 715 C 1120 796 1110 869 1090 934 C 1070 999 1042 1054 1007 1100 C 971 1146 929 1181 881 1206 C 833 1230 780 1243 723 1243 C 666 1243 614 1231 567 1207 C 519 1183 478 1148 444 1103 C 410 1057 383 1002 364 938 C 345 873 336 800 336 719 C 336 637 345 564 365 499 C 385 433 412 378 447 332 C 482 286 524 251 572 227 C 620 202 673 190 731 190 C 787 190 839 202 887 226 C 935 250 976 284 1010 330 C 1044 375 1071 430 1091 495 C 1110 560 1120 633 1120 715 Z M 987 1526 L 819 1526 L 1038 1853 L 1325 1853 L 987 1526 Z M 567 1526 L 399 1526 L 619 1853 L 905 1853 L 567 1526 Z" unicode="Ő" />
<glyph horiz-adv-x="1167" d="M 1063 543 C 1063 453 1050 374 1026 304 C 1001 234 967 174 924 126 C 880 77 829 40 770 15 C 710 -10 646 -23 578 -23 C 510 -23 447 -9 389 17 C 331 43 281 81 239 130 C 197 179 164 238 140 307 C 116 376 104 453 104 537 C 104 625 116 703 141 773 C 165 842 199 901 242 949 C 285 997 336 1034 394 1060 C 452 1085 516 1098 584 1098 C 652 1098 716 1084 774 1058 C 832 1032 883 994 926 946 C 968 898 1002 839 1026 771 C 1050 703 1063 627 1063 543 Z M 850 537 C 850 591 843 641 831 685 C 818 729 800 767 776 799 C 752 830 724 854 690 871 C 656 888 617 897 575 897 C 535 897 499 888 467 871 C 435 854 408 830 386 799 C 364 768 347 731 335 688 C 323 644 317 596 317 543 C 317 483 323 431 336 386 C 349 340 367 302 391 272 C 415 241 443 218 476 202 C 509 186 546 178 586 178 C 626 178 662 187 694 206 C 726 225 754 251 777 283 C 800 315 818 353 831 397 C 843 441 850 487 850 537 Z M 858 1219 L 690 1219 L 909 1546 L 1196 1546 L 858 1219 Z M 438 1219 L 270 1219 L 490 1546 L 776 1546 L 438 1219 Z" unicode="ő" />
<glyph horiz-adv-x="2169" d="M 1311 662 L 1311 209 L 2050 209 L 2050 0 L 1120 0 L 1120 170 C 1098 138 1072 109 1042 85 C 1012 61 979 41 945 25 C 911 9 875 -3 837 -11 C 799 -19 762 -23 725 -23 C 632 -23 548 -4 474 31 C 399 67 335 118 283 184 C 230 249 189 327 161 418 C 133 508 119 608 119 717 C 119 825 133 925 161 1015 C 189 1105 230 1183 283 1249 C 335 1314 399 1365 474 1401 C 548 1437 632 1456 725 1456 C 765 1456 805 1451 845 1442 C 885 1433 922 1420 956 1403 C 990 1386 1022 1366 1050 1342 C 1078 1318 1102 1292 1120 1264 L 1120 1434 L 2019 1434 L 2019 1225 L 1311 1225 L 1311 870 L 1884 870 L 1884 662 L 1311 662 Z M 1114 717 C 1114 797 1105 869 1088 934 C 1071 998 1046 1053 1014 1099 C 981 1145 940 1180 892 1204 C 843 1228 787 1241 725 1241 C 662 1241 607 1228 559 1204 C 511 1180 470 1145 438 1099 C 405 1053 380 998 363 934 C 346 869 338 797 338 717 C 338 636 346 563 363 499 C 380 434 405 379 438 334 C 470 288 511 253 559 229 C 607 205 662 193 725 193 C 787 193 843 205 892 229 C 940 253 981 288 1014 334 C 1046 379 1071 434 1088 499 C 1105 563 1114 636 1114 717 Z" unicode="Œ" />
<glyph horiz-adv-x="1876" d="M 1761 553 C 1761 533 1760 516 1759 501 C 1757 485 1756 472 1755 461 L 1049 461 C 1054 410 1065 366 1081 330 C 1097 294 1118 264 1142 241 C 1166 218 1192 201 1222 190 C 1252 179 1283 174 1315 174 C 1361 174 1402 181 1439 196 C 1476 210 1512 232 1546 260 L 1675 117 C 1627 71 1574 36 1515 12 C 1456 -11 1385 -23 1303 -23 C 1267 -23 1232 -18 1198 -9 C 1164 0 1131 13 1100 31 C 1068 49 1040 70 1014 96 C 988 121 966 150 948 182 C 928 150 904 121 877 96 C 850 70 821 49 789 31 C 757 13 724 0 688 -9 C 652 -18 616 -23 578 -23 C 510 -23 447 -9 389 17 C 331 43 281 81 239 130 C 197 179 164 238 140 307 C 116 376 104 453 104 537 C 104 625 116 703 141 773 C 165 842 199 901 242 949 C 285 997 336 1034 394 1060 C 452 1085 516 1098 584 1098 C 621 1098 657 1093 693 1083 C 729 1073 762 1060 794 1042 C 825 1024 854 1003 880 978 C 906 953 928 925 946 895 C 985 959 1036 1009 1099 1045 C 1162 1080 1232 1098 1309 1098 C 1385 1098 1451 1083 1508 1054 C 1564 1024 1611 985 1649 935 C 1687 885 1715 827 1733 761 C 1751 695 1761 625 1761 553 Z M 1542 641 C 1540 677 1533 710 1523 742 C 1512 774 1497 801 1477 825 C 1457 849 1431 868 1401 882 C 1371 896 1335 903 1294 903 C 1224 903 1168 880 1128 836 C 1088 791 1062 726 1051 641 L 1542 641 Z M 850 537 C 850 591 843 641 831 685 C 818 729 800 767 776 799 C 752 830 724 854 690 871 C 656 888 617 897 575 897 C 535 897 499 888 467 871 C 435 854 408 830 386 799 C 364 768 347 731 335 688 C 323 644 317 596 317 543 C 317 483 323 431 336 386 C 349 340 367 302 391 272 C 415 241 443 218 476 202 C 509 186 546 178 586 178 C 626 178 662 187 694 206 C 726 225 754 251 777 283 C 800 315 818 353 831 397 C 843 441 850 487 850 537 Z" unicode="œ" />
<glyph horiz-adv-x="1421" d="M 1006 0 L 721 567 L 397 567 L 397 0 L 186 0 L 186 1434 L 815 1434 C 877 1434 936 1425 992 1408 C 1048 1391 1097 1365 1139 1330 C 1181 1295 1214 1251 1239 1197 C 1263 1143 1276 1079 1276 1006 C 1276 948 1268 896 1254 850 C 1239 804 1218 763 1191 728 C 1163 693 1130 664 1092 640 C 1053 616 1009 598 961 586 L 1253 0 L 1006 0 Z M 1059 999 C 1059 1036 1053 1069 1041 1098 C 1029 1127 1013 1151 992 1171 C 970 1191 945 1206 915 1216 C 885 1226 851 1231 815 1231 L 397 1231 L 397 770 L 815 770 C 851 770 883 774 913 784 C 943 793 968 807 990 826 C 1012 845 1029 869 1041 898 C 1053 926 1059 960 1059 999 Z M 680 1526 L 512 1526 L 731 1853 L 1018 1853 L 680 1526 Z" unicode="Ŕ" />
<glyph horiz-adv-x="856" d="M 739 852 C 716 864 692 874 667 881 C 642 887 612 891 578 891 C 510 891 458 867 422 821 C 385 775 367 706 367 614 L 367 0 L 156 0 L 156 1075 L 367 1075 L 367 973 C 379 991 393 1007 411 1022 C 428 1037 447 1050 468 1062 C 489 1073 512 1082 536 1088 C 560 1094 585 1098 612 1098 C 655 1098 691 1094 720 1086 C 748 1078 773 1067 795 1053 L 739 852 Z M 536 1219 L 368 1219 L 587 1546 L 874 1546 L 536 1219 Z" unicode="ŕ" />
<glyph horiz-adv-x="1421" d="M 1006 0 L 721 567 L 397 567 L 397 0 L 186 0 L 186 1434 L 815 1434 C 877 1434 936 1425 992 1408 C 1048 1391 1097 1365 1139 1330 C 1181 1295 1214 1251 1239 1197 C 1263 1143 1276 1079 1276 1006 C 1276 948 1268 896 1254 850 C 1239 804 1218 763 1191 728 C 1163 693 1130 664 1092 640 C 1053 616 1009 598 961 586 L 1253 0 L 1006 0 Z M 1059 999 C 1059 1036 1053 1069 1041 1098 C 1029 1127 1013 1151 992 1171 C 970 1191 945 1206 915 1216 C 885 1226 851 1231 815 1231 L 397 1231 L 397 770 L 815 770 C 851 770 883 774 913 784 C 943 793 968 807 990 826 C 1012 845 1029 869 1041 898 C 1053 926 1059 960 1059 999 Z M 692 -490 L 573 -490 L 590 -97 L 807 -97 L 692 -490 Z" unicode="Ŗ" />
<glyph horiz-adv-x="856" d="M 739 852 C 716 864 692 874 667 881 C 642 887 612 891 578 891 C 510 891 458 867 422 821 C 385 775 367 706 367 614 L 367 0 L 156 0 L 156 1075 L 367 1075 L 367 973 C 379 991 393 1007 411 1022 C 428 1037 447 1050 468 1062 C 489 1073 512 1082 536 1088 C 560 1094 585 1098 612 1098 C 655 1098 691 1094 720 1086 C 748 1078 773 1067 795 1053 L 739 852 Z M 254 -490 L 135 -490 L 152 -97 L 369 -97 L 254 -490 Z" unicode="ŗ" />
<glyph horiz-adv-x="1421" d="M 1006 0 L 721 567 L 397 567 L 397 0 L 186 0 L 186 1434 L 815 1434 C 877 1434 936 1425 992 1408 C 1048 1391 1097 1365 1139 1330 C 1181 1295 1214 1251 1239 1197 C 1263 1143 1276 1079 1276 1006 C 1276 948 1268 896 1254 850 C 1239 804 1218 763 1191 728 C 1163 693 1130 664 1092 640 C 1053 616 1009 598 961 586 L 1253 0 L 1006 0 Z M 1059 999 C 1059 1036 1053 1069 1041 1098 C 1029 1127 1013 1151 992 1171 C 970 1191 945 1206 915 1216 C 885 1226 851 1231 815 1231 L 397 1231 L 397 770 L 815 770 C 851 770 883 774 913 784 C 943 793 968 807 990 826 C 1012 845 1029 869 1041 898 C 1053 926 1059 960 1059 999 Z M 834 1526 L 588 1526 L 349 1853 L 518 1853 L 713 1673 L 908 1853 L 1073 1853 L 834 1526 Z" unicode="Ř" />
<glyph horiz-adv-x="856" d="M 739 852 C 716 864 692 874 667 881 C 642 887 612 891 578 891 C 510 891 458 867 422 821 C 385 775 367 706 367 614 L 367 0 L 156 0 L 156 1075 L 367 1075 L 367 973 C 379 991 393 1007 411 1022 C 428 1037 447 1050 468 1062 C 489 1073 512 1082 536 1088 C 560 1094 585 1098 612 1098 C 655 1098 691 1094 720 1086 C 748 1078 773 1067 795 1053 L 739 852 Z M 552 1219 L 306 1219 L 67 1546 L 236 1546 L 431 1366 L 626 1546 L 791 1546 L 552 1219 Z" unicode="ř" />
</font>
</defs>
</svg>
