<?xml version="1.0" standalone="no"?> <!DOCTYPE svg PUBLIC "-//W3C//DTD SVG 1.0//EN" "http://www.w3.org/TR/2001/REC-SVG-20010904/DTD/svg10.dtd" > <svg xmlns="http://www.w3.org/2000/svg" width="100%" height="100%">
<defs >
<font horiz-adv-x="552" ><font-face
    font-family=""
    units-per-em="1000"
    panose-1="2 0 8 3 8 0 0 2 0 4"
    ascent="760"
    descent="-240"
    alphabetic="0" />
<missing-glyph horiz-adv-x="171" />
<glyph unicode=" " glyph-name="space" horiz-adv-x="171" />
<glyph unicode="!" glyph-name="exclam" horiz-adv-x="297" d="M245 709L164 202H134L53 709H245ZM148 -14Q114 -14 89 10T64 69Q64 103 89 127T148 152Q183 152 207 128T231 69Q231 35 207 11T148 -14Z" />
<glyph unicode="&quot;" glyph-name="quotedbl" horiz-adv-x="462" d="M61 719H199L139 449H117L61 719ZM263 719H401L341 449H319L263 719Z" />
<glyph unicode="#" glyph-name="numbersign" horiz-adv-x="579" d="M73 437H195L223 594H264L236 437H393L421 594H462L434 437H552V394H426L393 206H508V162H385L357 0H316L344 162H187L159 0H118L146 162H29V206H154L187 394H73V437ZM195 206H352L385 394H228L195 206Z" />
<glyph unicode="$" glyph-name="dollar" horiz-adv-x="595" d="M59 228H89L162 66Q176 55 196 46T243 32L270 242L231 253Q148 277 110 327T72 443Q72 481 88 517T135 583T214 630T323 650L337 752H374L360 649Q400 645 440 635T510 611V432H480L425 573Q415 581
398 591T355 606L328 398L398 377Q478 353 511 311T545 215Q545 159 521 117T459 45T371 0T273 -16L259 -128H222L237 -15Q189 -12 149 -1T74 26L59 228ZM279 31Q301 32 322 39T359 60T386 91T396 133Q396 204 306 231L279 31ZM211 510Q211 474 229 451T292 410L318
608Q271 605 241 578T211 510Z" />
<glyph unicode="%" glyph-name="percent" horiz-adv-x="878" d="M639 629H685L224 -50H181L639 629ZM208 575Q184 575 172 549T160 480Q160 450 166 418T183 358T209 314T242 297Q265 297 277 323T289 392Q289 424 283 456T265 515T240 558T208 575ZM223 263Q183
263 151 276T95 312T59 365T46 431Q46 470 60 502T100 559T157 596T225 609Q263 609 295 596T351 560T388 507T402 441Q402 402 388 370T350 313T293 276T223 263ZM632 297Q608 297 597 271T585 202Q585 172 591 140T607 81T633 37T666 20Q690 20 701 46T713 115Q713
147 707 179T690 238T664 280T632 297ZM648 -15Q607 -15 575 -2T519 35T484 88T471 154Q471 193 485 225T524 281T581 318T649 332Q688 332 720 319T776 282T813 229T827 163Q827 124 813 92T775 35T718 -2T648 -15Z" />
<glyph unicode="&amp;" glyph-name="ampersand" horiz-adv-x="838" d="M740 435L575 204Q600 174 619 151T656 113T689 89T727 81Q749 81 767 86T808 102L822 82Q780 37 735 10T633 -16Q607 -16 589 -11T553 5T517 36T473 86Q424 39 368 10T245 -20Q194 -20 154
-5T87 36T45 97T30 173Q30 207 43 236T80 289T135 334T203 370Q161 410 140 444T119 522Q119 559 137 589T186 641T260 675T349 687Q444 687 494 651T545 561Q545 503 501 469T382 410Q425 369 487 305Q505 285 520 268T550 234Q558 245 564 255T579 278L674 433L578
460V494H831V461L740 435ZM353 222Q314 264 283 293T228 346Q202 322 190 296T178 237Q178 204 190 178T224 132T273 103T333 93Q360 93 386 99T440 123Q422 144 401 168T353 222ZM258 574Q258 556 263 542T280 512T311 478T357 434Q389 463 404 494T419 560Q419
600 396 625T335 651Q301 651 280 630T258 574Z" />
<glyph unicode="&apos;" glyph-name="quotesingle" horiz-adv-x="260" d="M61 719H199L139 449H117L61 719Z" />
<glyph unicode="(" glyph-name="parenleft" horiz-adv-x="347" d="M304 -180Q254 -137 214 -86T145 24T101 144T85 273Q85 340 101 404T146 526T215 637T305 732H353Q313 682 282 631T230 525T197 407T186 273Q186 205 196 144T227 28T278 -79T349 -180H304Z" />
<glyph unicode=")" glyph-name="parenright" horiz-adv-x="347" d="M42 731Q92 688 132 637T201 528T245 407T261 278Q261 211 245 147T200 25T131 -86T41 -181H-6Q34 -132 65 -81T117 26T149 144T160 278Q160 414 119 523T-2 731H42Z" />
<glyph unicode="*" glyph-name="asterisk" horiz-adv-x="394" d="M252 498L256 371L234 367L181 480L61 438L51 455L146 541L67 641L79 655L192 596L261 699L280 693L256 569L375 534L374 516L252 498Z" />
<glyph unicode="+" glyph-name="plus" horiz-adv-x="574" d="M312 224V12H262V224H50V271H262V483H312V271H524V224H312Z" />
<glyph unicode="," glyph-name="comma" horiz-adv-x="289" d="M27 -148Q81 -113 105 -81T130 -13Q130 19 112 41T65 71Q62 89 66 105T80 134T105 154T141 162Q185 162 210 129T235 49Q235 -20 190 -74T46 -179L27 -148Z" />
<glyph unicode="-" glyph-name="hyphen" horiz-adv-x="371" d="M58 329H313V238H58V329Z" />
<glyph unicode="." glyph-name="period" horiz-adv-x="261" d="M133 -14Q99 -14 74 10T49 69Q49 103 74 127T133 152Q168 152 192 128T216 69Q216 35 192 11T133 -14Z" />
<glyph unicode="/" glyph-name="slash" horiz-adv-x="417" d="M-27 -199L349 753L390 736L13 -216L-27 -199Z" />
<glyph unicode="0" glyph-name="zero" horiz-adv-x="641" d="M290 494Q248 494 229 452T209 344Q209 291 219 234T247 130T292 53T353 22Q430 22 430 182Q430 237 419 292T390 393T346 466T290 494ZM322 -16Q257 -16 205 5T116 63T59 149T39 254Q39 313 61 364T122
452T212 511T320 533Q381 533 432 513T521 456T580 371T602 264Q602 204 580 153T520 64T430 5T322 -16Z" />
<glyph unicode="1" glyph-name="one" horiz-adv-x="438" d="M317 54L425 37V0H36V37L153 53V429H26V466L313 531H317V54Z" />
<glyph unicode="2" glyph-name="two" horiz-adv-x="489" d="M177 118H469V0H29V44L105 108Q151 147 183 179T234 237T262 287T271 332Q271 374 245 399T181 425Q149 425 122 407T68 351L38 363Q64 447 116 491T243 536Q279 536 310 525T364 495T400 447T413 384Q413
352 401 324T366 270T310 217T235 160L177 118Z" />
<glyph unicode="3" glyph-name="three" horiz-adv-x="481" d="M157 -212Q128 -212 100 -205T49 -185T14 -155T0 -117Q0 -104 5 -91T20 -68T45 -52T80 -47Q82 -50 95 -69T125 -110T156 -152T173 -174Q229 -170 266 -134T303 -31Q303 -1 291 26T253 75T190 109T101
122V181L138 187Q218 219 249 256T281 335Q281 381 254 405T187 430Q149 430 121 411T69 353L36 366Q47 403 65 434T109 488T167 523T239 536Q280 536 313 525T370 493T406 445T419 383Q419 351 408 326T377 281T333 245T282 217L256 204V201Q298 200 334 188T396
154T438 99T454 25Q454 -29 427 -73T357 -148T262 -195T157 -212Z" />
<glyph unicode="4" glyph-name="four" horiz-adv-x="630" d="M328 15H27V81L429 530L477 524V123H605V15H477V-191H328V15ZM328 123V362L116 123H328Z" />
<glyph unicode="5" glyph-name="five" horiz-adv-x="426" d="M204 35Q204 66 195 93T167 144T120 191T56 240L139 516H372V384H137L131 365Q247 305 302 242T358 92Q358 26 328 -26T249 -118T139 -187T15 -236L3 -210Q39 -194 75 -171T139 -117T186 -49T204 35Z" />
<glyph unicode="6" glyph-name="six" horiz-adv-x="634" d="M578 699Q539 681 494 656T405 597T323 522T258 429Q284 444 313 453T372 462Q416 462 456 447T526 403T575 333T593 240Q593 176 568 128T502 47T413 -2T318 -19Q261 -19 211 0T125 55T67 144T45 263Q45
322 66 375T124 477T211 565T319 638T440 694T568 732L578 699ZM283 407Q263 407 246 402Q233 371 226 338T219 267Q219 208 230 162T259 85T301 37T348 20Q370 20 386 31T412 62T426 108T431 164Q431 207 421 250T393 328T347 385T283 407Z" />
<glyph unicode="7" glyph-name="seven" horiz-adv-x="526" d="M50 -182L390 366H36V516H514V511L185 -68L111 -209L50 -182Z" />
<glyph unicode="8" glyph-name="eight" horiz-adv-x="584" d="M36 147Q36 182 52 208T92 255T145 288T198 311Q166 329 141 347T99 386T73 431T64 488Q64 524 81 559T130 622T208 667T313 685Q364 685 403 672T470 638T511 590T525 535Q525 502 510 478T473 435T425
405T379 386L402 374Q442 352 470 331T515 288T540 241T548 186Q548 139 527 101T470 36T386 -5T282 -20Q227 -20 182 -8T105 25T54 78T36 147ZM226 295Q206 272 195 242T184 174Q184 142 193 114T218 64T258 30T308 17Q349 17 372 44T396 113Q396 163 363 199T269
270L226 295ZM200 561Q200 517 223 489T289 437L351 402Q368 425 379 452T390 515Q390 549 381 574T356 616T321 641T282 650Q248 650 224 627T200 561Z" />
<glyph unicode="9" glyph-name="nine" horiz-adv-x="627" d="M58 -184Q188 -121 268 -54T383 96Q327 60 262 60Q218 60 178 75T106 120T57 190T39 285Q39 344 63 390T125 469T212 518T308 535Q365 535 416 515T505 458T565 369T588 252Q588 183 565 125T503 19T411
-67T302 -135T184 -184T68 -217L58 -184ZM354 114Q374 114 392 119Q413 179 413 250Q413 304 403 349T375 426T335 477T286 496Q248 496 225 460T202 353Q202 309 212 266T242 190T290 135T354 114Z" />
<glyph unicode=":" glyph-name="colon" horiz-adv-x="288" d="M147 -14Q130 -14 115 -8T89 10T71 37T64 69Q64 86 71 101T89 127T115 145T147 152Q165 152 180 146T206 128T224 101T231 69Q231 52 225 37T207 11T180 -7T147 -14ZM145 329Q128 329 114 335T88 353T70
380T63 413Q63 430 69 445T87 471T113 489T145 496Q180 496 205 472T230 413Q230 378 205 354T145 329Z" />
<glyph unicode=";" glyph-name="semicolon" horiz-adv-x="291" d="M30 -148Q84 -113 108 -81T133 -13Q133 19 115 41T68 71Q65 89 69 105T83 134T108 154T144 162Q188 162 213 129T239 49Q239 -20 193 -74T50 -179L30 -148ZM150 329Q133 329 119 335T93 353T75
380T68 413Q68 430 74 445T92 471T118 489T150 496Q185 496 210 472T235 413Q235 378 210 354T150 329Z" />
<glyph unicode="&lt;" glyph-name="less" horiz-adv-x="588" d="M127 247L531 60V8L57 231V264L531 486V434L127 247Z" />
<glyph unicode="=" glyph-name="equal" horiz-adv-x="574" d="M50 297V343H524V297H50ZM50 156V202H524V156H50Z" />
<glyph unicode="&gt;" glyph-name="greater" horiz-adv-x="588" d="M461 247L57 434V486L531 263V230L57 8V60L461 247Z" />
<glyph unicode="?" glyph-name="question" horiz-adv-x="430" d="M74 718L124 707Q178 695 227 672T312 615T371 541T393 453Q393 390 362 352T256 294L161 268L162 202H123L93 387L267 426Q316 437 334 449T353 479Q353 494 342 506T305 527T235 543T127 554L74
557V718ZM145 -14Q111 -14 86 10T61 69Q61 103 86 127T145 152Q180 152 204 128T228 69Q228 35 204 11T145 -14Z" />
<glyph unicode="@" glyph-name="at" horiz-adv-x="955" d="M505 185H501L472 144Q435 93 399 60T321 26Q283 26 261 52T239 120Q239 176 265 235T333 344T427 425T531 457Q545 457 560 453T591 444L604 477H708L631 186Q622 154 622 132T627 97T645 79T674 73Q699
73 727 88T780 133T820 210T837 320Q838 386 815 442T751 539T654 603T530 626Q457 626 387 597T262 513T173 380T138 205Q138 121 164 57T237 -51T345 -117T479 -139Q538 -139 581 -129T643 -110V-129Q632 -136 612 -144T564 -159T505 -171T441 -176Q363 -176
291 -155T163 -91T74 21T41 183Q42 286 87 373T205 525T370 625T557 662Q637 662 703 637T816 569T888 466T914 340Q914 259 882 199T803 100T700 41T597 21Q534 21 507 56T496 152L505 185ZM402 122Q414 122 433 140T471 187T510 253T541 328L564 401Q543 427
522 427Q497 427 472 400T427 332T394 243T382 155Q382 136 387 129T402 122Z" />
<glyph unicode="A" glyph-name="A" horiz-adv-x="701" d="M-3 35L62 53L306 670L346 678L395 688L641 49L704 35V0H369V35L447 51L388 219H177L117 57L228 35V0H-3V35ZM196 271H369L285 510L196 271Z" />
<glyph unicode="B" glyph-name="B" horiz-adv-x="662" d="M24 35L101 54V610L24 629V664L318 666Q401 667 455 655T542 623T586 576T599 518Q599 483 583 456T540 410T476 378T397 358V355Q451 353 496 342T575 310T626 258T644 185Q644 87 562 42T328 -2L24 0V35ZM271
333V100Q276 72 300 55T355 37Q408 37 437 69T466 163Q466 198 455 227T424 279T378 315T322 333H271ZM271 367Q316 371 347 382T397 410T424 448T432 496Q432 527 420 551T386 592T335 618T271 628V367Z" />
<glyph unicode="C" glyph-name="C" horiz-adv-x="723" d="M426 -15Q326 -15 253 13T131 89T60 197T37 322Q37 399 69 465T156 579T287 655T447 683Q510 683 562 669T662 632L664 438H633L556 591Q527 617 496 631T425 645Q385 645 351 626T291 571T252 483T238
366Q238 285 254 222T300 115T369 49T453 26Q484 26 508 34T549 56L663 232H695L655 33Q624 21 597 12T542 -3T486 -12T426 -15Z" />
<glyph unicode="D" glyph-name="D" horiz-adv-x="782" d="M271 69Q286 55 311 46T369 37Q409 37 444 57T506 113T547 201T563 315Q563 392 541 451T479 551T387 613T271 634V69ZM24 36L101 54V610L24 629V664L359 665Q447 664 519 641T643 576T722 476T750 345Q750
276 723 214T640 103T502 27T306 -1L24 0V36Z" />
<glyph unicode="E" glyph-name="E" horiz-adv-x="636" d="M273 319V68Q298 40 343 39H465L576 231H611L570 0H24V35L101 54V609L24 629V664H497L584 665V466H550L483 625H273V365H378L411 475H445V215H410L378 319H273Z" />
<glyph unicode="F" glyph-name="F" horiz-adv-x="600" d="M273 310V54L377 38V0H24V36L101 54V609L24 629V664H479L570 665V468H535L469 624H273V353H391L425 465H459V204H425L391 310H273Z" />
<glyph unicode="G" glyph-name="G" horiz-adv-x="782" d="M432 -16Q326 -16 251 13T129 90T60 198T38 319Q38 400 72 467T165 582T301 656T462 683Q531 683 588 669T687 639L696 439H667L569 600Q536 624 508 633T448 643Q399 643 360 622T294 561T251 469T236
351Q236 269 254 209T303 108T375 49T461 29Q487 29 506 33T543 46V257L431 273V316H765V276L709 262V40L671 28Q651 22 624 15T566 0T501 -11T432 -16Z" />
<glyph unicode="H" glyph-name="H" horiz-adv-x="823" d="M470 35L550 54V316H273V54L352 35V0H24V35L101 54V610L24 629V664H352V629L273 610V365H550V610L471 629V664H800V629L723 610V54L800 35V0H470V35Z" />
<glyph unicode="I" glyph-name="I" horiz-adv-x="375" d="M24 35L101 54V610L24 629V664H350V629L273 610V54L350 35V0H24V35Z" />
<glyph unicode="J" glyph-name="J" horiz-adv-x="374" d="M277 84Q277 -53 207 -124T-21 -209L-27 -185Q15 -163 40 -141T80 -93T99 -35T104 39V610L17 629V664H354V629L277 610V84Z" />
<glyph unicode="K" glyph-name="K" horiz-adv-x="745" d="M24 35L101 54V610L24 629V664H352V629L273 610V54L352 35V0H24V35ZM290 314V319L552 609L458 629V664H700V629L614 608L428 408L685 49L748 35V0H516L290 314Z" />
<glyph unicode="L" glyph-name="L" horiz-adv-x="618" d="M273 68Q286 54 303 48T344 40H450L569 260H603L554 0H24V36L101 54V609L24 629V664H355V629L273 610V68Z" />
<glyph unicode="M" glyph-name="M" horiz-adv-x="928" d="M16 35L95 54L127 609L45 629V664H306L476 267L623 632L631 664H883V629L807 611L835 54L912 35V0H583V35L662 54L641 570L466 131L423 22H400L358 129L170 559L148 57L258 36V0H16V35Z" />
<glyph unicode="N" glyph-name="N" horiz-adv-x="733" d="M578 -13L155 503L160 57L264 36V0H28V36L104 54V567Q89 586 71 601T29 624L11 630V664H244L595 236L590 603L488 629V664H720V629L645 608V82L647 -1L578 -13Z" />
<glyph unicode="O" glyph-name="O" horiz-adv-x="800" d="M415 25Q490 25 532 99T575 311Q575 376 562 436T524 541T464 614T384 642Q309 642 267 569T224 357Q224 288 238 228T277 122T338 51T415 25ZM401 683Q476 683 543 659T659 591T738 483T767 342Q767 260
736 194T653 81T535 9T397 -16Q324 -16 258 8T142 76T63 185T33 330Q33 407 63 472T145 584T262 657T401 683Z" />
<glyph unicode="P" glyph-name="P" horiz-adv-x="617" d="M312 327Q367 334 404 371T441 472Q441 502 432 529T402 578T350 614T273 630V54L362 36V0H24V36L101 54V610L24 629V664L306 665Q373 665 427 653T521 619T581 564T602 491Q602 443 576 406T509 343T416
306T312 293V327Z" />
<glyph unicode="Q" glyph-name="Q" horiz-adv-x="800" d="M401 683Q476 683 543 659T659 591T738 484T767 344Q767 280 747 226T693 129T612 56T512 9Q552 -22 589 -50T665 -100T742 -134T823 -147Q871 -147 907 -135T976 -101L989 -118Q977 -130 958 -147T908
-181T836 -208T735 -220Q665 -220 606 -202T491 -152T381 -79T268 10Q218 26 175 55T101 124T51 217T33 331Q33 408 63 472T145 584T262 657T401 683ZM415 24Q491 24 533 97T575 312Q575 377 562 437T524 542T464 615T384 643Q309 643 267 570T224 356Q224 283
238 222T277 117T337 49T415 24Z" />
<glyph unicode="R" glyph-name="R" horiz-adv-x="708" d="M24 35L101 54V610L24 629V664L304 665Q390 665 450 652T549 617T604 564T621 498Q621 441 584 399T475 331V327L644 50L709 35V0H486L346 232Q343 237 337 246T324 267Q316 279 308 294H271V54L345 35V0H24V35ZM271
335H346Q396 346 426 384T457 472Q457 507 443 535T404 584T345 616T271 629V335Z" />
<glyph unicode="S" glyph-name="S" horiz-adv-x="562" d="M39 237H68L153 63Q172 49 198 38T262 26Q312 26 343 56T375 136Q375 176 354 201T278 249L219 272Q134 306 96 354T58 471Q58 509 75 547T125 615T208 664T324 683Q370 683 415 671T495 642L497 462H466L397
618Q384 629 366 637T318 646Q267 646 237 617T206 545Q206 499 233 473T321 424L385 399Q466 367 498 324T531 224Q531 167 507 123T444 48T355 1T252 -15Q193 -15 145 -2T57 29L39 237Z" />
<glyph unicode="T" glyph-name="T" horiz-adv-x="647" d="M540 664L627 666V455H598L533 618H410V54L506 35V0H140V35L237 54V618H114L49 455H19L20 666L108 664H540Z" />
<glyph unicode="U" glyph-name="U" horiz-adv-x="738" d="M369 -18Q304 -18 253 -2T165 47T109 131T89 251V609L12 629V664H358V629L264 609V259Q264 160 307 110T423 59Q498 59 544 105T592 249L590 605L486 629V664H726V629L650 607V271Q650 134 578 58T369 -18Z" />
<glyph unicode="V" glyph-name="V" horiz-adv-x="673" d="M52 611L-2 629V664H326V629L240 609L401 156L564 606L465 628V664H675V629L616 607L378 -11H294L52 611Z" />
<glyph unicode="W" glyph-name="W" horiz-adv-x="989" d="M496 407L344 -11H259L54 611L-2 628V664H300V629L235 611L367 164L474 473L428 611L377 629V664H687V628L606 611L742 176L878 604L785 628V664H991V629L931 607L724 -11H638L496 407Z" />
<glyph unicode="X" glyph-name="X" horiz-adv-x="704" d="M80 53L274 312L86 610L16 629V664H363V629L286 610L404 413H406L542 606L454 628V664H680V629L607 608L432 369L632 54L704 36V0H355V36L431 54L301 270H299L150 56L232 36V0H4V36L80 53Z" />
<glyph unicode="Y" glyph-name="Y" horiz-adv-x="663" d="M421 284V54L500 35V0H170V35L249 54V263L59 612L0 629V664H338V629L246 610L393 318L545 607L445 629V664H663V629L601 608L421 284Z" />
<glyph unicode="Z" glyph-name="Z" horiz-adv-x="652" d="M26 35L383 618H144L67 451H36L42 666L139 664H600V655L218 46H503L611 234H644L600 0H26V35Z" />
<glyph unicode="[" glyph-name="bracketleft" horiz-adv-x="314" d="M90 -181V733H301V691H201V-139H301V-181H90Z" />
<glyph unicode="\" glyph-name="backslash" horiz-adv-x="417" d="M406 -216L30 736L71 753L446 -199L406 -216Z" />
<glyph unicode="]" glyph-name="bracketright" horiz-adv-x="314" d="M224 733V-181H13V-139H113V691H13V733H224Z" />
<glyph unicode="^" glyph-name="asciicircum" horiz-adv-x="477" d="M45 485L215 756H262L432 485H377L235 675L90 485H45Z" />
<glyph unicode="_" glyph-name="underscore" horiz-adv-x="408" d="M4 -177H404V-223H4V-177Z" />
<glyph unicode="`" glyph-name="grave" horiz-adv-x="355" d="M212 769L263 573H225L86 762V769H212Z" />
<glyph unicode="a" glyph-name="a" horiz-adv-x="528" d="M160 -15Q131 -15 107 -6T65 21T37 61T27 112Q27 173 69 205T203 260L298 283V361Q295 403 276 431T218 460Q193 460 180 450L177 331Q165 326 147 323T108 319Q78 319 60 333T41 377Q41 400 61 423T114
466T192 497T285 509Q366 509 411 473T457 350V93Q457 68 465 62T494 56H530V31Q507 19 484 9Q464 1 441 -6T394 -13Q352 -13 329 5T303 69H299Q289 54 276 39T246 12T208 -7T160 -15ZM246 71Q261 71 274 77T298 95V248L264 237Q216 222 197 198T178 145Q178 112
196 92T246 71Z" />
<glyph unicode="b" glyph-name="b" horiz-adv-x="597" d="M248 -15Q209 -15 168 -7T93 16L58 32V625L-3 663V681L220 746V432Q232 445 247 458T282 481T325 499T375 506Q411 506 446 493T508 451T553 381T571 280Q571 213 542 159T466 66T362 6T248 -15ZM270 424Q253
424 241 420T220 409V80Q230 60 249 45T300 29Q348 29 377 76T406 209Q406 258 395 297T364 365T321 408T270 424Z" />
<glyph unicode="c" glyph-name="c" horiz-adv-x="504" d="M268 -13Q214 -13 169 6T93 58T44 139T26 243Q26 304 48 353T108 437T194 491T294 510Q332 510 365 500T422 474T461 435T475 387Q475 352 452 335T393 318Q379 318 367 320T350 326L321 451Q311 461 298
467T268 473Q226 473 200 432T174 327Q174 270 188 227T227 156T283 113T352 98Q375 98 396 103T433 116T461 130T475 141L488 123Q451 65 395 26T268 -13Z" />
<glyph unicode="d" glyph-name="d" horiz-adv-x="609" d="M294 692L535 748V64L593 49V21L392 -12L378 52Q355 27 319 6T231 -15Q186 -15 149 3T84 52T41 128T26 225Q26 287 50 338T116 425T213 481T329 501Q334 501 346 501T373 498V636L294 675V692ZM325 67Q339
67 351 71T373 81V405Q357 433 337 449T287 465Q268 465 250 456T218 425T196 371T187 290Q187 242 197 201T226 130T270 84T325 67Z" />
<glyph unicode="e" glyph-name="e" horiz-adv-x="522" d="M263 -13Q209 -13 165 7T91 62T43 144T26 244Q26 301 48 349T106 434T187 490T279 510Q376 510 425 453T487 294H167Q168 245 184 208T225 147T283 110T351 97Q392 97 422 111T478 140L494 121Q475 95
452 71T401 29T338 -1T263 -13ZM246 468Q216 468 194 436T167 331H326Q321 391 301 429T246 468Z" />
<glyph unicode="f" glyph-name="f" horiz-adv-x="367" d="M17 34L79 49V438H6V473L80 497L84 519Q93 571 118 614T178 688T256 736T345 753Q373 753 401 746T450 727T485 696T499 656Q499 632 488 618T461 596T424 587T384 590L356 690Q346 703 334 708T307 713Q293
713 280 706T258 684T243 643T238 582L240 494H371V440H241V49L320 34V0H17V34Z" />
<glyph unicode="g" glyph-name="g" horiz-adv-x="554" d="M432 440L430 436Q453 416 465 392T477 338Q477 304 462 274T418 222T350 187T261 174Q233 174 209 178T163 190Q147 174 147 157Q147 142 159 132T197 121L406 113Q473 110 506 78T539 -6Q539 -54 512
-96T440 -169T336 -219T211 -238Q112 -238 63 -206T14 -120Q14 -82 39 -58T106 -16V-10Q74 0 54 23T34 79Q34 112 56 140T128 203V205Q89 227 67 261T45 338Q45 377 62 408T109 462T178 497T261 509Q296 509 324 503T397 484L551 499V433L432 440ZM151 -24Q142
-35 136 -49T130 -81Q130 -131 171 -156T278 -182Q320 -182 350 -173T398 -149T426 -119T435 -88Q435 -68 423 -55T388 -36L151 -24ZM187 374Q187 340 194 310T213 258T241 224T276 211Q302 211 319 238T336 315Q336 351 329 380T309 430T280 462T246 474Q218 474
202 447T187 374Z" />
<glyph unicode="h" glyph-name="h" horiz-adv-x="627" d="M341 34L394 49V320Q393 362 372 388T311 414Q289 413 272 406T241 389V49L294 34V0H18V34L79 49V626L20 663V682L241 748V424Q254 437 272 451T311 479T358 500T412 509Q479 509 517 472T556 354V49L618
33V0H341V34Z" />
<glyph unicode="i" glyph-name="i" horiz-adv-x="317" d="M16 34L80 49V395L18 440V458L243 509V49L307 34V0H16V34ZM162 580Q128 580 104 604T80 663Q80 697 104 721T162 746Q197 746 221 722T246 663Q246 628 222 604T162 580Z" />
<glyph unicode="j" glyph-name="j" horiz-adv-x="313" d="M-25 -209Q2 -191 21 -173T53 -131T72 -72T80 14V395L18 440V458L242 509V80Q242 40 241 7T233 -53T214 -104T179 -147Q154 -169 126 -183T71 -207T20 -221T-19 -229L-25 -209ZM162 580Q127 580 104 604T80
663Q80 697 103 721T162 746Q197 746 221 722T246 663Q246 628 222 604T162 580Z" />
<glyph unicode="k" glyph-name="k" horiz-adv-x="605" d="M79 626L20 663V682L241 748V49L299 34V0H18V34L79 49V626ZM507 -14Q458 -14 427 4T369 65L249 256L428 433L344 462V494H590V463L512 440L383 329L605 13Q592 5 577 -1Q564 -6 546 -10T507 -14Z" />
<glyph unicode="l" glyph-name="l" horiz-adv-x="315" d="M17 34L79 49V626L20 663V682L241 748V49L304 34V0H17V34Z" />
<glyph unicode="m" glyph-name="m" horiz-adv-x="940" d="M654 34L706 49V319Q706 362 685 388T623 414Q602 414 585 407T554 390V49L606 33V0H339V34L392 49V320Q391 363 371 388T309 414Q287 414 270 406T239 388V49L292 34V0H16V34L77 49V395L17 436V454L215
511H220L229 417H232Q244 429 262 445T303 475T353 499T410 509Q467 509 499 486T543 417H546Q558 429 576 445T617 475T667 499T725 509Q792 509 830 472T868 354V49L931 33V0H654V34Z" />
<glyph unicode="n" glyph-name="n" horiz-adv-x="626" d="M16 34L77 49V395L17 436V454L215 511H220L229 417H232Q244 429 262 445T303 475T353 499T410 509Q477 509 515 472T554 354V49L616 33V0H339V34L392 49V320Q391 362 371 388T309 414Q287 413 270 406T239
389V49L292 34V0H16V34Z" />
<glyph unicode="o" glyph-name="o" horiz-adv-x="603" d="M284 473Q259 473 243 457T217 416T203 360T199 301Q199 247 207 197T230 108T268 46T319 22Q361 22 382 69T403 200Q403 256 395 306T370 393T333 451T284 473ZM302 -15Q236 -15 185 6T99 62T46 143T28
240Q28 298 49 347T108 433T195 489T302 509Q362 509 412 491T499 439T555 359T575 257Q575 198 554 148T497 62T410 6T302 -15Z" />
<glyph unicode="p" glyph-name="p" horiz-adv-x="616" d="M6 -186L76 -170V395L15 436V454L216 511H221L228 417H229Q240 431 255 446T291 475T336 496T392 505Q428 505 463 492T526 451T571 381T589 281Q589 216 563 162T494 70T397 11T286 -10Q273 -10 262 -10T239
-8V-167L347 -186V-219H6V-186ZM289 422Q275 422 263 417T239 405V74Q250 57 269 43T316 29Q363 29 393 76T424 211Q424 261 413 300T383 367T340 408T289 422Z" />
<glyph unicode="q" glyph-name="q" horiz-adv-x="605" d="M266 -187L373 -167V48Q350 25 315 5T231 -15Q188 -15 151 2T86 50T42 126T26 225Q26 289 51 340T117 427T206 482T304 501Q337 501 363 493T410 471L532 509H536V-170L606 -186V-219H266V-187ZM327 68Q353
68 373 81V409Q359 432 340 448T288 465Q270 465 253 457T221 427T198 372T189 287Q189 239 199 199T229 130T273 85T327 68Z" />
<glyph unicode="r" glyph-name="r" horiz-adv-x="439" d="M16 34L77 49V395L17 436V454L218 511H224L230 378H234L249 409Q275 463 301 486T369 509Q399 509 423 490T448 432Q448 394 423 371T348 344L292 391Q280 386 264 369T239 327V49L328 34V0H16V34Z" />
<glyph unicode="s" glyph-name="s" horiz-adv-x="460" d="M192 -15Q148 -15 113 -7T40 16L34 177H63L126 52Q135 42 154 33T196 23Q235 23 258 43T281 96Q281 149 217 172L147 198Q90 219 65 256T40 345Q40 381 55 411T100 464T171 498T263 511Q299 511 335 503T403
481L402 335H376L319 447Q307 458 290 465T253 472Q221 472 201 453T180 405Q180 376 198 359T247 330L310 306Q368 284 397 252T426 167Q426 126 408 93T358 35T284 -2T192 -15Z" />
<glyph unicode="t" glyph-name="t" horiz-adv-x="378" d="M203 -14Q132 -14 100 22T69 127L72 437H-1V472L73 497L213 619H231V494H376V436H231V122Q241 86 266 73T322 60Q340 60 354 63T374 68L380 40Q366 32 349 23T309 5T261 -8T203 -14Z" />
<glyph unicode="u" glyph-name="u" horiz-adv-x="620" d="M383 69Q369 55 352 40T313 13T268 -7T215 -15Q186 -15 160 -8T114 18T81 65T69 138V412L8 442V464L231 503V171Q231 128 248 103T311 78Q333 78 350 84T381 100V416L317 445V467L543 506V64L607 48V20L395
-12L383 69Z" />
<glyph unicode="v" glyph-name="v" horiz-adv-x="509" d="M222 -14L35 448L-12 461V494H274V461L209 449L303 176L310 152H311L319 177L417 446L354 462V494H522V461L470 448L284 -14H222Z" />
<glyph unicode="w" glyph-name="w" horiz-adv-x="794" d="M605 192L610 177Q612 172 614 166H615Q616 173 618 178Q619 183 620 187T622 193L695 445L618 462V494H805V461L748 448L595 -14H523L409 263Q408 265 407 269T403 279Q401 285 399 292H398Q396 285 394
279Q392 274 391 270T388 263L282 -14H211L46 448L-11 461V494H292V461L223 448L301 197Q303 191 306 179Q308 172 310 164H311Q313 172 316 179Q318 185 319 190T322 197L432 497H482L605 192Z" />
<glyph unicode="x" glyph-name="x" horiz-adv-x="559" d="M500 49L551 33V0H273V34L319 49L234 184L141 51L190 33V0H11V33L74 50L209 223L63 450L17 463V494H293V462L247 450L322 328L407 447L356 463V494H526V462L471 448L346 290L500 49Z" />
<glyph unicode="y" glyph-name="y" horiz-adv-x="515" d="M363 462V494H519V461L475 448L241 -137Q222 -184 195 -211T124 -238Q108 -238 93 -232T67 -215T49 -189T42 -155Q42 -119 66 -96T124 -73Q151 -73 170 -87T201 -128H203L236 -46L36 450L-4 461V494H268V461L211
450L314 153L422 446L363 462Z" />
<glyph unicode="z" glyph-name="z" horiz-adv-x="505" d="M24 0V24L282 450H134L70 307H40V505L125 494H480V489L210 43H364L449 200H479L459 -1L362 0H24Z" />
<glyph unicode="{" glyph-name="braceleft" horiz-adv-x="330" d="M98 273Q135 270 160 263T200 241T221 205T227 149L225 -36Q225 -68 229 -89T245 -124T276 -142T323 -148V-181L306 -182Q249 -184 210 -173T148 -139T117 -82T112 -6L127 177Q131 216 119 234T71
253L34 254V298L71 299Q106 300 118 318T127 375L112 558Q108 600 116 634T148 691T210 725T306 734L323 733V701Q295 701 276 696T246 677T230 642T225 588L227 401Q227 368 221 346T200 310T160 289T98 278V273Z" />
<glyph unicode="|" glyph-name="bar" horiz-adv-x="227" d="M92 -208V744H135V-208H92Z" />
<glyph unicode="}" glyph-name="braceright" horiz-adv-x="330" d="M232 279Q195 282 170 289T130 311T109 347T103 403L106 588Q107 652 85 676T8 700V733L24 734Q81 736 120 725T182 691T213 634T219 558L203 375Q200 336 212 318T260 299L296 298V254L260 253Q225
252 213 234T203 177L219 -6Q222 -48 214 -82T182 -139T120 -173T24 -182L8 -181V-149Q36 -149 55 -144T85 -125T101 -90T106 -36L103 151Q103 184 109 206T130 242T170 263T232 274V279Z" />
<glyph unicode="~" glyph-name="asciitilde" horiz-adv-x="524" d="M13 201L22 226Q40 277 64 306T116 348T175 359T241 345L315 321Q351 309 374 305T416 304T449 323T483 365L508 354L499 329Q465 235 411 204T274 200L217 218Q175 232 149 239T103 244T70 228T39
189L13 201Z" />
<glyph unicode="&#xa0;" glyph-name="uni00A0" horiz-adv-x="171" />
<glyph unicode="&#xa1;" glyph-name="exclamdown" horiz-adv-x="297" d="M52 -118L134 390H163L245 -118H52ZM150 605Q166 605 181 599T208 581T227 554T234 522Q234 505 227 490T209 464T182 446T150 439Q115 439 91 463T66 522Q66 556 90 580T150 605Z" />
<glyph unicode="&#xa2;" glyph-name="cent" horiz-adv-x="525" d="M231 -10Q187 -3 151 18T90 73T50 149T36 242Q36 303 58 352T118 437T203 491T301 510L315 616H352L337 507Q370 502 397 491T445 463T477 427T488 386Q488 356 469 340T417 324Q404 324 394 326T378
331L357 440Q344 455 331 462L284 107Q315 92 354 92Q381 92 403 98T442 112T468 127T481 137L494 118Q454 58 399 22T277 -14H268L253 -127H216L231 -10ZM184 297Q184 243 201 200T250 129L296 473Q274 473 254 463T218 432T193 378T184 297Z" />
<glyph unicode="&#xa3;" glyph-name="sterling" horiz-adv-x="717" d="M143 309H274L286 361Q302 433 340 487T424 578T518 633T601 652Q625 652 646 645T682 625T707 598T716 566Q716 533 686 514T614 488Q590 606 545 606Q520 606 503 578T472 486L434 309H605V260H420Q406
219 385 185T339 124T286 75T230 37Q253 24 274 11T315 -14L359 -41Q405 -70 435 -89T487 -119T521 -135T546 -140Q578 -140 588 -103T582 11Q633 16 661 4T690 -40Q690 -66 669 -95T615 -148T539 -189T454 -206Q387 -206 325 -161T198 -43L156 3Q128 -7 105 -11T68
-16Q36 -16 18 -2T0 36Q0 62 22 77T77 93Q100 93 128 84T186 60Q206 83 223 119T253 214L263 260H143V309Z" />
<glyph unicode="&#xa5;" glyph-name="yen" horiz-adv-x="628" d="M53 295H214L57 585L-1 602V637H314V602L241 583L366 317H368L508 580L419 602V637H630V601L567 581L404 295H571V258H393V181H571V144H393V55L480 35V0H146V35L232 54V144H53V181H232V258H53V295Z" />
<glyph unicode="&#xa6;" glyph-name="brokenbar" horiz-adv-x="226" d="M92 313V744H134V313H92ZM92 -208V224H134V-208H92Z" />
<glyph unicode="&#xa7;" glyph-name="section" horiz-adv-x="524" d="M285 -119Q285 -104 280 -89T262 -53T231 -3T183 70L140 136Q114 176 97 207T69 265T54 314T49 361Q49 408 67 448T116 523T185 583T264 628T342 656T410 666Q458 666 483 646T508 595Q508
571 492 552T449 525Q432 537 413 549Q396 560 374 572T327 595Q287 595 250 581Q249 577 249 573T249 563Q249 549 254 535T272 499T303 449T351 377L394 311Q420 271 437 240T465 183T480 133T484 86Q484 39 466 -1T417 -76T348 -136T269 -181T191 -209T124 -219Q76
-219 51 -198T26 -146Q26 -123 41 -104T84 -78Q101 -90 121 -102Q138 -113 160 -125T207 -148Q247 -148 283 -134Q285 -126 285 -119ZM150 424Q150 379 166 338T214 244L270 152Q291 117 305 90T328 41T341 -1T345 -39Q345 -57 341 -71T332 -100H337Q359 -79 371
-49T384 23Q384 68 368 109T319 203L264 295Q243 330 229 357T205 406T192 447T188 486Q188 501 192 518T201 546H196Q175 525 163 495T150 424Z" />
<glyph unicode="&#xa8;" glyph-name="dieresis" horiz-adv-x="400" d="M99 588Q68 588 46 609T23 663Q23 694 45 716T99 739Q130 739 152 717T175 663Q175 631 153 610T99 588ZM308 588Q277 588 255 609T233 663Q233 694 255 716T308 739Q339 739 361 717T384
663Q384 631 362 610T308 588Z" />
<glyph unicode="&#xa9;" glyph-name="copyright" horiz-adv-x="793" d="M45 335Q45 408 72 472T148 583T260 658T397 685Q470 685 533 658T644 584T719 472T747 335Q747 261 720 197T645 86T533 11T396 -16Q322 -16 258 11T147 85T73 196T45 335ZM78 335Q78 268
103 210T171 108T273 39T397 13Q462 13 520 38T621 107T690 209T716 335Q716 402 691 460T622 562T520 631T397 656Q331 656 273 631T172 563T103 461T78 335ZM414 134Q357 134 316 150T248 194T208 257T195 330Q195 373 213 410T264 475T339 518T433 534Q466 534
494 525T549 503L550 390H524L484 479Q470 493 454 499T421 505Q380 505 353 464T325 350Q325 259 357 213T435 166Q447 166 459 170T481 181L538 278H565L542 163Q512 150 482 142T414 134Z" />
<glyph unicode="&#xaa;" glyph-name="ordfeminine" horiz-adv-x="449" d="M138 246Q118 246 99 252T66 272T42 303T33 345Q33 393 66 418T166 458L248 476V548Q246 574 231 595T185 617Q174 617 167 615T155 610L144 517Q126 504 99 504Q46 504 46 548Q46 567
62 586T104 621T164 646T233 656Q312 656 343 624T375 526V334Q375 314 381 308T406 302H434V277Q416 268 398 261Q382 255 363 251T325 246Q289 246 272 263T254 309H249Q239 297 229 286T205 266T176 252T138 246ZM203 316Q220 316 231 322T248 334V446L227 440Q188
428 171 413T153 371Q153 348 166 332T203 316Z" />
<glyph unicode="&#xab;" glyph-name="guillemotleft" horiz-adv-x="494" d="M243 381L140 218L243 45L222 29L46 202V225L222 399L243 381ZM428 381L325 218L428 45L407 29L231 202V225L407 399L428 381Z" />
<glyph unicode="&#xac;" glyph-name="logicalnot" horiz-adv-x="574" d="M524 271V68H474V224H50V271H524Z" />
<glyph unicode="&#xae;" glyph-name="registered" horiz-adv-x="490" d="M26 543Q26 588 43 627T91 695T161 741T247 758Q292 758 331 742T400 696T447 627T464 543Q464 498 447 459T399 390T329 345T243 328Q198 328 159 344T90 390T43 458T26 543ZM60 543Q60
504 74 470T113 411T171 372T244 357Q284 357 318 371T377 410T416 469T431 543Q431 582 417 616T377 674T318 713T244 728Q205 728 172 714T113 675T74 616T60 543ZM123 457L151 462V637L123 642V661H237Q350 661 350 600Q350 587 345 578T332 561T315 549T296
541V539L354 462L379 457V438H290L262 478Q254 488 249 496T238 510Q233 517 229 523H219V461L240 456V438H123V457ZM219 543H247Q261 549 270 560T280 590Q280 610 264 626T219 643V543Z" />
<glyph unicode="&#xaf;" glyph-name="macron" horiz-adv-x="400" d="M49 695H351V622H49V695Z" />
<glyph unicode="&#xb0;" glyph-name="degree" horiz-adv-x="303" d="M19 603Q19 630 29 654T58 696T101 724T154 735Q182 735 206 725T247 696T274 654T284 603Q284 575 274 551T245 509T202 481T150 470Q121 470 97 480T56 509T29 551T19 603ZM59 603Q59 561
85 533T152 504Q193 504 219 532T245 603Q245 645 219 673T152 702Q111 702 85 674T59 603Z" />
<glyph unicode="&#xb1;" glyph-name="plusminus" horiz-adv-x="574" d="M312 324V112H262V324H50V370H262V582H312V370H524V324H312ZM50 47H524V0H50V47Z" />
<glyph unicode="&#xb4;" glyph-name="acute" horiz-adv-x="355" d="M269 769V762L129 573H92L142 769H269Z" />
<glyph unicode="&#xb6;" glyph-name="paragraph" horiz-adv-x="556" d="M524 629L449 610V56Q449 -16 431 -66T383 -148T312 -194T226 -208Q187 -208 155 -196T100 -162T65 -110T52 -44Q52 -10 63 18T95 66T140 96T195 107Q222 107 242 99T276 78T297 47T304 12Q304
-11 297 -27T279 -55T254 -71T226 -76Q200 -76 183 -59T167 -13Q188 -5 209 8T244 36V40Q228 71 185 71Q170 71 154 64T125 44T104 10T95 -38Q95 -64 103 -87T129 -129T172 -158T232 -169Q261 -169 287 -160T334 -128T365 -69T377 20V622H324V233H271Q226 233 187
250T119 296T72 364T55 448Q55 493 72 532T118 600T187 647T271 664H524V629Z" />
<glyph unicode="&#xb7;" glyph-name="periodcentered" horiz-adv-x="293" d="M147 195Q113 195 88 219T63 278Q63 313 88 337T147 362Q182 362 206 338T230 278Q230 244 206 220T147 195Z" />
<glyph unicode="&#xb8;" glyph-name="cedilla" horiz-adv-x="274" d="M53 -224Q100 -208 125 -189T151 -143Q151 -123 137 -110T101 -90L164 4H198L166 -43Q207 -48 234 -67T262 -121Q262 -170 208 -202T60 -249L53 -224Z" />
<glyph unicode="&#xba;" glyph-name="ordmasculine" horiz-adv-x="480" d="M228 624Q210 624 198 612T179 579T169 535T166 486Q166 446 172 408T189 340T217 292T254 273Q284 273 299 310T315 414Q315 454 309 492T291 559T264 606T228 624ZM240 239Q188 239
149 255T82 300T42 365T28 443Q28 489 44 528T89 596T156 641T240 657Q287 657 326 642T393 601T436 537T452 454Q452 407 436 368T391 300T324 255T240 239Z" />
<glyph unicode="&#xbb;" glyph-name="guillemotright" horiz-adv-x="494" d="M66 47L170 210L67 383L88 399L263 226V203L88 29L66 47ZM252 47L356 210L253 383L274 399L449 226V203L274 29L252 47Z" />
<glyph unicode="&#xbc;" glyph-name="onequarter" horiz-adv-x="751" d="M210 324L274 313V285H17V313L88 324V590H13V614L197 669H210V324ZM101 -57L639 721L670 700L131 -78L101 -57ZM678 156H737V89H678V35L725 25V0H522V25L573 34V89H396V132L628 389L678
381V156ZM573 156V284L455 156H573Z" />
<glyph unicode="&#xbd;" glyph-name="onehalf" horiz-adv-x="784" d="M101 -57L639 721L670 700L131 -78L101 -57ZM210 324L274 313V285H17V313L88 324V590H13V614L197 669H210V324ZM574 91H768V0H471V29L529 84Q559 114 581 136T617 177T639 213T646 250Q646
279 628 297T578 315Q551 315 532 300T495 262L472 277Q501 333 540 363T632 394Q686 394 720 365T754 285Q754 237 726 206T651 143L574 91Z" />
<glyph unicode="&#xbe;" glyph-name="threequarters" horiz-adv-x="755" d="M147 301Q169 301 187 317T206 365Q206 381 200 397T178 426T137 448T75 457V483Q138 494 166 515T195 564Q195 585 181 600T138 615Q110 615 86 599T44 560L22 572Q31 594 45 613T79
647T124 670T182 679Q233 679 265 655T297 594Q297 576 289 561T268 534T237 514T202 500V496Q259 491 287 467T315 404Q315 375 302 352T266 312T210 286T139 276Q86 276 50 297T14 350Q14 368 27 381T66 394L110 313Q117 306 126 304T147 301ZM105 -57L643 721L674
700L135 -78L105 -57ZM682 156H741V89H682V35L729 25V0H526V25L577 34V89H400V132L632 389L682 381V156ZM577 156V284L459 156H577Z" />
<glyph unicode="&#xbf;" glyph-name="questiondown" horiz-adv-x="430" d="M371 -127L320 -116Q266 -104 218 -81T132 -24T73 50T51 138Q51 201 82 239T189 298L284 323L283 390H322L352 204L178 165Q128 154 110 142T92 112Q92 97 103 86T140 65T210 48T318 37L371
34V-127ZM300 605Q334 605 359 581T384 522Q384 488 359 464T300 439Q265 439 241 463T216 522Q216 556 240 580T300 605Z" />
<glyph unicode="&#xc0;" glyph-name="Agrave" horiz-adv-x="701" d="M-3 35L62 53L306 670L346 678L395 688L641 49L704 35V0H369V35L447 51L388 219H177L117 57L228 35V0H-3V35ZM196 271H369L285 510L196 271ZM298 865L378 719H328L169 852V865H298Z" />
<glyph unicode="&#xc1;" glyph-name="Aacute" horiz-adv-x="701" d="M-3 35L62 53L306 670L346 678L395 688L641 49L704 35V0H369V35L447 51L388 219H177L117 57L228 35V0H-3V35ZM196 271H369L285 510L196 271ZM535 865V852L372 719H321L397 865H535Z" />
<glyph unicode="&#xc2;" glyph-name="Acircumflex" horiz-adv-x="701" d="M-3 35L62 53L306 670L346 678L395 688L641 49L704 35V0H369V35L447 51L388 219H177L117 57L228 35V0H-3V35ZM196 271H369L285 510L196 271ZM200 719L300 862H401L501 719H449L348 791L246
719H200Z" />
<glyph unicode="&#xc3;" glyph-name="Atilde" horiz-adv-x="701" d="M-3 35L62 53L306 670L346 678L395 688L641 49L704 35V0H369V35L447 51L388 219H177L117 57L228 35V0H-3V35ZM196 271H369L285 510L196 271ZM325 769Q295 778 275 781T240 781T215 768T194 738L172
748L177 764Q191 804 207 829T243 866T290 878T351 867L395 854Q419 847 437 845T471 847T500 862T525 894L548 884L541 864Q524 821 508 795T472 756T427 744T368 756L325 769Z" />
<glyph unicode="&#xc4;" glyph-name="Adieresis" horiz-adv-x="701" d="M-3 35L62 53L306 670L346 678L395 688L641 49L704 35V0H369V35L447 51L388 219H177L117 57L228 35V0H-3V35ZM196 271H369L285 510L196 271ZM229 725Q198 725 176 746T153 799Q153 830 175
852T229 875Q260 875 282 853T305 799Q305 768 283 747T229 725ZM471 725Q440 725 418 746T396 799Q396 830 418 852T471 875Q486 875 500 869T524 853T541 828T548 799Q548 768 525 747T471 725Z" />
<glyph unicode="&#xc5;" glyph-name="Aring" horiz-adv-x="701" d="M-3 35L62 53L306 670L346 678L395 688L641 49L704 35V0H369V35L447 51L388 219H177L117 57L228 35V0H-3V35ZM196 271H369L285 510L196 271ZM241 830Q241 851 249 870T271 903T306 926T350 934Q398
934 427 905T457 831Q457 810 449 791T427 758T392 735T348 727Q300 727 271 756T241 830ZM284 831Q284 801 303 782T350 762Q377 762 395 781T414 830Q414 859 395 879T348 899Q321 899 303 880T284 831Z" />
<glyph unicode="&#xc6;" glyph-name="AE" horiz-adv-x="962" d="M605 305V69Q617 55 634 48T675 41H792L903 231H938L897 0H360V35L435 54V307H256L123 57L228 35V0H-1V35L60 53L374 607L283 629V664H823L911 665V466H877L810 623H605V348H705L738 459H772V199H737L705
305H605ZM423 615L278 348H435V615H423Z" />
<glyph unicode="&#xc7;" glyph-name="Ccedilla" horiz-adv-x="723" d="M283 -224Q330 -208 355 -189T381 -143Q381 -123 367 -110T331 -90L383 -13Q294 -7 229 23T121 100T58 203T37 322Q37 399 69 465T156 579T287 655T447 683Q510 683 562 669T662 632L664 438H633L556
591Q527 617 496 631T425 645Q385 645 351 626T291 571T252 483T238 366Q238 285 254 222T300 115T369 49T453 26Q484 26 508 34T549 56L663 232H695L655 33Q624 21 597 12T542 -3T486 -12T426 -15H415L396 -43Q437 -48 464 -67T492 -121Q492 -170 438 -202T290
-249L283 -224Z" />
<glyph unicode="&#xc8;" glyph-name="Egrave" horiz-adv-x="636" d="M292 865L372 719H322L163 852V865H292ZM273 319V68Q298 40 343 39H465L576 231H611L570 0H24V35L101 54V609L24 629V664H497L584 665V466H550L483 625H273V365H378L411 475H445V215H410L378 319H273Z" />
<glyph unicode="&#xc9;" glyph-name="Eacute" horiz-adv-x="636" d="M525 865V852L362 719H311L387 865H525ZM273 319V68Q298 40 343 39H465L576 231H611L570 0H24V35L101 54V609L24 629V664H497L584 665V466H550L483 625H273V365H378L411 475H445V215H410L378 319H273Z" />
<glyph unicode="&#xca;" glyph-name="Ecircumflex" horiz-adv-x="636" d="M182 719L282 862H383L483 719H431L330 791L228 719H182ZM273 319V68Q298 40 343 39H465L576 231H611L570 0H24V35L101 54V609L24 629V664H497L584 665V466H550L483 625H273V365H378L411
475H445V215H410L378 319H273Z" />
<glyph unicode="&#xcb;" glyph-name="Edieresis" horiz-adv-x="636" d="M273 319V68Q298 40 343 39H465L576 231H611L570 0H24V35L101 54V609L24 629V664H497L584 665V466H550L483 625H273V365H378L411 475H445V215H410L378 319H273ZM207 725Q176 725 154 746T131
799Q131 830 153 852T207 875Q238 875 260 853T283 799Q283 768 261 747T207 725ZM449 725Q418 725 396 746T374 799Q374 830 396 852T449 875Q464 875 478 869T502 853T519 828T526 799Q526 768 503 747T449 725Z" />
<glyph unicode="&#xcc;" glyph-name="Igrave" horiz-adv-x="375" d="M24 35L101 54V610L24 629V664H350V629L273 610V54L350 35V0H24V35ZM393 865L473 719H423L264 852V865H393Z" />
<glyph unicode="&#xcd;" glyph-name="Iacute" horiz-adv-x="375" d="M24 35L101 54V610L24 629V664H350V629L273 610V54L350 35V0H24V35ZM369 865V852L206 719H155L231 865H369Z" />
<glyph unicode="&#xce;" glyph-name="Icircumflex" horiz-adv-x="375" d="M24 35L101 54V610L24 629V664H350V629L273 610V54L350 35V0H24V35ZM43 719L139 862H237L333 719H281L186 794L90 719H43Z" />
<glyph unicode="&#xcf;" glyph-name="Idieresis" horiz-adv-x="375" d="M83 721Q51 721 29 742T7 796Q7 826 29 849T83 872Q114 872 136 849T159 796Q159 764 137 743T83 721ZM291 721Q260 721 238 742T216 796Q216 826 238 849T291 872Q322 872 344 849T367 796Q367
764 345 743T291 721ZM24 35L101 54V610L24 629V664H350V629L273 610V54L350 35V0H24V35Z" />
<glyph unicode="&#xd0;" glyph-name="Eth" horiz-adv-x="782" d="M24 36L101 54V316H23V361H101V610L24 629V664L359 665Q447 664 519 641T643 576T722 476T750 345Q750 276 723 214T640 103T502 27T306 -1L24 0V36ZM271 316V69Q286 55 311 46T368 37Q408 37 443
57T505 113T547 201T563 315Q563 392 541 451T479 551T387 613T271 634V361H409V316H271Z" />
<glyph unicode="&#xd1;" glyph-name="Ntilde" horiz-adv-x="733" d="M366 769Q336 778 316 781T281 781T256 768T235 738L213 748L218 764Q232 804 248 829T284 866T331 878T392 867L436 854Q460 847 478 845T512 847T541 862T566 894L589 884L582 864Q565 821
549 795T513 756T468 744T409 756L366 769ZM578 -13L155 503L160 57L264 36V0H28V36L104 54V567Q89 586 71 601T29 624L11 630V664H244L595 236L590 603L488 629V664H720V629L645 608V82L647 -1L578 -13Z" />
<glyph unicode="&#xd2;" glyph-name="Ograve" horiz-adv-x="800" d="M349 865L429 719H379L220 852V865H349ZM415 25Q490 25 532 99T575 311Q575 376 562 436T524 541T464 614T384 642Q309 642 267 569T224 357Q224 288 238 228T277 122T338 51T415 25ZM401 683Q476
683 543 659T659 591T738 483T767 342Q767 260 736 194T653 81T535 9T397 -16Q324 -16 258 8T142 76T63 185T33 330Q33 407 63 472T145 584T262 657T401 683Z" />
<glyph unicode="&#xd3;" glyph-name="Oacute" horiz-adv-x="800" d="M582 865V852L419 719H368L444 865H582ZM415 25Q490 25 532 99T575 311Q575 376 562 436T524 541T464 614T384 642Q309 642 267 569T224 357Q224 288 238 228T277 122T338 51T415 25ZM401 683Q476
683 543 659T659 591T738 483T767 342Q767 260 736 194T653 81T535 9T397 -16Q324 -16 258 8T142 76T63 185T33 330Q33 407 63 472T145 584T262 657T401 683Z" />
<glyph unicode="&#xd4;" glyph-name="Ocircumflex" horiz-adv-x="800" d="M251 719L351 862H452L552 719H500L399 791L297 719H251ZM415 25Q490 25 532 99T575 311Q575 376 562 436T524 541T464 614T384 642Q309 642 267 569T224 357Q224 288 238 228T277 122T338
51T415 25ZM401 683Q476 683 543 659T659 591T738 483T767 342Q767 260 736 194T653 81T535 9T397 -16Q324 -16 258 8T142 76T63 185T33 330Q33 407 63 472T145 584T262 657T401 683Z" />
<glyph unicode="&#xd5;" glyph-name="Otilde" horiz-adv-x="800" d="M376 769Q346 778 326 781T291 781T266 768T245 738L223 748L228 764Q242 804 258 829T294 866T341 878T402 867L446 854Q470 847 488 845T522 847T551 862T576 894L599 884L592 864Q575 821
559 795T523 756T478 744T419 756L376 769ZM415 25Q490 25 532 99T575 311Q575 376 562 436T524 541T464 614T384 642Q309 642 267 569T224 357Q224 288 238 228T277 122T338 51T415 25ZM401 683Q476 683 543 659T659 591T738 483T767 342Q767 260 736 194T653
81T535 9T397 -16Q324 -16 258 8T142 76T63 185T33 330Q33 407 63 472T145 584T262 657T401 683Z" />
<glyph unicode="&#xd6;" glyph-name="Odieresis" horiz-adv-x="800" d="M279 725Q248 725 226 746T203 799Q203 830 225 852T279 875Q310 875 332 853T355 799Q355 768 333 747T279 725ZM521 725Q490 725 468 746T446 799Q446 830 468 852T521 875Q536 875 550
869T574 853T591 828T598 799Q598 768 575 747T521 725ZM415 25Q490 25 532 99T575 311Q575 376 562 436T524 541T464 614T384 642Q309 642 267 569T224 357Q224 288 238 228T277 122T338 51T415 25ZM401 683Q476 683 543 659T659 591T738 483T767 342Q767 260
736 194T653 81T535 9T397 -16Q324 -16 258 8T142 76T63 185T33 330Q33 407 63 472T145 584T262 657T401 683Z" />
<glyph unicode="&#xd7;" glyph-name="multiply" horiz-adv-x="574" d="M285 212L99 23L64 57L252 246L67 431L104 468L289 282L472 471L506 436L322 249L509 61L472 23L285 212Z" />
<glyph unicode="&#xd8;" glyph-name="Oslash" horiz-adv-x="800" d="M139 79Q90 124 62 187T33 330Q33 407 63 472T145 584T262 657T401 683Q464 683 520 667T623 618L687 689H739L654 594Q706 549 736 486T767 342Q767 260 736 194T653 81T535 9T397 -16Q333
-16 276 1T170 54L93 -32H40L139 79ZM415 25Q490 25 532 99T574 311Q574 356 568 398T549 478L261 156Q286 96 325 61T415 25ZM226 357Q226 268 247 198L534 519Q510 575 472 608T384 642Q310 642 268 569T226 357Z" />
<glyph unicode="&#xd9;" glyph-name="Ugrave" horiz-adv-x="738" d="M358 865L438 719H388L229 852V865H358ZM369 -18Q304 -18 253 -2T165 47T109 131T89 251V609L12 629V664H358V629L264 609V259Q264 160 307 110T423 59Q498 59 544 105T592 249L590 605L486
629V664H726V629L650 607V271Q650 134 578 58T369 -18Z" />
<glyph unicode="&#xda;" glyph-name="Uacute" horiz-adv-x="738" d="M589 865V852L426 719H375L451 865H589ZM369 -18Q304 -18 253 -2T165 47T109 131T89 251V609L12 629V664H358V629L264 609V259Q264 160 307 110T423 59Q498 59 544 105T592 249L590 605L486
629V664H726V629L650 607V271Q650 134 578 58T369 -18Z" />
<glyph unicode="&#xdb;" glyph-name="Ucircumflex" horiz-adv-x="738" d="M262 719L362 862H463L563 719H511L410 791L308 719H262ZM369 -18Q304 -18 253 -2T165 47T109 131T89 251V609L12 629V664H358V629L264 609V259Q264 160 307 110T423 59Q498 59 544 105T592
249L590 605L486 629V664H726V629L650 607V271Q650 134 578 58T369 -18Z" />
<glyph unicode="&#xdc;" glyph-name="Udieresis" horiz-adv-x="738" d="M369 -18Q304 -18 253 -2T165 47T109 131T89 251V609L12 629V664H358V629L264 609V259Q264 160 307 110T423 59Q498 59 544 105T592 249L590 605L486 629V664H726V629L650 607V271Q650 134
578 58T369 -18ZM289 725Q258 725 236 746T213 799Q213 830 235 852T289 875Q320 875 342 853T365 799Q365 768 343 747T289 725ZM531 725Q500 725 478 746T456 799Q456 830 478 852T531 875Q546 875 560 869T584 853T601 828T608 799Q608 768 585 747T531 725Z"
/>
<glyph unicode="&#xdd;" glyph-name="Yacute" horiz-adv-x="663" d="M421 284V54L500 35V0H170V35L249 54V263L59 612L0 629V664H338V629L246 610L393 318L545 607L445 629V664H663V629L601 608L421 284ZM568 865V852L405 719H354L430 865H568Z" />
<glyph unicode="&#xde;" glyph-name="Thorn" horiz-adv-x="643" d="M24 36L101 54V610L24 629V664H350V629L273 610V516H332Q406 516 460 503T549 467T602 413T620 347Q620 297 592 261T519 202T420 169T313 159V187Q373 201 412 236T452 332Q452 361 441 387T408
433T352 465T273 481V54L350 35V0H24V36Z" />
<glyph unicode="&#xdf;" glyph-name="germandbls" horiz-adv-x="686" d="M16 34L77 49V439H8V473L78 497Q85 549 110 595T176 676T271 731T388 752Q485 752 540 716T596 615Q596 589 587 569T562 532T528 502T490 475Q456 452 439 437T422 405Q422 388 434 379T476
355L550 319Q611 290 636 257T662 175Q662 134 644 100T595 40T521 0T429 -15Q391 -15 358 -7T296 17V164H320L369 55Q374 49 391 38T438 26Q476 26 497 49T519 104Q519 135 500 156T440 198L389 223Q313 259 313 327Q313 347 320 364T340 398T367 429T396 463Q423
494 440 526T458 604Q459 649 433 680T361 711Q337 711 315 702T275 671T248 614T238 528V0H16V34Z" />
<glyph unicode="&#xe0;" glyph-name="agrave" horiz-adv-x="528" d="M160 -15Q131 -15 107 -6T65 21T37 61T27 112Q27 173 69 205T203 260L298 283V361Q295 403 276 431T218 460Q193 460 180 450L177 331Q165 326 147 323T108 319Q78 319 60 333T41 377Q41 400
61 423T114 466T192 497T285 509Q366 509 411 473T457 350V93Q457 68 465 62T494 56H530V31Q507 19 484 9Q464 1 441 -6T394 -13Q352 -13 329 5T303 69H299Q289 54 276 39T246 12T208 -7T160 -15ZM246 71Q261 71 274 77T298 95V248L264 237Q216 222 197 198T178
145Q178 112 196 92T246 71ZM232 769L283 573H245L106 762V769H232Z" />
<glyph unicode="&#xe1;" glyph-name="aacute" horiz-adv-x="528" d="M160 -15Q131 -15 107 -6T65 21T37 61T27 112Q27 173 69 205T203 260L298 283V361Q295 403 276 431T218 460Q193 460 180 450L177 331Q165 326 147 323T108 319Q78 319 60 333T41 377Q41 400
61 423T114 466T192 497T285 509Q366 509 411 473T457 350V93Q457 68 465 62T494 56H530V31Q507 19 484 9Q464 1 441 -6T394 -13Q352 -13 329 5T303 69H299Q289 54 276 39T246 12T208 -7T160 -15ZM246 71Q261 71 274 77T298 95V248L264 237Q216 222 197 198T178
145Q178 112 196 92T246 71ZM420 769V762L280 573H243L293 769H420Z" />
<glyph unicode="&#xe2;" glyph-name="acircumflex" horiz-adv-x="528" d="M160 -15Q131 -15 107 -6T65 21T37 61T27 112Q27 173 69 205T203 260L298 283V361Q295 403 276 431T218 460Q193 460 180 450L177 331Q165 326 147 323T108 319Q78 319 60 333T41 377Q41
400 61 423T114 466T192 497T285 509Q366 509 411 473T457 350V93Q457 68 465 62T494 56H530V31Q507 19 484 9Q464 1 441 -6T394 -13Q352 -13 329 5T303 69H299Q289 54 276 39T246 12T208 -7T160 -15ZM246 71Q261 71 274 77T298 95V248L264 237Q216 222 197 198T178
145Q178 112 196 92T246 71ZM132 573L230 769H304L401 573H359L264 680L174 573H132Z" />
<glyph unicode="&#xe3;" glyph-name="atilde" horiz-adv-x="528" d="M160 -15Q131 -15 107 -6T65 21T37 61T27 112Q27 173 69 205T203 260L298 283V361Q295 403 276 431T218 460Q193 460 180 450L177 331Q165 326 147 323T108 319Q78 319 60 333T41 377Q41 400
61 423T114 466T192 497T285 509Q366 509 411 473T457 350V93Q457 68 465 62T494 56H530V31Q507 19 484 9Q464 1 441 -6T394 -13Q352 -13 329 5T303 69H299Q289 54 276 39T246 12T208 -7T160 -15ZM246 71Q261 71 274 77T298 95V248L264 237Q216 222 197 198T178
145Q178 112 196 92T246 71ZM236 614Q206 625 187 628T153 628T128 612T108 581L85 591L91 607Q121 687 161 711T269 711L313 695Q336 687 354 685T387 687T414 704T440 737L463 727L455 708Q438 665 421 638T383 598T338 585T278 599L236 614Z" />
<glyph unicode="&#xe4;" glyph-name="adieresis" horiz-adv-x="528" d="M160 -15Q131 -15 107 -6T65 21T37 61T27 112Q27 173 69 205T203 260L298 283V361Q295 403 276 431T218 460Q193 460 180 450L177 331Q165 326 147 323T108 319Q78 319 60 333T41 377Q41
400 61 423T114 466T192 497T285 509Q366 509 411 473T457 350V93Q457 68 465 62T494 56H530V31Q507 19 484 9Q464 1 441 -6T394 -13Q352 -13 329 5T303 69H299Q289 54 276 39T246 12T208 -7T160 -15ZM246 71Q261 71 274 77T298 95V248L264 237Q216 222 197 198T178
145Q178 112 196 92T246 71ZM159 588Q128 588 106 609T83 663Q83 694 105 716T159 739Q190 739 212 717T235 663Q235 631 213 610T159 588ZM368 588Q337 588 315 609T293 663Q293 694 315 716T368 739Q399 739 421 717T444 663Q444 631 422 610T368 588Z" />
<glyph unicode="&#xe5;" glyph-name="aring" horiz-adv-x="528" d="M160 -15Q131 -15 107 -6T65 21T37 61T27 112Q27 173 69 205T203 260L298 283V361Q295 403 276 431T218 460Q193 460 180 450L177 331Q165 326 147 323T108 319Q78 319 60 333T41 377Q41 400
61 423T114 466T192 497T285 509Q366 509 411 473T457 350V93Q457 68 465 62T494 56H530V31Q507 19 484 9Q464 1 441 -6T394 -13Q352 -13 329 5T303 69H299Q289 54 276 39T246 12T208 -7T160 -15ZM246 71Q261 71 274 77T298 95V248L264 237Q216 222 197 198T178
145Q178 112 196 92T246 71ZM156 670Q156 691 164 710T186 744T221 766T264 775Q312 775 341 745T371 672Q371 651 363 632T341 599T307 576T263 568Q215 568 186 597T156 670ZM199 672Q199 642 218 623T264 603Q291 603 309 622T328 670Q328 700 309 719T263 739Q236
739 218 720T199 672Z" />
<glyph unicode="&#xe6;" glyph-name="ae" horiz-adv-x="784" d="M159 -15Q100 -15 64 21T27 112Q27 143 38 166T75 207T141 238T239 264L299 276V356Q297 401 277 430T217 460Q205 460 195 457T180 449L179 332Q168 328 149 324T108 319Q78 319 60 334T42 378Q42
401 61 424T114 466T190 497T280 509Q331 509 361 493T408 450Q430 473 465 491T545 509Q636 509 685 455T747 304L445 264V234Q458 169 506 133T616 97Q637 97 655 101T688 113T715 127T736 140L751 121Q736 102 716 79T667 35T604 0T525 -14Q468 -14 420 11T341
83Q320 65 300 47T259 16T213 -6T159 -15ZM445 300L587 323Q585 354 579 380T563 425T539 456T508 467Q494 467 483 461T463 438T451 395T445 328V300ZM299 241L281 237Q224 224 202 198T179 142Q179 108 198 90T246 71Q272 71 288 88T314 137Q299 179 299 232V241Z"
/>
<glyph unicode="&#xe7;" glyph-name="ccedilla" horiz-adv-x="504" d="M135 -223Q182 -207 207 -188T233 -142Q233 -122 219 -109T183 -89L235 -11Q187 -6 149 15T83 69T41 146T26 243Q26 304 48 353T108 437T194 491T294 510Q332 510 365 500T422 474T461 435T475
387Q475 352 452 335T393 318Q379 318 367 320T350 326L321 451Q311 461 298 467T268 473Q226 473 200 432T174 327Q174 270 188 227T227 156T283 113T352 98Q375 98 396 103T433 116T461 130T475 141L488 123Q451 65 395 26T268 -13L248 -42Q289 -47 316 -66T344
-120Q344 -169 290 -201T142 -248L135 -223Z" />
<glyph unicode="&#xe8;" glyph-name="egrave" horiz-adv-x="522" d="M263 -13Q209 -13 165 7T91 62T43 144T26 244Q26 301 48 349T106 434T187 490T279 510Q376 510 425 453T487 294H167Q168 245 184 208T225 147T283 110T351 97Q392 97 422 111T478 140L494 121Q475
95 452 71T401 29T338 -1T263 -13ZM246 468Q216 468 194 436T167 331H326Q321 391 301 429T246 468ZM244 769L295 573H257L118 762V769H244Z" />
<glyph unicode="&#xe9;" glyph-name="eacute" horiz-adv-x="522" d="M421 769V762L281 573H244L294 769H421ZM263 -13Q209 -13 165 7T91 62T43 144T26 244Q26 301 48 349T106 434T187 490T279 510Q376 510 425 453T487 294H167Q168 245 184 208T225 147T283 110T351
97Q392 97 422 111T478 140L494 121Q475 95 452 71T401 29T338 -1T263 -13ZM246 468Q216 468 194 436T167 331H326Q321 391 301 429T246 468Z" />
<glyph unicode="&#xea;" glyph-name="ecircumflex" horiz-adv-x="522" d="M137 573L235 769H309L406 573H364L269 680L179 573H137ZM263 -13Q209 -13 165 7T91 62T43 144T26 244Q26 301 48 349T106 434T187 490T279 510Q376 510 425 453T487 294H167Q168 245 184
208T225 147T283 110T351 97Q392 97 422 111T478 140L494 121Q475 95 452 71T401 29T338 -1T263 -13ZM246 468Q216 468 194 436T167 331H326Q321 391 301 429T246 468Z" />
<glyph unicode="&#xeb;" glyph-name="edieresis" horiz-adv-x="522" d="M169 588Q138 588 116 609T93 663Q93 694 115 716T169 739Q200 739 222 717T245 663Q245 631 223 610T169 588ZM378 588Q347 588 325 609T303 663Q303 694 325 716T378 739Q409 739 431 717T454
663Q454 631 432 610T378 588ZM263 -13Q209 -13 165 7T91 62T43 144T26 244Q26 301 48 349T106 434T187 490T279 510Q376 510 425 453T487 294H167Q168 245 184 208T225 147T283 110T351 97Q392 97 422 111T478 140L494 121Q475 95 452 71T401 29T338 -1T263 -13ZM246
468Q216 468 194 436T167 331H326Q321 391 301 429T246 468Z" />
<glyph unicode="&#xec;" glyph-name="igrave" horiz-adv-x="317" d="M16 34L80 49V395L18 440V458L243 509V49L307 34V0H16V34ZM385 769L436 573H398L259 762V769H385Z" />
<glyph unicode="&#xed;" glyph-name="iacute" horiz-adv-x="317" d="M315 769V762L175 573H138L188 769H315ZM16 34L80 49V395L18 440V458L243 509V49L307 34V0H16V34Z" />
<glyph unicode="&#xee;" glyph-name="icircumflex" horiz-adv-x="317" d="M16 34L80 49V395L18 440V458L243 509V49L307 34V0H16V34ZM29 573L124 769H198L292 573H250L157 678L70 573H29Z" />
<glyph unicode="&#xef;" glyph-name="idieresis" horiz-adv-x="317" d="M61 588Q30 588 8 609T-15 663Q-15 694 7 716T61 739Q92 739 114 717T137 663Q137 631 115 610T61 588ZM255 588Q225 588 203 609T181 663Q181 694 203 716T255 739Q286 739 309 717T332
663Q332 631 309 610T255 588ZM16 34L80 49V395L18 440V458L243 509V49L307 34V0H16V34Z" />
<glyph unicode="&#xf0;" glyph-name="eth" horiz-adv-x="607" d="M72 566L212 634Q183 660 151 683T83 730L98 756Q156 740 205 720T298 677L437 745L453 712L336 655Q399 615 444 569T518 473T561 373T575 274Q575 204 554 150T496 59T409 2T300 -18Q235 -18
185 3T100 59T47 141T29 238Q29 296 52 343T113 425T196 477T288 496Q298 496 308 496T329 494Q294 554 240 608L89 534L72 566ZM401 198Q401 244 397 286T381 366Q361 409 339 434T287 459Q264 459 248 446T222 410T207 359T202 301Q202 249 210 199T233 109T270
45T320 20Q360 20 380 66T401 198Z" />
<glyph unicode="&#xf1;" glyph-name="ntilde" horiz-adv-x="626" d="M16 34L77 49V395L17 436V454L215 511H220L229 417H232Q244 429 262 445T303 475T353 499T410 509Q477 509 515 472T554 354V49L616 33V0H339V34L392 49V320Q391 362 371 388T309 414Q287 413
270 406T239 389V49L292 34V0H16V34ZM283 614Q253 625 234 628T200 628T175 612T155 581L132 591L138 607Q168 687 208 711T316 711L360 695Q383 687 401 685T434 687T461 704T487 737L510 727L502 708Q485 665 468 638T430 598T385 585T325 599L283 614Z" />
<glyph unicode="&#xf2;" glyph-name="ograve" horiz-adv-x="603" d="M284 473Q259 473 243 457T217 416T203 360T199 301Q199 247 207 197T230 108T268 46T319 22Q361 22 382 69T403 200Q403 256 395 306T370 393T333 451T284 473ZM302 -15Q236 -15 185 6T99 62T46
143T28 240Q28 298 49 347T108 433T195 489T302 509Q362 509 412 491T499 439T555 359T575 257Q575 198 554 148T497 62T410 6T302 -15ZM270 769L321 573H283L144 762V769H270Z" />
<glyph unicode="&#xf3;" glyph-name="oacute" horiz-adv-x="603" d="M457 769V762L317 573H280L330 769H457ZM284 473Q259 473 243 457T217 416T203 360T199 301Q199 247 207 197T230 108T268 46T319 22Q361 22 382 69T403 200Q403 256 395 306T370 393T333 451T284
473ZM302 -15Q236 -15 185 6T99 62T46 143T28 240Q28 298 49 347T108 433T195 489T302 509Q362 509 412 491T499 439T555 359T575 257Q575 198 554 148T497 62T410 6T302 -15Z" />
<glyph unicode="&#xf4;" glyph-name="ocircumflex" horiz-adv-x="603" d="M170 573L268 769H342L439 573H397L302 680L212 573H170ZM284 473Q259 473 243 457T217 416T203 360T199 301Q199 247 207 197T230 108T268 46T319 22Q361 22 382 69T403 200Q403 256 395
306T370 393T333 451T284 473ZM302 -15Q236 -15 185 6T99 62T46 143T28 240Q28 298 49 347T108 433T195 489T302 509Q362 509 412 491T499 439T555 359T575 257Q575 198 554 148T497 62T410 6T302 -15Z" />
<glyph unicode="&#xf5;" glyph-name="otilde" horiz-adv-x="603" d="M284 473Q259 473 243 457T217 416T203 360T199 301Q199 247 207 197T230 108T268 46T319 22Q361 22 382 69T403 200Q403 256 395 306T370 393T333 451T284 473ZM302 -15Q236 -15 185 6T99 62T46
143T28 240Q28 298 49 347T108 433T195 489T302 509Q362 509 412 491T499 439T555 359T575 257Q575 198 554 148T497 62T410 6T302 -15ZM274 614Q244 625 225 628T191 628T166 612T146 581L123 591L129 607Q159 687 199 711T307 711L351 695Q374 687 392 685T425
687T452 704T478 737L501 727L493 708Q476 665 459 638T421 598T376 585T316 599L274 614Z" />
<glyph unicode="&#xf6;" glyph-name="odieresis" horiz-adv-x="603" d="M197 588Q166 588 144 609T121 663Q121 694 143 716T197 739Q228 739 250 717T273 663Q273 631 251 610T197 588ZM406 588Q375 588 353 609T331 663Q331 694 353 716T406 739Q437 739 459
717T482 663Q482 631 460 610T406 588ZM284 473Q259 473 243 457T217 416T203 360T199 301Q199 247 207 197T230 108T268 46T319 22Q361 22 382 69T403 200Q403 256 395 306T370 393T333 451T284 473ZM302 -15Q236 -15 185 6T99 62T46 143T28 240Q28 298 49 347T108
433T195 489T302 509Q362 509 412 491T499 439T555 359T575 257Q575 198 554 148T497 62T410 6T302 -15Z" />
<glyph unicode="&#xf7;" glyph-name="divide" horiz-adv-x="574" d="M50 224V271H524V224H50ZM287 330Q259 330 239 351T218 401Q218 428 238 449T287 470Q315 470 336 449T358 401Q358 386 352 374T337 351T314 336T287 330ZM287 25Q258 25 238 45T218 95Q218
122 238 143T287 164Q315 164 336 143T357 95Q357 66 336 46T287 25Z" />
<glyph unicode="&#xf8;" glyph-name="oslash" horiz-adv-x="603" d="M32 -48L113 48Q71 84 50 134T28 240Q28 298 49 347T108 433T195 489T302 509Q397 509 465 464L527 537H572L493 443Q531 410 553 363T575 257Q575 198 554 148T497 62T410 6T302 -15Q254 -15
214 -4T142 28L78 -48H32ZM283 473Q258 473 242 457T215 415T201 359T197 301Q197 225 212 164L381 365Q365 415 340 444T283 473ZM404 199Q404 233 401 264T392 324L223 124Q239 77 263 50T319 22Q361 22 383 70T404 199Z" />
<glyph unicode="&#xf9;" glyph-name="ugrave" horiz-adv-x="620" d="M383 69Q369 55 352 40T313 13T268 -7T215 -15Q186 -15 160 -8T114 18T81 65T69 138V412L8 442V464L231 503V171Q231 128 248 103T311 78Q333 78 350 84T381 100V416L317 445V467L543 506V64L607
48V20L395 -12L383 69ZM278 769L329 573H291L152 762V769H278Z" />
<glyph unicode="&#xfa;" glyph-name="uacute" horiz-adv-x="620" d="M465 769V762L325 573H288L338 769H465ZM383 69Q369 55 352 40T313 13T268 -7T215 -15Q186 -15 160 -8T114 18T81 65T69 138V412L8 442V464L231 503V171Q231 128 248 103T311 78Q333 78 350
84T381 100V416L317 445V467L543 506V64L607 48V20L395 -12L383 69Z" />
<glyph unicode="&#xfb;" glyph-name="ucircumflex" horiz-adv-x="620" d="M178 573L276 769H350L447 573H405L310 680L220 573H178ZM383 69Q369 55 352 40T313 13T268 -7T215 -15Q186 -15 160 -8T114 18T81 65T69 138V412L8 442V464L231 503V171Q231 128 248 103T311
78Q333 78 350 84T381 100V416L317 445V467L543 506V64L607 48V20L395 -12L383 69Z" />
<glyph unicode="&#xfc;" glyph-name="udieresis" horiz-adv-x="620" d="M205 588Q174 588 152 609T129 663Q129 694 151 716T205 739Q236 739 258 717T281 663Q281 631 259 610T205 588ZM414 588Q383 588 361 609T339 663Q339 694 361 716T414 739Q445 739 467
717T490 663Q490 631 468 610T414 588ZM383 69Q369 55 352 40T313 13T268 -7T215 -15Q186 -15 160 -8T114 18T81 65T69 138V412L8 442V464L231 503V171Q231 128 248 103T311 78Q333 78 350 84T381 100V416L317 445V467L543 506V64L607 48V20L395 -12L383 69Z" />
<glyph unicode="&#xfd;" glyph-name="yacute" horiz-adv-x="515" d="M363 462V494H519V461L475 448L241 -137Q222 -184 195 -211T124 -238Q108 -238 93 -232T67 -215T49 -189T42 -155Q42 -119 66 -96T124 -73Q151 -73 170 -87T201 -128H203L236 -46L36 450L-4
461V494H268V461L211 450L314 153L422 446L363 462ZM463 769V762L323 573H286L336 769H463Z" />
<glyph unicode="&#xfe;" glyph-name="thorn" horiz-adv-x="606" d="M278 -10Q264 -10 251 -8T227 -2V-167L335 -186V-219H-5V-186L65 -170V625L4 663V681L227 746V428Q239 441 254 455T288 480T329 498T379 505Q415 505 450 492T514 451T559 381T577 281Q577 216
551 163T483 71T387 12T278 -10ZM279 422Q262 422 250 417T227 406V72Q237 57 256 43T304 29Q351 29 382 76T413 211Q413 262 401 301T370 367T327 408T279 422Z" />
<glyph unicode="&#xff;" glyph-name="ydieresis" horiz-adv-x="515" d="M363 462V494H519V461L475 448L241 -137Q222 -184 195 -211T124 -238Q108 -238 93 -232T67 -215T49 -189T42 -155Q42 -119 66 -96T124 -73Q151 -73 170 -87T201 -128H203L236 -46L36 450L-4
461V494H268V461L211 450L314 153L422 446L363 462ZM182 588Q151 588 129 609T106 663Q106 694 128 716T182 739Q213 739 235 717T258 663Q258 631 236 610T182 588ZM391 588Q360 588 338 609T316 663Q316 694 338 716T391 739Q422 739 444 717T467 663Q467 631
445 610T391 588Z" />
<glyph unicode="&#x100;" glyph-name="Amacron" horiz-adv-x="701" d="M-3 35L62 53L306 670L346 678L395 688L641 49L704 35V0H369V35L447 51L388 219H177L117 57L228 35V0H-3V35ZM196 271H369L285 510L196 271ZM198 830H500V757H198V830Z" />
<glyph unicode="&#x101;" glyph-name="amacron" horiz-adv-x="528" d="M160 -15Q131 -15 107 -6T65 21T37 61T27 112Q27 173 69 205T203 260L298 283V361Q295 403 276 431T218 460Q193 460 180 450L177 331Q165 326 147 323T108 319Q78 319 60 333T41 377Q41 400
61 423T114 466T192 497T285 509Q366 509 411 473T457 350V93Q457 68 465 62T494 56H530V31Q507 19 484 9Q464 1 441 -6T394 -13Q352 -13 329 5T303 69H299Q289 54 276 39T246 12T208 -7T160 -15ZM246 71Q261 71 274 77T298 95V248L264 237Q216 222 197 198T178
145Q178 112 196 92T246 71ZM113 695H415V622H113V695Z" />
<glyph unicode="&#x102;" glyph-name="Abreve" horiz-adv-x="701" d="M-3 35L62 53L306 670L346 678L395 688L641 49L704 35V0H369V35L447 51L388 219H177L117 57L228 35V0H-3V35ZM196 271H369L285 510L196 271ZM344 713Q309 713 284 725T242 759T217 806T208
862H245Q258 835 282 815T351 794Q396 794 419 814T454 862H489Q489 833 480 807T453 759T407 726T344 713Z" />
<glyph unicode="&#x103;" glyph-name="abreve" horiz-adv-x="528" d="M160 -15Q131 -15 107 -6T65 21T37 61T27 112Q27 173 69 205T203 260L298 283V361Q295 403 276 431T218 460Q193 460 180 450L177 331Q165 326 147 323T108 319Q78 319 60 333T41 377Q41 400
61 423T114 466T192 497T285 509Q366 509 411 473T457 350V93Q457 68 465 62T494 56H530V31Q507 19 484 9Q464 1 441 -6T394 -13Q352 -13 329 5T303 69H299Q289 54 276 39T246 12T208 -7T160 -15ZM246 71Q261 71 274 77T298 95V248L264 237Q216 222 197 198T178
145Q178 112 196 92T246 71ZM263 578Q233 578 208 588T166 621T138 677T128 761H158Q169 709 196 684T265 659Q350 659 373 761H401Q400 671 362 625T263 578Z" />
<glyph unicode="&#x104;" glyph-name="Aogonek" horiz-adv-x="701" d="M-3 35L62 53L306 670L346 678L395 688L641 49L704 35V0H505Q457 -24 442 -52T426 -99Q426 -123 439 -138T474 -153Q491 -153 505 -145T538 -118L557 -133Q546 -154 534 -173T505 -208T467
-232T417 -241Q374 -241 347 -217T320 -153Q320 -135 326 -118T349 -81T392 -40T460 10L386 219H177L117 57L228 35V0H-3V35ZM196 271H368L285 510L196 271Z" />
<glyph unicode="&#x105;" glyph-name="aogonek" horiz-adv-x="528" d="M417 -11Q357 -15 333 5T304 69H299Q289 54 276 39T246 12T208 -7T160 -15Q131 -15 107 -6T65 21T37 61T27 112Q27 142 37 165T69 205T124 235T203 260L298 283V361Q295 403 276 431T218 460Q193
460 180 450L177 331Q165 326 147 323T108 319Q78 319 60 333T41 376Q41 399 61 422T114 465T192 497T285 509Q366 509 411 473T457 350V93Q457 68 465 62T494 56H530V33Q489 8 463 -11T422 -45T401 -75T395 -103Q395 -124 408 -138T443 -153Q460 -153 474 -145T506
-118L527 -133Q515 -154 502 -173T473 -208T435 -232T386 -241Q343 -241 316 -217T289 -152Q289 -114 319 -82T417 -15V-11ZM246 71Q261 71 274 77T298 95V248L265 237Q218 221 198 198T178 145Q178 112 196 92T246 71Z" />
<glyph unicode="&#x106;" glyph-name="Cacute" horiz-adv-x="723" d="M426 -15Q326 -15 253 13T131 89T60 197T37 322Q37 399 69 465T156 579T287 655T447 683Q510 683 562 669T662 632L664 438H633L556 591Q527 617 496 631T425 645Q385 645 351 626T291 571T252
483T238 366Q238 285 254 222T300 115T369 49T453 26Q484 26 508 34T549 56L663 232H695L655 33Q624 21 597 12T542 -3T486 -12T426 -15ZM612 865V852L449 719H398L474 865H612Z" />
<glyph unicode="&#x107;" glyph-name="cacute" horiz-adv-x="504" d="M434 769V762L294 573H257L307 769H434ZM268 -13Q214 -13 169 6T93 58T44 139T26 243Q26 304 48 353T108 437T194 491T294 510Q332 510 365 500T422 474T461 435T475 387Q475 352 452 335T393
318Q379 318 367 320T350 326L321 451Q311 461 298 467T268 473Q226 473 200 432T174 327Q174 270 188 227T227 156T283 113T352 98Q375 98 396 103T433 116T461 130T475 141L488 123Q451 65 395 26T268 -13Z" />
<glyph unicode="&#x108;" glyph-name="Ccircumflex" horiz-adv-x="723" d="M280 719L380 862H481L581 719H529L428 791L326 719H280ZM426 -15Q326 -15 253 13T131 89T60 197T37 322Q37 399 69 465T156 579T287 655T447 683Q510 683 562 669T662 632L664 438H633L556
591Q527 617 496 631T425 645Q385 645 351 626T291 571T252 483T238 366Q238 285 254 222T300 115T369 49T453 26Q484 26 508 34T549 56L663 232H695L655 33Q624 21 597 12T542 -3T486 -12T426 -15Z" />
<glyph unicode="&#x109;" glyph-name="ccircumflex" horiz-adv-x="504" d="M146 573L244 769H318L415 573H373L278 680L188 573H146ZM268 -13Q214 -13 169 6T93 58T44 139T26 243Q26 304 48 353T108 437T194 491T294 510Q332 510 365 500T422 474T461 435T475
387Q475 352 452 335T393 318Q379 318 367 320T350 326L321 451Q311 461 298 467T268 473Q226 473 200 432T174 327Q174 270 188 227T227 156T283 113T352 98Q375 98 396 103T433 116T461 130T475 141L488 123Q451 65 395 26T268 -13Z" />
<glyph unicode="&#x10a;" glyph-name="Cdotaccent" horiz-adv-x="723" d="M426 -15Q326 -15 253 13T131 89T60 197T37 322Q37 399 69 465T156 579T287 655T447 683Q510 683 562 669T662 632L664 438H633L556 591Q527 617 496 631T425 645Q385 645 351 626T291
571T252 483T238 366Q238 285 254 222T300 115T369 49T453 26Q484 26 508 34T549 56L663 232H695L655 33Q624 21 597 12T542 -3T486 -12T426 -15ZM427 723Q392 723 369 746T345 805Q345 840 368 864T427 889Q462 889 487 865T512 805Q512 788 506 773T488 747T461
730T427 723Z" />
<glyph unicode="&#x10b;" glyph-name="cdotaccent" horiz-adv-x="504" d="M268 -13Q214 -13 169 6T93 58T44 139T26 243Q26 304 48 353T108 437T194 491T294 510Q332 510 365 500T422 474T461 435T475 387Q475 352 452 335T393 318Q379 318 367 320T350 326L321
451Q311 461 298 467T268 473Q226 473 200 432T174 327Q174 270 188 227T227 156T283 113T352 98Q375 98 396 103T433 116T461 130T475 141L488 123Q451 65 395 26T268 -13ZM278 580Q243 580 219 604T195 663Q195 698 219 722T278 746Q313 746 337 722T362 663Q362
628 338 604T278 580Z" />
<glyph unicode="&#x10c;" glyph-name="Ccaron" horiz-adv-x="723" d="M576 862L476 719H375L275 862H326L427 788L529 862H576ZM426 -15Q326 -15 253 13T131 89T60 197T37 322Q37 399 69 465T156 579T287 655T447 683Q510 683 562 669T662 632L664 438H633L556
591Q527 617 496 631T425 645Q385 645 351 626T291 571T252 483T238 366Q238 285 254 222T300 115T369 49T453 26Q484 26 508 34T549 56L663 232H695L655 33Q624 21 597 12T542 -3T486 -12T426 -15Z" />
<glyph unicode="&#x10d;" glyph-name="ccaron" horiz-adv-x="504" d="M412 769L314 573H240L143 769H185L280 662L371 769H412ZM268 -13Q214 -13 169 6T93 58T44 139T26 243Q26 304 48 353T108 437T194 491T294 510Q332 510 365 500T422 474T461 435T475 387Q475
352 452 335T393 318Q379 318 367 320T350 326L321 451Q311 461 298 467T268 473Q226 473 200 432T174 327Q174 270 188 227T227 156T283 113T352 98Q375 98 396 103T433 116T461 130T475 141L488 123Q451 65 395 26T268 -13Z" />
<glyph unicode="&#x10e;" glyph-name="Dcaron" horiz-adv-x="782" d="M513 862L413 719H312L212 862H263L364 788L466 862H513ZM271 69Q286 55 311 46T369 37Q409 37 444 57T506 113T547 201T563 315Q563 392 541 451T479 551T387 613T271 634V69ZM24 36L101 54V610L24
629V664L359 665Q447 664 519 641T643 576T722 476T750 345Q750 276 723 214T640 103T502 27T306 -1L24 0V36Z" />
<glyph unicode="&#x10f;" glyph-name="dcaron" horiz-adv-x="609" d="M581 522L600 729H719V722L610 522H581ZM294 692L535 748V64L593 49V21L392 -12L378 52Q355 27 319 6T231 -15Q186 -15 149 3T84 52T41 128T26 225Q26 287 50 338T116 425T213 481T329 501Q334
501 346 501T373 498V636L294 675V692ZM325 67Q339 67 351 71T373 81V405Q357 433 337 449T287 465Q268 465 250 456T218 425T196 371T187 290Q187 242 197 201T226 130T270 84T325 67Z" />
<glyph unicode="&#x110;" glyph-name="Dcroat" horiz-adv-x="782" d="M24 36L101 54V316H23V361H101V610L24 629V664L359 665Q447 664 519 641T643 576T722 476T750 345Q750 276 723 214T640 103T502 27T306 -1L24 0V36ZM271 316V69Q286 55 311 46T368 37Q408
37 443 57T505 113T547 201T563 315Q563 392 541 451T479 551T387 613T271 634V361H409V316H271Z" />
<glyph unicode="&#x111;" glyph-name="dcroat" horiz-adv-x="609" d="M294 692L535 748V604H595V565H535V64L593 49V21L392 -12L378 51Q355 25 319 5T231 -15Q186 -15 149 3T84 52T41 128T26 225Q26 287 49 338T114 425T210 481T329 501Q334 501 346 501T373 498V565H207V604H373V646L294
675V692ZM324 68Q338 68 350 72T373 83V412Q358 437 339 451T291 465Q272 465 254 456T221 426T198 374T189 296Q189 246 199 205T228 133T271 85T324 68Z" />
<glyph unicode="&#x112;" glyph-name="Emacron" horiz-adv-x="636" d="M273 319V68Q298 40 343 39H465L576 231H611L570 0H24V35L101 54V609L24 629V664H497L584 665V466H550L483 625H273V365H378L411 475H445V215H410L378 319H273ZM176 830H478V757H176V830Z" />
<glyph unicode="&#x113;" glyph-name="emacron" horiz-adv-x="522" d="M263 -13Q209 -13 165 7T91 62T43 144T26 244Q26 301 48 349T106 434T187 490T279 510Q376 510 425 453T487 294H167Q168 245 184 208T225 147T283 110T351 97Q392 97 422 111T478 140L494
121Q475 95 452 71T401 29T338 -1T263 -13ZM246 468Q216 468 194 436T167 331H326Q321 391 301 429T246 468ZM114 695H416V622H114V695Z" />
<glyph unicode="&#x114;" glyph-name="Ebreve" horiz-adv-x="636" d="M273 319V68Q298 40 343 39H465L576 231H611L570 0H24V35L101 54V609L24 629V664H497L584 665V466H550L483 625H273V365H378L411 475H445V215H410L378 319H273ZM334 713Q299 713 274 725T232
759T207 806T198 862H235Q248 835 272 815T341 794Q386 794 409 814T444 862H479Q479 833 470 807T443 759T397 726T334 713Z" />
<glyph unicode="&#x115;" glyph-name="ebreve" horiz-adv-x="522" d="M263 -13Q209 -13 165 7T91 62T43 144T26 244Q26 301 48 349T106 434T187 490T279 510Q376 510 425 453T487 294H167Q168 245 184 208T225 147T283 110T351 97Q392 97 422 111T478 140L494
121Q475 95 452 71T401 29T338 -1T263 -13ZM246 468Q216 468 194 436T167 331H326Q321 391 301 429T246 468ZM276 578Q246 578 221 588T179 621T151 677T141 761H171Q182 709 209 684T278 659Q363 659 386 761H414Q413 671 375 625T276 578Z" />
<glyph unicode="&#x116;" glyph-name="Edotaccent" horiz-adv-x="636" d="M340 723Q305 723 282 746T258 805Q258 840 281 864T340 889Q375 889 400 865T425 805Q425 788 419 773T401 747T374 730T340 723ZM273 319V68Q298 40 343 39H465L576 231H611L570 0H24V35L101
54V609L24 629V664H497L584 665V466H550L483 625H273V365H378L411 475H445V215H410L378 319H273Z" />
<glyph unicode="&#x117;" glyph-name="edotaccent" horiz-adv-x="522" d="M263 -13Q209 -13 165 7T91 62T43 144T26 244Q26 301 48 349T106 434T187 490T279 510Q376 510 425 453T487 294H167Q168 245 184 208T225 147T283 110T351 97Q392 97 422 111T478 140L494
121Q475 95 452 71T401 29T338 -1T263 -13ZM246 468Q216 468 194 436T167 331H326Q321 391 301 429T246 468ZM276 580Q241 580 217 604T193 663Q193 698 217 722T276 746Q311 746 335 722T360 663Q360 628 336 604T276 580Z" />
<glyph unicode="&#x118;" glyph-name="Eogonek" horiz-adv-x="636" d="M273 319V68Q298 40 343 39H465L576 231H611L570 0H476Q459 -21 449 -36T433 -64T425 -86T423 -102Q423 -125 436 -139T470 -153Q487 -153 501 -145T534 -118L554 -133Q543 -154 530 -173T501
-208T463 -232T414 -241Q370 -241 344 -217T317 -152Q317 -117 345 -82T445 0H24V35L101 54V609L24 629V664H497L584 665V466H550L483 625H273V365H378L411 475H445V215H410L378 319H273Z" />
<glyph unicode="&#x119;" glyph-name="eogonek" horiz-adv-x="522" d="M263 -13Q209 -13 165 7T91 62T43 144T26 244Q26 301 48 349T106 434T187 490T279 510Q376 510 425 453T487 294H167Q168 245 184 208T225 147T283 110T351 97Q392 97 422 111T478 140L494
121Q481 103 465 84T424 45Q361 -10 341 -47T320 -104Q320 -125 333 -139T368 -153Q384 -153 398 -145T431 -118L451 -133Q439 -154 427 -173T398 -208T360 -232T311 -241Q267 -241 241 -217T214 -153Q214 -135 220 -118T242 -83T284 -45T348 -1V2Q328 -5 307 -9T263
-13ZM246 468Q216 468 194 436T167 331H326Q321 391 301 429T246 468Z" />
<glyph unicode="&#x11a;" glyph-name="Ecaron" horiz-adv-x="636" d="M486 862L386 719H285L185 862H236L337 788L439 862H486ZM273 319V68Q298 40 343 39H465L576 231H611L570 0H24V35L101 54V609L24 629V664H497L584 665V466H550L483 625H273V365H378L411 475H445V215H410L378
319H273Z" />
<glyph unicode="&#x11b;" glyph-name="ecaron" horiz-adv-x="522" d="M408 769L310 573H236L139 769H181L276 662L367 769H408ZM263 -13Q209 -13 165 7T91 62T43 144T26 244Q26 301 48 349T106 434T187 490T279 510Q376 510 425 453T487 294H167Q168 245 184 208T225
147T283 110T351 97Q392 97 422 111T478 140L494 121Q475 95 452 71T401 29T338 -1T263 -13ZM246 468Q216 468 194 436T167 331H326Q321 391 301 429T246 468Z" />
<glyph unicode="&#x11c;" glyph-name="Gcircumflex" horiz-adv-x="782" d="M292 719L392 862H493L593 719H541L440 791L338 719H292ZM432 -16Q326 -16 251 13T129 90T60 198T38 319Q38 400 72 467T165 582T301 656T462 683Q531 683 588 669T687 639L696 439H667L569
600Q536 624 508 633T448 643Q399 643 360 622T294 561T251 469T236 351Q236 269 254 209T303 108T375 49T461 29Q487 29 506 33T543 46V257L431 273V316H765V276L709 262V40L671 28Q651 22 624 15T566 0T501 -11T432 -16Z" />
<glyph unicode="&#x11d;" glyph-name="gcircumflex" horiz-adv-x="554" d="M130 573L228 769H302L399 573H357L262 680L172 573H130ZM432 440L430 436Q453 416 465 392T477 338Q477 304 462 274T418 222T350 187T261 174Q233 174 209 178T163 190Q147 174 147
157Q147 142 159 132T197 121L406 113Q473 110 506 78T539 -6Q539 -54 512 -96T440 -169T336 -219T211 -238Q112 -238 63 -206T14 -120Q14 -82 39 -58T106 -16V-10Q74 0 54 23T34 79Q34 112 56 140T128 203V205Q89 227 67 261T45 338Q45 377 62 408T109 462T178
497T261 509Q296 509 324 503T397 484L551 499V433L432 440ZM151 -24Q142 -35 136 -49T130 -81Q130 -131 171 -156T278 -182Q320 -182 350 -173T398 -149T426 -119T435 -88Q435 -68 423 -55T388 -36L151 -24ZM187 374Q187 340 194 310T213 258T241 224T276 211Q302
211 319 238T336 315Q336 351 329 380T309 430T280 462T246 474Q218 474 202 447T187 374Z" />
<glyph unicode="&#x11e;" glyph-name="Gbreve" horiz-adv-x="782" d="M441 713Q406 713 381 725T339 759T314 806T305 862H342Q355 835 379 815T448 794Q493 794 516 814T551 862H586Q586 833 577 807T550 759T504 726T441 713ZM432 -16Q326 -16 251 13T129 90T60
198T38 319Q38 400 72 467T165 582T301 656T462 683Q531 683 588 669T687 639L696 439H667L569 600Q536 624 508 633T448 643Q399 643 360 622T294 561T251 469T236 351Q236 269 254 209T303 108T375 49T461 29Q487 29 506 33T543 46V257L431 273V316H765V276L709
262V40L671 28Q651 22 624 15T566 0T501 -11T432 -16Z" />
<glyph unicode="&#x11f;" glyph-name="gbreve" horiz-adv-x="554" d="M432 440L430 436Q453 416 465 392T477 338Q477 304 462 274T418 222T350 187T261 174Q233 174 209 178T163 190Q147 174 147 157Q147 142 159 132T197 121L406 113Q473 110 506 78T539 -6Q539
-54 512 -96T440 -169T336 -219T211 -238Q112 -238 63 -206T14 -120Q14 -82 39 -58T106 -16V-10Q74 0 54 23T34 79Q34 112 56 140T128 203V205Q89 227 67 261T45 338Q45 377 62 408T109 462T178 497T261 509Q296 509 324 503T397 484L551 499V433L432 440ZM151
-24Q142 -35 136 -49T130 -81Q130 -131 171 -156T278 -182Q320 -182 350 -173T398 -149T426 -119T435 -88Q435 -68 423 -55T388 -36L151 -24ZM187 374Q187 340 194 310T213 258T241 224T276 211Q302 211 319 238T336 315Q336 351 329 380T309 430T280 462T246 474Q218
474 202 447T187 374ZM261 578Q231 578 206 588T164 621T136 677T126 761H156Q167 709 194 684T263 659Q348 659 371 761H399Q398 671 360 625T261 578Z" />
<glyph unicode="&#x120;" glyph-name="Gdotaccent" horiz-adv-x="782" d="M442 723Q407 723 384 746T360 805Q360 840 383 864T442 889Q477 889 502 865T527 805Q527 788 521 773T503 747T476 730T442 723ZM432 -16Q326 -16 251 13T129 90T60 198T38 319Q38 400
72 467T165 582T301 656T462 683Q531 683 588 669T687 639L696 439H667L569 600Q536 624 508 633T448 643Q399 643 360 622T294 561T251 469T236 351Q236 269 254 209T303 108T375 49T461 29Q487 29 506 33T543 46V257L431 273V316H765V276L709 262V40L671 28Q651
22 624 15T566 0T501 -11T432 -16Z" />
<glyph unicode="&#x121;" glyph-name="gdotaccent" horiz-adv-x="554" d="M432 440L430 436Q453 416 465 392T477 338Q477 304 462 274T418 222T350 187T261 174Q233 174 209 178T163 190Q147 174 147 157Q147 142 159 132T197 121L406 113Q473 110 506 78T539
-6Q539 -54 512 -96T440 -169T336 -219T211 -238Q112 -238 63 -206T14 -120Q14 -82 39 -58T106 -16V-10Q74 0 54 23T34 79Q34 112 56 140T128 203V205Q89 227 67 261T45 338Q45 377 62 408T109 462T178 497T261 509Q296 509 324 503T397 484L551 499V433L432 440ZM151
-24Q142 -35 136 -49T130 -81Q130 -131 171 -156T278 -182Q320 -182 350 -173T398 -149T426 -119T435 -88Q435 -68 423 -55T388 -36L151 -24ZM187 374Q187 340 194 310T213 258T241 224T276 211Q302 211 319 238T336 315Q336 351 329 380T309 430T280 462T246 474Q218
474 202 447T187 374ZM262 580Q227 580 203 604T179 663Q179 698 203 722T262 746Q297 746 321 722T346 663Q346 628 322 604T262 580Z" />
<glyph unicode="&#x122;" glyph-name="Gcommaaccent" horiz-adv-x="782" d="M309 -225Q363 -208 385 -189T408 -146Q408 -125 392 -113T352 -98V-92Q363 -66 384 -54T433 -41Q470 -41 494 -62T519 -119Q519 -167 470 -200T317 -250L309 -225ZM432 -16Q326 -16
251 13T129 90T60 198T38 319Q38 400 72 467T165 582T301 656T462 683Q531 683 588 669T687 639L696 439H667L569 600Q536 624 508 633T448 643Q399 643 360 622T294 561T251 469T236 351Q236 269 254 209T303 108T375 49T461 29Q487 29 506 33T543 46V257L431
273V316H765V276L709 262V40L671 28Q651 22 624 15T566 0T501 -11T432 -16Z" />
<glyph unicode="&#x123;" glyph-name="gcommaaccent" horiz-adv-x="554" d="M385 770Q332 753 310 734T287 691Q287 670 303 658T343 643V637Q332 611 311 599T261 586Q225 586 201 607T176 664Q176 712 225 745T378 796L385 770ZM432 440L430 436Q453 416 465
392T477 338Q477 304 462 274T418 222T350 187T261 174Q233 174 209 178T163 190Q147 174 147 157Q147 142 159 132T197 121L406 113Q473 110 506 78T539 -6Q539 -54 512 -96T440 -169T336 -219T211 -238Q112 -238 63 -206T14 -120Q14 -82 39 -58T106 -16V-10Q74
0 54 23T34 79Q34 112 56 140T128 203V205Q89 227 67 261T45 338Q45 377 62 408T109 462T178 497T261 509Q296 509 324 503T397 484L551 499V433L432 440ZM151 -24Q142 -35 136 -49T130 -81Q130 -131 171 -156T278 -182Q320 -182 350 -173T398 -149T426 -119T435
-88Q435 -68 423 -55T388 -36L151 -24ZM187 374Q187 340 194 310T213 258T241 224T276 211Q302 211 319 238T336 315Q336 351 329 380T309 430T280 462T246 474Q218 474 202 447T187 374Z" />
<glyph unicode="&#x124;" glyph-name="Hcircumflex" horiz-adv-x="823" d="M470 35L550 54V316H273V54L352 35V0H24V35L101 54V610L24 629V664H352V629L273 610V365H550V610L471 629V664H800V629L723 610V54L800 35V0H470V35ZM262 719L362 862H463L563 719H511L410
791L308 719H262Z" />
<glyph unicode="&#x125;" glyph-name="hcircumflex" horiz-adv-x="627" d="M341 34L394 49V320Q393 362 372 388T311 414Q289 413 272 406T241 389V49L294 34V0H18V34L79 49V626L20 663V682L241 748V424Q254 437 272 451T311 479T358 500T412 509Q479 509 517
472T556 354V49L618 33V0H341V34ZM169 759L269 902H370L470 759H418L317 831L215 759H169Z" />
<glyph unicode="&#x126;" glyph-name="Hbar" horiz-adv-x="823" d="M470 35L550 54V316H273V54L352 35V0H24V35L101 54V474H8V523H101V610L24 629V664H352V629L273 610V523H550V610L472 629V664H800V629L723 610V523H816V474H723V54L800 35V0H470V35ZM273 365H550V474H273V365Z"
/>
<glyph unicode="&#x127;" glyph-name="hbar" horiz-adv-x="627" d="M343 34L394 49V320Q393 362 372 388T311 414Q289 413 272 406T241 389V49L294 34V0H18V34L79 49V565H13V604H79V640L20 663V682L241 748V604H408V565H241V424Q254 437 272 451T311 479T358 500T412
509Q479 509 517 472T556 354V49L618 33V0H343V34Z" />
<glyph unicode="&#x128;" glyph-name="Itilde" horiz-adv-x="375" d="M24 35L101 54V610L24 629V664H350V629L273 610V54L350 35V0H24V35ZM418 769Q388 778 368 781T333 781T308 768T287 738L265 748L270 764Q284 804 300 829T336 866T383 878T444 867L488 854Q512
847 530 845T564 847T593 862T618 894L641 884L634 864Q617 821 601 795T565 756T520 744T461 756L418 769Z" />
<glyph unicode="&#x129;" glyph-name="itilde" horiz-adv-x="317" d="M131 615Q104 625 86 628T53 628T28 613T7 582L-16 592L-11 607Q19 688 59 712T167 711L187 703Q229 686 257 695T311 745L334 735L326 716Q308 673 291 646T254 606T208 594T150 608L131 615ZM16
34L80 49V395L18 440V458L243 509V49L307 34V0H16V34Z" />
<glyph unicode="&#x12a;" glyph-name="Imacron" horiz-adv-x="375" d="M41 830H333V757H41V830ZM24 35L101 54V610L24 629V664H350V629L273 610V54L350 35V0H24V35Z" />
<glyph unicode="&#x12b;" glyph-name="imacron" horiz-adv-x="317" d="M17 695H301V622H17V695ZM16 34L80 49V395L18 440V458L243 509V49L307 34V0H16V34Z" />
<glyph unicode="&#x12c;" glyph-name="Ibreve" horiz-adv-x="375" d="M24 35L101 54V610L24 629V664H350V629L273 610V54L350 35V0H24V35ZM441 713Q406 713 381 725T339 759T314 806T305 862H342Q355 835 379 815T448 794Q493 794 516 814T551 862H586Q586 833
577 807T550 759T504 726T441 713Z" />
<glyph unicode="&#x12d;" glyph-name="ibreve" horiz-adv-x="317" d="M16 34L80 49V395L18 440V458L243 509V49L307 34V0H16V34ZM416 578Q386 578 361 588T319 621T291 677T281 761H311Q322 709 349 684T418 659Q503 659 526 761H554Q553 671 515 625T416 578Z" />
<glyph unicode="&#x12e;" glyph-name="Iogonek" horiz-adv-x="375" d="M24 35L101 54V610L24 629V664H350V629L273 610V54L350 35V0H207Q188 -38 180 -60T172 -100Q172 -124 185 -138T220 -153Q237 -153 251 -145T284 -118L304 -133Q292 -154 280 -173T251 -208T213
-232T164 -241Q120 -241 94 -217T67 -152Q67 -136 72 -120T90 -86T124 -47T176 0H24V35Z" />
<glyph unicode="&#x12f;" glyph-name="iogonek" horiz-adv-x="317" d="M16 34L80 49V395L18 440V458L243 509V49L307 34V0H182Q163 -38 155 -60T147 -100Q147 -124 160 -138T195 -153Q212 -153 226 -145T258 -118L279 -133Q267 -154 255 -173T226 -208T188 -232T138
-241Q95 -241 68 -217T41 -152Q41 -136 46 -120T65 -86T99 -47T151 0H16V34ZM162 580Q128 580 104 604T80 663Q80 697 104 721T162 746Q197 746 221 722T246 663Q246 628 222 604T162 580Z" />
<glyph unicode="&#x130;" glyph-name="Idotaccent" horiz-adv-x="375" d="M24 35L101 54V610L24 629V664H350V629L273 610V54L350 35V0H24V35ZM443 723Q408 723 385 746T361 805Q361 840 384 864T443 889Q478 889 503 865T528 805Q528 788 522 773T504 747T477
730T443 723Z" />
<glyph unicode="&#x131;" glyph-name="dotlessi" horiz-adv-x="317" d="M16 34L80 49V395L18 440V458L243 509V49L307 34V0H16V34Z" />
<glyph unicode="&#x132;" glyph-name="IJ" horiz-adv-x="738" d="M24 35L101 54V610L24 629V664H350V629L273 610V54L350 35V0H24V35ZM642 84Q642 -53 572 -124T344 -209L338 -185Q380 -163 405 -141T445 -93T464 -35T469 39V610L382 629V664H719V629L642 610V84Z" />
<glyph unicode="&#x133;" glyph-name="ij" horiz-adv-x="616" d="M16 34L80 49V395L18 440V458L243 509V49L307 34V0H16V34ZM162 580Q128 580 104 604T80 663Q80 697 104 721T162 746Q197 746 221 722T246 663Q246 628 222 604T162 580ZM278 -209Q305 -191 324
-173T356 -131T375 -72T383 14V395L321 440V458L545 509V80Q545 40 544 7T536 -53T517 -104T482 -147Q457 -169 429 -183T374 -207T323 -221T284 -229L278 -209ZM465 580Q430 580 407 604T383 663Q383 697 406 721T465 746Q500 746 524 722T549 663Q549 628 525
604T465 580Z" />
<glyph unicode="&#x134;" glyph-name="Jcircumflex" horiz-adv-x="374" d="M297 719L397 862H498L598 719H546L445 791L343 719H297ZM277 84Q277 -53 207 -124T-21 -209L-27 -185Q15 -163 40 -141T80 -93T99 -35T104 39V610L17 629V664H354V629L277 610V84Z" />
<glyph unicode="&#x135;" glyph-name="jcircumflex" horiz-adv-x="313" d="M-25 -209Q2 -191 21 -173T53 -131T72 -72T80 14V395L18 440V458L242 509V80Q242 40 241 7T233 -53T214 -104T179 -147Q154 -169 126 -183T71 -207T20 -221T-19 -229L-25 -209ZM28 573L123
769H198L292 573H250L157 678L70 573H28Z" />
<glyph unicode="&#x136;" glyph-name="Kcommaaccent" horiz-adv-x="745" d="M285 -225Q339 -208 361 -189T384 -146Q384 -125 368 -113T328 -98V-92Q339 -66 360 -54T409 -41Q446 -41 470 -62T495 -119Q495 -167 446 -200T293 -250L285 -225ZM24 35L101 54V610L24
629V664H352V629L273 610V54L352 35V0H24V35ZM290 314V319L552 609L458 629V664H700V629L614 608L428 408L685 49L748 35V0H516L290 314Z" />
<glyph unicode="&#x137;" glyph-name="kcommaaccent" horiz-adv-x="605" d="M198 -225Q252 -208 274 -189T297 -146Q297 -125 281 -113T241 -98V-92Q252 -66 273 -54T322 -41Q359 -41 383 -62T408 -119Q408 -167 359 -200T206 -250L198 -225ZM79 626L20 663V682L241
748V49L299 34V0H18V34L79 49V626ZM507 -14Q458 -14 427 4T369 65L249 256L428 433L344 462V494H590V463L512 440L383 329L605 13Q592 5 577 -1Q564 -6 546 -10T507 -14Z" />
<glyph unicode="&#x138;" glyph-name="kgreenlandic" horiz-adv-x="603" d="M16 34L77 49V395L17 436V454L239 511V49L297 34V0H16V34ZM505 -14Q457 -14 425 4T367 65L247 256L426 433L342 462V494H588V463L510 440L381 329L603 13Q590 5 575 -1Q562 -6 544 -10T505 -14Z" />
<glyph unicode="&#x139;" glyph-name="Lacute" horiz-adv-x="618" d="M379 865V852L216 719H165L241 865H379ZM273 68Q286 54 303 48T344 40H450L569 260H603L554 0H24V36L101 54V609L24 629V664H355V629L273 610V68Z" />
<glyph unicode="&#x13a;" glyph-name="lacute" horiz-adv-x="315" d="M341 905V892L178 759H127L203 905H341ZM17 34L79 49V626L20 663V682L241 748V49L304 34V0H17V34Z" />
<glyph unicode="&#x13b;" glyph-name="Lcommaaccent" horiz-adv-x="618" d="M185 -225Q239 -208 261 -189T284 -146Q284 -125 268 -113T228 -98V-92Q239 -66 260 -54T309 -41Q346 -41 370 -62T395 -119Q395 -167 346 -200T193 -250L185 -225ZM273 68Q286 54 303
48T344 40H450L569 260H603L554 0H24V36L101 54V609L24 629V664H355V629L273 610V68Z" />
<glyph unicode="&#x13c;" glyph-name="lcommaaccent" horiz-adv-x="315" d="M286 -225Q340 -208 362 -189T385 -146Q385 -125 369 -113T329 -98V-92Q340 -66 361 -54T410 -41Q447 -41 471 -62T496 -119Q496 -167 447 -200T294 -250L286 -225ZM17 34L79 49V626L20
663V682L241 748V49L304 34V0H17V34Z" />
<glyph unicode="&#x13d;" glyph-name="Lcaron" horiz-adv-x="618" d="M446 522L465 729H584V722L475 522H446ZM273 68Q286 54 303 48T344 40H450L569 260H603L554 0H24V36L101 54V609L24 629V664H355V629L273 610V68Z" />
<glyph unicode="&#x13e;" glyph-name="lcaron" horiz-adv-x="315" d="M284 522L303 729H422V722L313 522H284ZM17 34L79 49V626L20 663V682L241 748V49L304 34V0H17V34Z" />
<glyph unicode="&#x13f;" glyph-name="Ldot" horiz-adv-x="620" d="M520 288Q504 288 490 294T464 312T446 337T439 368Q439 385 445 400T463 426T489 443T520 450Q554 450 578 426T602 368Q602 352 596 338T578 312T552 295T520 288ZM273 68Q286 54 303 48T344
40H450L562 227H597L554 0H24V36L101 54V609L24 629V664H355V629L273 610V68Z" />
<glyph unicode="&#x140;" glyph-name="ldot" horiz-adv-x="412" d="M365 290Q348 290 334 296T308 314T291 339T284 370Q284 403 308 427T365 451Q398 451 422 427T446 370Q446 354 440 340T422 314T396 297T365 290ZM17 34L79 49V626L20 663V682L241 748V49L304
34V0H17V34Z" />
<glyph unicode="&#x141;" glyph-name="Lslash" horiz-adv-x="618" d="M26 286L101 309V609L24 629V664H355V629L273 610V361L465 420V378L273 319V70Q286 56 303 50T344 42H450L569 260H603L554 0H24V36L101 54V267L26 244V286Z" />
<glyph unicode="&#x142;" glyph-name="lslash" horiz-adv-x="315" d="M12 331L79 361V626L20 663V682L241 748V435L320 471V425L241 389V49L304 34V0H17V34L79 49V314L12 284V331Z" />
<glyph unicode="&#x143;" glyph-name="Nacute" horiz-adv-x="733" d="M571 865V852L408 719H357L433 865H571ZM578 -13L155 503L160 57L264 36V0H28V36L104 54V567Q89 586 71 601T29 624L11 630V664H244L595 236L590 603L488 629V664H720V629L645 608V82L647 -1L578 -13Z" />
<glyph unicode="&#x144;" glyph-name="nacute" horiz-adv-x="626" d="M467 769V762L327 573H290L340 769H467ZM16 34L77 49V395L17 436V454L215 511H220L229 417H232Q244 429 262 445T303 475T353 499T410 509Q477 509 515 472T554 354V49L616 33V0H339V34L392
49V320Q391 362 371 388T309 414Q287 413 270 406T239 389V49L292 34V0H16V34Z" />
<glyph unicode="&#x145;" glyph-name="Ncommaaccent" horiz-adv-x="733" d="M261 -225Q315 -208 337 -189T360 -146Q360 -125 344 -113T304 -98V-92Q315 -66 336 -54T385 -41Q422 -41 446 -62T471 -119Q471 -167 422 -200T269 -250L261 -225ZM578 -13L155 503L160
57L264 36V0H28V36L104 54V567Q89 586 71 601T29 624L11 630V664H244L595 236L590 603L488 629V664H720V629L645 608V82L647 -1L578 -13Z" />
<glyph unicode="&#x146;" glyph-name="ncommaaccent" horiz-adv-x="626" d="M185 -225Q239 -208 261 -189T284 -146Q284 -125 268 -113T228 -98V-92Q239 -66 260 -54T309 -41Q346 -41 370 -62T395 -119Q395 -167 346 -200T193 -250L185 -225ZM16 34L77 49V395L17
436V454L215 511H220L229 417H232Q244 429 262 445T303 475T353 499T410 509Q477 509 515 472T554 354V49L616 33V0H339V34L392 49V320Q391 362 371 388T309 414Q287 413 270 406T239 389V49L292 34V0H16V34Z" />
<glyph unicode="&#x147;" glyph-name="Ncaron" horiz-adv-x="733" d="M536 862L436 719H335L235 862H286L387 788L489 862H536ZM578 -13L155 503L160 57L264 36V0H28V36L104 54V567Q89 586 71 601T29 624L11 630V664H244L595 236L590 603L488 629V664H720V629L645
608V82L647 -1L578 -13Z" />
<glyph unicode="&#x148;" glyph-name="ncaron" horiz-adv-x="626" d="M448 769L350 573H276L179 769H221L316 662L407 769H448ZM16 34L77 49V395L17 436V454L215 511H220L229 417H232Q244 429 262 445T303 475T353 499T410 509Q477 509 515 472T554 354V49L616
33V0H339V34L392 49V320Q391 362 371 388T309 414Q287 413 270 406T239 389V49L292 34V0H16V34Z" />
<glyph unicode="&#x149;" glyph-name="napostrophe" horiz-adv-x="626" d="M-31 572Q23 589 45 608T68 651Q68 672 52 684T12 699V705Q23 731 44 743T93 756Q130 756 154 735T179 678Q179 630 130 597T-23 547L-31 572ZM16 34L77 49V395L17 436V454L215 511H220L229
417H232Q244 429 262 445T303 475T353 499T410 509Q477 509 515 472T554 354V49L616 33V0H339V34L392 49V320Q391 362 371 388T309 414Q287 413 270 406T239 389V49L292 34V0H16V34Z" />
<glyph unicode="&#x14a;" glyph-name="Eng" horiz-adv-x="739" d="M164 57L268 36V0H28V36L104 54V567Q89 586 71 601T29 624L11 630V664H244L595 236L590 603L488 629V664H720V629L645 608V86Q645 20 630 -31T580 -119T493 -178T364 -207L359 -182Q444 -156 495
-111T559 9L158 499L164 57Z" />
<glyph unicode="&#x14b;" glyph-name="eng" horiz-adv-x="625" d="M392 320Q391 362 371 388T309 414Q287 413 270 406T239 389V49L292 34V0H16V34L77 49V395L17 436V454L215 511H220L229 417H232Q244 429 262 445T303 475T353 499T410 509Q477 509 515 472T554
354V80Q554 40 553 7T545 -53T525 -104T489 -147Q465 -169 437 -183T381 -207T331 -221T292 -229L286 -209Q312 -191 332 -173T365 -131T385 -72T392 14V320Z" />
<glyph unicode="&#x14c;" glyph-name="Omacron" horiz-adv-x="800" d="M249 830H551V757H249V830ZM415 25Q490 25 532 99T575 311Q575 376 562 436T524 541T464 614T384 642Q309 642 267 569T224 357Q224 288 238 228T277 122T338 51T415 25ZM401 683Q476 683
543 659T659 591T738 483T767 342Q767 260 736 194T653 81T535 9T397 -16Q324 -16 258 8T142 76T63 185T33 330Q33 407 63 472T145 584T262 657T401 683Z" />
<glyph unicode="&#x14d;" glyph-name="omacron" horiz-adv-x="603" d="M151 695H453V622H151V695ZM284 473Q259 473 243 457T217 416T203 360T199 301Q199 247 207 197T230 108T268 46T319 22Q361 22 382 69T403 200Q403 256 395 306T370 393T333 451T284 473ZM302
-15Q236 -15 185 6T99 62T46 143T28 240Q28 298 49 347T108 433T195 489T302 509Q362 509 412 491T499 439T555 359T575 257Q575 198 554 148T497 62T410 6T302 -15Z" />
<glyph unicode="&#x14e;" glyph-name="Obreve" horiz-adv-x="800" d="M394 713Q359 713 334 725T292 759T267 806T258 862H295Q308 835 332 815T401 794Q446 794 469 814T504 862H539Q539 833 530 807T503 759T457 726T394 713ZM415 25Q490 25 532 99T575 311Q575
376 562 436T524 541T464 614T384 642Q309 642 267 569T224 357Q224 288 238 228T277 122T338 51T415 25ZM401 683Q476 683 543 659T659 591T738 483T767 342Q767 260 736 194T653 81T535 9T397 -16Q324 -16 258 8T142 76T63 185T33 330Q33 407 63 472T145 584T262
657T401 683Z" />
<glyph unicode="&#x14f;" glyph-name="obreve" horiz-adv-x="603" d="M284 473Q259 473 243 457T217 416T203 360T199 301Q199 247 207 197T230 108T268 46T319 22Q361 22 382 69T403 200Q403 256 395 306T370 393T333 451T284 473ZM302 -15Q236 -15 185 6T99
62T46 143T28 240Q28 298 49 347T108 433T195 489T302 509Q362 509 412 491T499 439T555 359T575 257Q575 198 554 148T497 62T410 6T302 -15ZM301 578Q271 578 246 588T204 621T176 677T166 761H196Q207 709 234 684T303 659Q388 659 411 761H439Q438 671 400
625T301 578Z" />
<glyph unicode="&#x150;" glyph-name="Ohungarumlaut" horiz-adv-x="800" d="M438 865V854L322 719H275L324 865H438ZM619 865V854L503 719H456L505 865H619ZM415 25Q490 25 532 99T575 311Q575 376 562 436T524 541T464 614T384 642Q309 642 267 569T224 357Q224
288 238 228T277 122T338 51T415 25ZM401 683Q476 683 543 659T659 591T738 483T767 342Q767 260 736 194T653 81T535 9T397 -16Q324 -16 258 8T142 76T63 185T33 330Q33 407 63 472T145 584T262 657T401 683Z" />
<glyph unicode="&#x151;" glyph-name="ohungarumlaut" horiz-adv-x="603" d="M342 769V760L230 573H194L234 769H342ZM499 769V760L386 573H349L390 769H499ZM284 473Q259 473 243 457T217 416T203 360T199 301Q199 247 207 197T230 108T268 46T319 22Q361 22
382 69T403 200Q403 256 395 306T370 393T333 451T284 473ZM302 -15Q236 -15 185 6T99 62T46 143T28 240Q28 298 49 347T108 433T195 489T302 509Q362 509 412 491T499 439T555 359T575 257Q575 198 554 148T497 62T410 6T302 -15Z" />
<glyph unicode="&#x152;" glyph-name="OE" horiz-adv-x="1057" d="M913 664L1001 665V466H967L900 623H697V365H795L828 475H862V215H827L795 319H697V69Q709 55 726 48T767 41H882L994 231H1028L987 0H762Q682 0 587 -3T401 -7Q323 -7 256 15T139 80T61 185T33
326Q33 403 63 466T144 575T264 646T409 671Q435 671 455 671T496 669T541 668T599 666T677 665T785 664H913ZM414 29Q477 29 501 67T526 169V579Q511 603 479 619T411 636Q371 636 337 619T279 567T240 479T226 353Q226 284 240 225T279 122T338 54T414 29Z" />
<glyph unicode="&#x153;" glyph-name="oe" horiz-adv-x="940" d="M678 -14Q620 -14 574 15T497 91Q465 43 415 13T298 -18Q233 -18 182 3T97 59T44 141T26 238Q26 296 47 345T106 431T194 487T303 508Q372 508 422 480T502 404Q537 453 588 481T697 509Q746 509
782 494T844 450T883 380T904 287H577Q579 240 596 205T640 145T699 109T765 97Q786 97 805 101T840 113T869 127T892 140L907 121Q892 102 871 79T822 35T758 0T678 -14ZM285 471Q260 471 245 455T220 413T208 356T205 296Q205 246 212 197T235 108T271 45T322
20Q361 20 380 67T400 198Q400 251 392 300T368 388T332 448T285 471ZM663 467Q631 467 606 433T577 324H741Q740 353 735 379T719 424T695 455T663 467Z" />
<glyph unicode="&#x154;" glyph-name="Racute" horiz-adv-x="708" d="M522 865V852L359 719H308L384 865H522ZM24 35L101 54V610L24 629V664L304 665Q390 665 450 652T549 617T604 564T621 498Q621 441 584 399T475 331V327L644 50L709 35V0H486L346 232Q343 237
337 246T324 267Q316 279 308 294H271V54L345 35V0H24V35ZM271 335H346Q396 346 426 384T457 472Q457 507 443 535T404 584T345 616T271 629V335Z" />
<glyph unicode="&#x155;" glyph-name="racute" horiz-adv-x="439" d="M401 769V762L261 573H224L274 769H401ZM16 34L77 49V395L17 436V454L218 511H224L230 378H234L249 409Q275 463 301 486T369 509Q399 509 423 490T448 432Q448 394 423 371T348 344L292 391Q280
386 264 369T239 327V49L328 34V0H16V34Z" />
<glyph unicode="&#x156;" glyph-name="Rcommaaccent" horiz-adv-x="708" d="M262 -225Q316 -208 338 -189T361 -146Q361 -125 345 -113T305 -98V-92Q316 -66 337 -54T386 -41Q423 -41 447 -62T472 -119Q472 -167 423 -200T270 -250L262 -225ZM24 35L101 54V610L24
629V664L304 665Q390 665 450 652T549 617T604 564T621 498Q621 441 584 399T475 331V327L644 50L709 35V0H486L346 232Q343 237 337 246T324 267Q316 279 308 294H271V54L345 35V0H24V35ZM271 335H346Q396 346 426 384T457 472Q457 507 443 535T404 584T345 616T271
629V335Z" />
<glyph unicode="&#x157;" glyph-name="rcommaaccent" horiz-adv-x="439" d="M290 -225Q344 -208 366 -189T389 -146Q389 -125 373 -113T333 -98V-92Q344 -66 365 -54T414 -41Q451 -41 475 -62T500 -119Q500 -167 451 -200T298 -250L290 -225ZM16 34L77 49V395L17
436V454L218 511H224L230 378H234L249 409Q275 463 301 486T369 509Q399 509 423 490T448 432Q448 394 423 371T348 344L292 391Q280 386 264 369T239 327V49L328 34V0H16V34Z" />
<glyph unicode="&#x158;" glyph-name="Rcaron" horiz-adv-x="708" d="M486 862L386 719H285L185 862H236L337 788L439 862H486ZM24 35L101 54V610L24 629V664L304 665Q390 665 450 652T549 617T604 564T621 498Q621 441 584 399T475 331V327L644 50L709 35V0H486L346
232Q343 237 337 246T324 267Q316 279 308 294H271V54L345 35V0H24V35ZM271 335H346Q396 346 426 384T457 472Q457 507 443 535T404 584T345 616T271 629V335Z" />
<glyph unicode="&#x159;" glyph-name="rcaron" horiz-adv-x="439" d="M380 769L282 573H208L111 769H153L248 662L339 769H380ZM16 34L77 49V395L17 436V454L218 511H224L230 378H234L249 409Q275 463 301 486T369 509Q399 509 423 490T448 432Q448 394 423 371T348
344L292 391Q280 386 264 369T239 327V49L328 34V0H16V34Z" />
<glyph unicode="&#x15a;" glyph-name="Sacute" horiz-adv-x="562" d="M39 237H68L153 63Q172 49 198 38T262 26Q312 26 343 56T375 136Q375 176 354 201T278 249L219 272Q134 306 96 354T58 471Q58 509 75 547T125 615T208 664T324 683Q370 683 415 671T495 642L497
462H466L397 618Q384 629 366 637T318 646Q267 646 237 617T206 545Q206 499 233 473T321 424L385 399Q466 367 498 324T531 224Q531 167 507 123T444 48T355 1T252 -15Q193 -15 145 -2T57 29L39 237ZM485 865V852L322 719H271L347 865H485Z" />
<glyph unicode="&#x15b;" glyph-name="sacute" horiz-adv-x="460" d="M406 769V762L266 573H229L279 769H406ZM192 -15Q148 -15 113 -7T40 16L34 177H63L126 52Q135 42 154 33T196 23Q235 23 258 43T281 96Q281 149 217 172L147 198Q90 219 65 256T40 345Q40 381
55 411T100 464T171 498T263 511Q299 511 335 503T403 481L402 335H376L319 447Q307 458 290 465T253 472Q221 472 201 453T180 405Q180 376 198 359T247 330L310 306Q368 284 397 252T426 167Q426 126 408 93T358 35T284 -2T192 -15Z" />
<glyph unicode="&#x15c;" glyph-name="Scircumflex" horiz-adv-x="562" d="M157 719L257 862H358L458 719H406L305 791L203 719H157ZM39 237H68L153 63Q172 49 198 38T262 26Q312 26 343 56T375 136Q375 176 354 201T278 249L219 272Q134 306 96 354T58 471Q58
509 75 547T125 615T208 664T324 683Q370 683 415 671T495 642L497 462H466L397 618Q384 629 366 637T318 646Q267 646 237 617T206 545Q206 499 233 473T321 424L385 399Q466 367 498 324T531 224Q531 167 507 123T444 48T355 1T252 -15Q193 -15 145 -2T57 29L39
237Z" />
<glyph unicode="&#x15d;" glyph-name="scircumflex" horiz-adv-x="460" d="M111 573L209 769H283L380 573H338L243 680L153 573H111ZM192 -15Q148 -15 113 -7T40 16L34 177H63L126 52Q135 42 154 33T196 23Q235 23 258 43T281 96Q281 149 217 172L147 198Q90 219
65 256T40 345Q40 381 55 411T100 464T171 498T263 511Q299 511 335 503T403 481L402 335H376L319 447Q307 458 290 465T253 472Q221 472 201 453T180 405Q180 376 198 359T247 330L310 306Q368 284 397 252T426 167Q426 126 408 93T358 35T284 -2T192 -15Z" />
<glyph unicode="&#x15e;" glyph-name="Scedilla" horiz-adv-x="562" d="M151 -224Q198 -208 223 -189T249 -143Q249 -123 235 -110T199 -90L249 -15Q191 -14 144 -1T57 29L39 237H68L153 63Q172 49 198 38T262 26Q312 26 343 56T375 136Q375 176 354 201T278 249L219
272Q134 306 96 354T58 471Q58 509 75 547T125 615T208 664T324 683Q370 683 415 671T495 642L497 462H466L397 618Q384 629 366 637T318 646Q267 646 237 617T206 545Q206 499 233 473T321 424L385 399Q466 367 498 324T531 224Q531 171 511 129T456 57T377 9T284
-13L264 -43Q305 -48 332 -67T360 -121Q360 -170 306 -202T158 -249L151 -224Z" />
<glyph unicode="&#x15f;" glyph-name="scedilla" horiz-adv-x="460" d="M192 -15Q148 -15 113 -7T40 16L34 177H63L126 52Q135 42 154 33T196 23Q235 23 258 43T281 96Q281 149 217 172L147 198Q90 219 65 256T40 345Q40 381 55 411T100 464T171 498T263 511Q299
511 335 503T403 481L402 335H376L319 447Q307 458 290 465T253 472Q221 472 201 453T180 405Q180 376 198 359T247 330L310 306Q368 284 397 252T426 167Q426 130 411 99T369 45T306 6T227 -13L208 -42Q249 -47 276 -66T304 -120Q304 -169 250 -201T102 -248L95
-223Q142 -207 167 -188T193 -142Q193 -122 179 -109T143 -89L192 -15Z" />
<glyph unicode="&#x160;" glyph-name="Scaron" horiz-adv-x="562" d="M452 862L352 719H251L151 862H202L303 788L405 862H452ZM39 237H68L153 63Q172 49 198 38T262 26Q312 26 343 56T375 136Q375 176 354 201T278 249L219 272Q134 306 96 354T58 471Q58 509
75 547T125 615T208 664T324 683Q370 683 415 671T495 642L497 462H466L397 618Q384 629 366 637T318 646Q267 646 237 617T206 545Q206 499 233 473T321 424L385 399Q466 367 498 324T531 224Q531 167 507 123T444 48T355 1T252 -15Q193 -15 145 -2T57 29L39 237Z"
/>
<glyph unicode="&#x161;" glyph-name="scaron" horiz-adv-x="460" d="M379 769L281 573H207L110 769H152L247 662L338 769H379ZM192 -15Q148 -15 113 -7T40 16L34 177H63L126 52Q135 42 154 33T196 23Q235 23 258 43T281 96Q281 149 217 172L147 198Q90 219 65
256T40 345Q40 381 55 411T100 464T171 498T263 511Q299 511 335 503T403 481L402 335H376L319 447Q307 458 290 465T253 472Q221 472 201 453T180 405Q180 376 198 359T247 330L310 306Q368 284 397 252T426 167Q426 126 408 93T358 35T284 -2T192 -15Z" />
<glyph unicode="&#x162;" glyph-name="Tcommaaccent" horiz-adv-x="647" d="M196 -225Q250 -208 272 -189T295 -146Q295 -125 279 -113T239 -98V-92Q250 -66 271 -54T320 -41Q357 -41 381 -62T406 -119Q406 -167 357 -200T204 -250L196 -225ZM540 664L627 666V455H598L533
618H410V54L506 35V0H140V35L237 54V618H114L49 455H19L20 666L108 664H540Z" />
<glyph unicode="&#x163;" glyph-name="tcommaaccent" horiz-adv-x="378" d="M74 -225Q128 -208 150 -189T173 -146Q173 -125 157 -113T117 -98V-92Q128 -66 149 -54T198 -41Q235 -41 259 -62T284 -119Q284 -167 235 -200T82 -250L74 -225ZM203 -14Q132 -14 100
22T69 127L72 437H-1V472L73 497L213 619H231V494H376V436H231V122Q241 86 266 73T322 60Q340 60 354 63T374 68L380 40Q366 32 349 23T309 5T261 -8T203 -14Z" />
<glyph unicode="&#x164;" glyph-name="Tcaron" horiz-adv-x="647" d="M471 862L371 719H270L170 862H221L322 788L424 862H471ZM540 664L627 666V455H598L533 618H410V54L506 35V0H140V35L237 54V618H114L49 455H19L20 666L108 664H540Z" />
<glyph unicode="&#x165;" glyph-name="tcaron" horiz-adv-x="378" d="M293 558L312 765H431V758L322 558H293ZM203 -14Q132 -14 100 22T69 127L72 437H-1V472L73 497L213 619H231V494H376V436H231V122Q241 86 266 73T322 60Q340 60 354 63T374 68L380 40Q366 32
349 23T309 5T261 -8T203 -14Z" />
<glyph unicode="&#x166;" glyph-name="Tbar" horiz-adv-x="647" d="M81 384H237V615H114L49 455H19L20 666L108 664H540L627 666V455H598L533 615H410V384H564V336H410V54L506 35V0H140V35L237 54V336H81V384Z" />
<glyph unicode="&#x167;" glyph-name="tbar" horiz-adv-x="378" d="M-1 340H71L72 437H-1V472L73 497L213 619H231V494H376V436H231V340H375V294H231V122Q241 86 266 73T322 60Q340 60 354 63T374 68L380 40Q366 32 349 23T309 5T261 -8T203 -14Q132 -14 100 22T69
127L70 294H-1V340Z" />
<glyph unicode="&#x168;" glyph-name="Utilde" horiz-adv-x="738" d="M369 -18Q304 -18 253 -2T165 47T109 131T89 251V609L12 629V664H358V629L264 609V259Q264 160 307 110T423 59Q498 59 544 105T592 249L590 605L486 629V664H726V629L650 607V271Q650 134
578 58T369 -18ZM384 769Q354 778 334 781T299 781T274 768T253 738L231 748L236 764Q250 804 266 829T302 866T349 878T410 867L454 854Q478 847 496 845T530 847T559 862T584 894L607 884L600 864Q583 821 567 795T531 756T486 744T427 756L384 769Z" />
<glyph unicode="&#x169;" glyph-name="utilde" horiz-adv-x="620" d="M383 69Q369 55 352 40T313 13T268 -7T215 -15Q186 -15 160 -8T114 18T81 65T69 138V412L8 442V464L231 503V171Q231 128 248 103T311 78Q333 78 350 84T381 100V416L317 445V467L543 506V64L607
48V20L395 -12L383 69ZM281 614Q251 625 232 628T198 628T173 612T153 581L130 591L136 607Q166 687 206 711T314 711L358 695Q381 687 399 685T432 687T459 704T485 737L508 727L500 708Q483 665 466 638T428 598T383 585T323 599L281 614Z" />
<glyph unicode="&#x16a;" glyph-name="Umacron" horiz-adv-x="738" d="M369 -18Q304 -18 253 -2T165 47T109 131T89 251V609L12 629V664H358V629L264 609V259Q264 160 307 110T423 59Q498 59 544 105T592 249L590 605L486 629V664H726V629L650 607V271Q650 134
578 58T369 -18ZM255 830H557V757H255V830Z" />
<glyph unicode="&#x16b;" glyph-name="umacron" horiz-adv-x="620" d="M383 69Q369 55 352 40T313 13T268 -7T215 -15Q186 -15 160 -8T114 18T81 65T69 138V412L8 442V464L231 503V171Q231 128 248 103T311 78Q333 78 350 84T381 100V416L317 445V467L543 506V64L607
48V20L395 -12L383 69ZM159 695H461V622H159V695Z" />
<glyph unicode="&#x16c;" glyph-name="Ubreve" horiz-adv-x="738" d="M369 -18Q304 -18 253 -2T165 47T109 131T89 251V609L12 629V664H358V629L264 609V259Q264 160 307 110T423 59Q498 59 544 105T592 249L590 605L486 629V664H726V629L650 607V271Q650 134
578 58T369 -18ZM401 713Q366 713 341 725T299 759T274 806T265 862H302Q315 835 339 815T408 794Q453 794 476 814T511 862H546Q546 833 537 807T510 759T464 726T401 713Z" />
<glyph unicode="&#x16d;" glyph-name="ubreve" horiz-adv-x="620" d="M383 69Q369 55 352 40T313 13T268 -7T215 -15Q186 -15 160 -8T114 18T81 65T69 138V412L8 442V464L231 503V171Q231 128 248 103T311 78Q333 78 350 84T381 100V416L317 445V467L543 506V64L607
48V20L395 -12L383 69ZM309 578Q279 578 254 588T212 621T184 677T174 761H204Q215 709 242 684T311 659Q396 659 419 761H447Q446 671 408 625T309 578Z" />
<glyph unicode="&#x16e;" glyph-name="Uring" horiz-adv-x="738" d="M369 -18Q304 -18 253 -2T165 47T109 131T89 251V609L12 629V664H358V629L264 609V259Q264 160 307 110T423 59Q498 59 544 105T592 249L590 605L486 629V664H726V629L650 607V271Q650 134 578
58T369 -18ZM300 825Q300 846 308 865T330 898T365 921T409 929Q457 929 486 900T516 826Q516 805 508 786T486 753T451 730T407 722Q359 722 330 751T300 825ZM343 826Q343 796 362 777T409 757Q436 757 454 776T473 825Q473 854 454 874T407 894Q380 894 362
875T343 826Z" />
<glyph unicode="&#x16f;" glyph-name="uring" horiz-adv-x="620" d="M202 670Q202 691 210 710T232 744T267 766T310 775Q358 775 387 745T417 672Q417 651 409 632T387 599T353 576T309 568Q261 568 232 597T202 670ZM245 672Q245 642 264 623T310 603Q337 603
355 622T374 670Q374 700 355 719T309 739Q282 739 264 720T245 672ZM383 69Q369 55 352 40T313 13T268 -7T215 -15Q186 -15 160 -8T114 18T81 65T69 138V412L8 442V464L231 503V171Q231 128 248 103T311 78Q333 78 350 84T381 100V416L317 445V467L543 506V64L607
48V20L395 -12L383 69Z" />
<glyph unicode="&#x170;" glyph-name="Uhungarumlaut" horiz-adv-x="738" d="M445 865V854L329 719H282L331 865H445ZM626 865V854L510 719H463L512 865H626ZM369 -18Q304 -18 253 -2T165 47T109 131T89 251V609L12 629V664H358V629L264 609V259Q264 160 307 110T423
59Q498 59 544 105T592 249L590 605L486 629V664H726V629L650 607V271Q650 134 578 58T369 -18Z" />
<glyph unicode="&#x171;" glyph-name="uhungarumlaut" horiz-adv-x="620" d="M383 69Q369 55 352 40T313 13T268 -7T215 -15Q186 -15 160 -8T114 18T81 65T69 138V412L8 442V464L231 503V171Q231 128 248 103T311 78Q333 78 350 84T381 100V416L317 445V467L543
506V64L607 48V20L395 -12L383 69ZM353 769V760L241 573H205L245 769H353ZM510 769V760L397 573H360L401 769H510Z" />
<glyph unicode="&#x172;" glyph-name="Uogonek" horiz-adv-x="738" d="M369 -18Q304 -18 253 -2T165 47T109 131T89 251V609L12 629V664H358V629L264 609V259Q264 160 307 110T423 59Q498 59 544 105T592 249L590 605L486 629V664H726V629L650 607V271Q650 153
597 80T440 -12Q412 -47 405 -67T397 -102Q397 -125 410 -139T444 -153Q461 -153 475 -145T508 -118L528 -133Q517 -154 504 -173T475 -208T437 -232T388 -241Q344 -241 318 -217T291 -152Q291 -120 314 -89T394 -17Q388 -17 382 -17T369 -18Z" />
<glyph unicode="&#x173;" glyph-name="uogonek" horiz-adv-x="620" d="M284 -152Q284 -119 308 -87T395 -11L383 69Q369 55 352 40T313 13T268 -7T215 -15Q186 -15 160 -8T114 18T81 65T69 138V412L8 442V464L231 503V171Q231 128 248 103T311 78Q333 78 350 84T381
100V416L317 445V467L543 506V64L607 48V20L439 -5Q407 -44 399 -66T390 -102Q390 -125 403 -139T437 -153Q454 -153 468 -145T501 -118L521 -133Q510 -154 497 -173T468 -208T430 -232T381 -241Q337 -241 311 -217T284 -152Z" />
<glyph unicode="&#x174;" glyph-name="Wcircumflex" horiz-adv-x="989" d="M379 719L479 862H580L680 719H628L527 791L425 719H379ZM496 407L344 -11H259L54 611L-2 628V664H300V629L235 611L367 164L474 473L428 611L377 629V664H687V628L606 611L742 176L878
604L785 628V664H991V629L931 607L724 -11H638L496 407Z" />
<glyph unicode="&#x175;" glyph-name="wcircumflex" horiz-adv-x="794" d="M326 573L424 769H498L595 573H553L458 680L368 573H326ZM605 192L610 177Q612 172 614 166H615Q616 173 618 178Q619 183 620 187T622 193L695 445L618 462V494H805V461L748 448L595
-14H523L409 263Q408 265 407 269T403 279Q401 285 399 292H398Q396 285 394 279Q392 274 391 270T388 263L282 -14H211L46 448L-11 461V494H292V461L223 448L301 197Q303 191 306 179Q308 172 310 164H311Q313 172 316 179Q318 185 319 190T322 197L432 497H482L605
192Z" />
<glyph unicode="&#x176;" glyph-name="Ycircumflex" horiz-adv-x="663" d="M421 284V54L500 35V0H170V35L249 54V263L59 612L0 629V664H338V629L246 610L393 318L545 607L445 629V664H663V629L601 608L421 284ZM237 719L337 862H438L538 719H486L385 791L283 719H237Z" />
<glyph unicode="&#x177;" glyph-name="ycircumflex" horiz-adv-x="515" d="M363 462V494H519V461L475 448L241 -137Q222 -184 195 -211T124 -238Q108 -238 93 -232T67 -215T49 -189T42 -155Q42 -119 66 -96T124 -73Q151 -73 170 -87T201 -128H203L236 -46L36 450L-4
461V494H268V461L211 450L314 153L422 446L363 462ZM176 573L274 769H348L445 573H403L308 680L218 573H176Z" />
<glyph unicode="&#x178;" glyph-name="Ydieresis" horiz-adv-x="663" d="M421 284V54L500 35V0H170V35L249 54V263L59 612L0 629V664H338V629L246 610L393 318L545 607L445 629V664H663V629L601 608L421 284ZM251 725Q220 725 198 746T175 799Q175 830 197 852T251
875Q282 875 304 853T327 799Q327 768 305 747T251 725ZM493 725Q462 725 440 746T418 799Q418 830 440 852T493 875Q508 875 522 869T546 853T563 828T570 799Q570 768 547 747T493 725Z" />
<glyph unicode="&#x179;" glyph-name="Zacute" horiz-adv-x="652" d="M502 865V852L339 719H288L364 865H502ZM26 35L383 618H144L67 451H36L42 666L139 664H600V655L218 46H503L611 234H644L600 0H26V35Z" />
<glyph unicode="&#x17a;" glyph-name="zacute" horiz-adv-x="505" d="M416 769V762L276 573H239L289 769H416ZM24 0V24L282 450H134L70 307H40V505L125 494H480V489L210 43H364L449 200H479L459 -1L362 0H24Z" />
<glyph unicode="&#x17b;" glyph-name="Zdotaccent" horiz-adv-x="652" d="M26 35L383 618H144L67 451H36L42 666L139 664H600V655L218 46H503L611 234H644L600 0H26V35ZM319 723Q284 723 261 746T237 805Q237 840 260 864T319 889Q354 889 379 865T404 805Q404
788 398 773T380 747T353 730T319 723Z" />
<glyph unicode="&#x17c;" glyph-name="zdotaccent" horiz-adv-x="505" d="M24 0V24L282 450H134L70 307H40V505L125 494H480V489L210 43H364L449 200H479L459 -1L362 0H24ZM265 580Q230 580 206 604T182 663Q182 698 206 722T265 746Q300 746 324 722T349 663Q349
628 325 604T265 580Z" />
<glyph unicode="&#x17d;" glyph-name="Zcaron" horiz-adv-x="652" d="M466 862L366 719H265L165 862H216L317 788L419 862H466ZM26 35L383 618H144L67 451H36L42 666L139 664H600V655L218 46H503L611 234H644L600 0H26V35Z" />
<glyph unicode="&#x17e;" glyph-name="zcaron" horiz-adv-x="505" d="M395 769L297 573H223L126 769H168L263 662L354 769H395ZM24 0V24L282 450H134L70 307H40V505L125 494H480V489L210 43H364L449 200H479L459 -1L362 0H24Z" />
<glyph unicode="&#x192;" glyph-name="florin" horiz-adv-x="544" d="M60 339H174Q192 398 227 447T304 531T392 586T473 606Q506 606 532 588T558 535Q558 516 551 502T532 476T505 458T474 447Q460 491 443 519T404 548Q394 548 385 541T366 515T349 465T334
388L326 339H474L466 290H319L294 114Q280 18 245 -49T166 -160T75 -223T-5 -243Q-22 -243 -37 -237T-65 -222T-84 -199T-91 -172Q-91 -139 -70 -119T-11 -88Q7 -139 28 -163T66 -188Q81 -188 94 -165T115 -81L164 290H52L60 339Z" />
<glyph unicode="&#x1fa;" glyph-name="Aringacute" horiz-adv-x="701" d="M-3 35L62 53L306 670L346 678L395 688L641 49L704 35V0H369V35L447 51L388 219H177L117 57L228 35V0H-3V35ZM196 271H369L285 510L196 271ZM549 1086V1073L386 940H335L411 1086H549ZM249
812Q249 833 257 852T279 885T314 908T358 916Q406 916 435 887T465 813Q465 792 457 773T435 740T400 717T356 709Q308 709 279 738T249 812ZM292 813Q292 783 311 764T358 744Q385 744 403 763T422 812Q422 841 403 861T356 881Q329 881 311 862T292 813Z" />
<glyph unicode="&#x1fb;" glyph-name="aringacute" horiz-adv-x="528" d="M160 -15Q131 -15 107 -6T65 21T37 61T27 112Q27 173 69 205T203 260L298 283V361Q295 403 276 431T218 460Q193 460 180 450L177 331Q165 326 147 323T108 319Q78 319 60 333T41 377Q41
400 61 423T114 466T192 497T285 509Q366 509 411 473T457 350V93Q457 68 465 62T494 56H530V31Q507 19 484 9Q464 1 441 -6T394 -13Q352 -13 329 5T303 69H299Q289 54 276 39T246 12T208 -7T160 -15ZM246 71Q261 71 274 77T298 95V248L264 237Q216 222 197 198T178
145Q178 112 196 92T246 71ZM156 905Q156 926 164 945T186 979T221 1001T264 1010Q312 1010 341 980T371 907Q371 886 363 867T341 834T307 811T263 803Q215 803 186 832T156 905ZM199 907Q199 877 218 858T264 838Q291 838 309 857T328 905Q328 935 309 954T263
974Q236 974 218 955T199 907ZM450 930V917L287 784H236L312 930H450Z" />
<glyph unicode="&#x1fc;" glyph-name="AEacute" horiz-adv-x="962" d="M734 865V852L571 719H520L596 865H734ZM605 305V69Q617 55 634 48T675 41H792L903 231H938L897 0H360V35L435 54V307H256L123 57L228 35V0H-1V35L60 53L374 607L283 629V664H823L911 665V466H877L810
623H605V348H705L738 459H772V199H737L705 305H605ZM423 615L278 348H435V615H423Z" />
<glyph unicode="&#x1fd;" glyph-name="aeacute" horiz-adv-x="784" d="M581 769V762L441 573H404L454 769H581ZM159 -15Q100 -15 64 21T27 112Q27 143 38 166T75 207T141 238T239 264L299 276V356Q297 401 277 430T217 460Q205 460 195 457T180 449L179 332Q168
328 149 324T108 319Q78 319 60 334T42 378Q42 401 61 424T114 466T190 497T280 509Q331 509 361 493T408 450Q430 473 465 491T545 509Q636 509 685 455T747 304L445 264V234Q458 169 506 133T616 97Q637 97 655 101T688 113T715 127T736 140L751 121Q736 102
716 79T667 35T604 0T525 -14Q468 -14 420 11T341 83Q320 65 300 47T259 16T213 -6T159 -15ZM445 300L587 323Q585 354 579 380T563 425T539 456T508 467Q494 467 483 461T463 438T451 395T445 328V300ZM299 241L281 237Q224 224 202 198T179 142Q179 108 198 90T246
71Q272 71 288 88T314 137Q299 179 299 232V241Z" />
<glyph unicode="&#x1fe;" glyph-name="Oslashacute" horiz-adv-x="800" d="M139 79Q90 124 62 187T33 330Q33 407 63 472T145 584T262 657T401 683Q464 683 520 667T623 618L687 689H739L654 594Q706 549 736 486T767 342Q767 260 736 194T653 81T535 9T397 -16Q333
-16 276 1T170 54L93 -32H40L139 79ZM415 25Q490 25 532 99T574 311Q574 356 568 398T549 478L261 156Q286 96 325 61T415 25ZM226 357Q226 268 247 198L534 519Q510 575 472 608T384 642Q310 642 268 569T226 357ZM582 865V852L419 719H368L444 865H582Z" />
<glyph unicode="&#x1ff;" glyph-name="oslashacute" horiz-adv-x="603" d="M32 -48L113 48Q71 84 50 134T28 240Q28 298 49 347T108 433T195 489T302 509Q397 509 465 464L527 537H572L493 443Q531 410 553 363T575 257Q575 198 554 148T497 62T410 6T302 -15Q254
-15 214 -4T142 28L78 -48H32ZM283 473Q258 473 242 457T215 415T201 359T197 301Q197 225 212 164L381 365Q365 415 340 444T283 473ZM404 199Q404 233 401 264T392 324L223 124Q239 77 263 50T319 22Q361 22 383 70T404 199ZM457 769V762L317 573H280L330 769H457Z"
/>
<glyph unicode="&#x218;" glyph-name="Scommaaccent" horiz-adv-x="562" d="M145 -225Q199 -208 221 -189T244 -146Q244 -125 228 -113T188 -98V-92Q199 -66 220 -54T269 -41Q306 -41 330 -62T355 -119Q355 -167 306 -200T153 -250L145 -225ZM39 237H68L153 63Q172
49 198 38T262 26Q312 26 343 56T375 136Q375 176 354 201T278 249L219 272Q134 306 96 354T58 471Q58 509 75 547T125 615T208 664T324 683Q370 683 415 671T495 642L497 462H466L397 618Q384 629 366 637T318 646Q267 646 237 617T206 545Q206 499 233 473T321
424L385 399Q466 367 498 324T531 224Q531 167 507 123T444 48T355 1T252 -15Q193 -15 145 -2T57 29L39 237Z" />
<glyph unicode="&#x219;" glyph-name="scommaaccent" horiz-adv-x="460" d="M96 -225Q150 -208 172 -189T195 -146Q195 -125 179 -113T139 -98V-92Q150 -66 171 -54T220 -41Q257 -41 281 -62T306 -119Q306 -167 257 -200T104 -250L96 -225ZM192 -15Q148 -15 113
-7T40 16L34 177H63L126 52Q135 42 154 33T196 23Q235 23 258 43T281 96Q281 149 217 172L147 198Q90 219 65 256T40 345Q40 381 55 411T100 464T171 498T263 511Q299 511 335 503T403 481L402 335H376L319 447Q307 458 290 465T253 472Q221 472 201 453T180 405Q180
376 198 359T247 330L310 306Q368 284 397 252T426 167Q426 126 408 93T358 35T284 -2T192 -15Z" />
<glyph unicode="&#x21a;" glyph-name="uni021A" horiz-adv-x="647" d="M196 -225Q250 -208 272 -189T295 -146Q295 -125 279 -113T239 -98V-92Q250 -66 271 -54T320 -41Q357 -41 381 -62T406 -119Q406 -167 357 -200T204 -250L196 -225ZM540 664L627 666V455H598L533
618H410V54L506 35V0H140V35L237 54V618H114L49 455H19L20 666L108 664H540Z" />
<glyph unicode="&#x21b;" glyph-name="uni021B" horiz-adv-x="378" d="M74 -225Q128 -208 150 -189T173 -146Q173 -125 157 -113T117 -98V-92Q128 -66 149 -54T198 -41Q235 -41 259 -62T284 -119Q284 -167 235 -200T82 -250L74 -225ZM203 -14Q132 -14 100 22T69
127L72 437H-1V472L73 497L213 619H231V494H376V436H231V122Q241 86 266 73T322 60Q340 60 354 63T374 68L380 40Q366 32 349 23T309 5T261 -8T203 -14Z" />
<glyph unicode="&#x237;" glyph-name="uni0237" horiz-adv-x="313" d="M-25 -209Q2 -191 21 -173T53 -131T72 -72T80 14V395L18 440V458L242 509V80Q242 40 241 7T233 -53T214 -104T179 -147Q154 -169 126 -183T71 -207T20 -221T-19 -229L-25 -209Z" />
<glyph unicode="&#x2c6;" glyph-name="circumflex" horiz-adv-x="355" d="M43 573L141 769H215L312 573H270L175 680L85 573H43Z" />
<glyph unicode="&#x2c7;" glyph-name="caron" horiz-adv-x="355" d="M312 769L214 573H140L43 769H85L180 662L271 769H312Z" />
<glyph unicode="&#x2d8;" glyph-name="breve" horiz-adv-x="400" d="M199 578Q169 578 144 588T102 621T74 677T64 761H94Q105 709 132 684T201 659Q286 659 309 761H337Q336 671 298 625T199 578Z" />
<glyph unicode="&#x2d9;" glyph-name="dotaccent" horiz-adv-x="355" d="M178 580Q143 580 119 604T95 663Q95 698 119 722T178 746Q213 746 237 722T262 663Q262 628 238 604T178 580Z" />
<glyph unicode="&#x2da;" glyph-name="ring" horiz-adv-x="355" d="M70 670Q70 691 78 710T100 744T135 766T178 775Q226 775 255 745T285 672Q285 651 277 632T255 599T221 576T177 568Q129 568 100 597T70 670ZM113 672Q113 642 132 623T178 603Q205 603 223
622T242 670Q242 700 223 719T177 739Q150 739 132 720T113 672Z" />
<glyph unicode="&#x2db;" glyph-name="ogonek" horiz-adv-x="400" d="M241 9Q221 -14 209 -31T191 -62T182 -85T180 -102Q180 -125 193 -139T227 -153Q244 -153 258 -145T291 -118L311 -133Q300 -154 287 -173T258 -208T220 -232T171 -241Q127 -241 101 -217T74
-152Q74 -134 81 -116T105 -79T149 -38T216 9H241Z" />
<glyph unicode="&#x2dc;" glyph-name="tilde" horiz-adv-x="355" d="M140 614Q110 625 91 628T57 628T32 612T12 581L-11 591L-5 607Q25 687 65 711T173 711L217 695Q240 687 258 685T291 687T318 704T344 737L367 727L359 708Q342 665 325 638T287 598T242 585T182
599L140 614Z" />
<glyph unicode="&#x2dd;" glyph-name="hungarumlaut" horiz-adv-x="400" d="M199 769V760L87 573H51L91 769H199ZM356 769V760L243 573H206L247 769H356Z" />
</font>
</defs>
</svg>
