<?xml version="1.0" standalone="no"?> <!DOCTYPE svg PUBLIC "-//W3C//DTD SVG 1.0//EN" "http://www.w3.org/TR/2001/REC-SVG-20010904/DTD/svg10.dtd" > <svg xmlns="http://www.w3.org/2000/svg" width="100%" height="100%">
<defs >
<font horiz-adv-x="532" ><font-face
    font-family=""
    units-per-em="1000"
    panose-1="2 0 6 3 8 0 0 2 0 4"
    ascent="760"
    descent="-240"
    alphabetic="0" />
<missing-glyph horiz-adv-x="166" />
<glyph unicode=" " glyph-name="space" horiz-adv-x="166" />
<glyph unicode="!" glyph-name="exclam" horiz-adv-x="283" d="M216 703L156 198H128L68 703H216ZM141 -11Q111 -11 89 11T66 63Q66 94 88 116T141 138Q172 138 194 116T216 63Q216 33 194 11T141 -11Z" />
<glyph unicode="&quot;" glyph-name="quotedbl" horiz-adv-x="443" d="M65 722H186L132 464H111L65 722ZM257 722H378L324 464H303L257 722Z" />
<glyph unicode="#" glyph-name="numbersign" horiz-adv-x="585" d="M79 439H203L231 594H270L242 439H399L427 594H465L437 439H558V398H430L396 207H514V166H389L360 0H322L351 166H194L165 0H126L155 166H35V207H162L196 398H79V439ZM201 207H358L392 398H235L201 207Z" />
<glyph unicode="$" glyph-name="dollar" horiz-adv-x="568" d="M57 214H84L147 59Q162 48 185 38T241 24L262 257L218 271Q138 295 105 341T71 449Q71 485 85 519T128 581T199 625T298 645L308 751H343L333 644Q377 641 418 629T486 604V436H459L406 575Q396 583
377 593T329 607L309 382L372 363Q451 338 485 299T520 203Q520 152 498 112T441 43T361 -1T272 -18L262 -125H227L237 -17Q186 -14 145 -2T67 28L57 214ZM296 247L275 22Q299 23 321 31T362 54T390 90T401 138Q401 178 378 204T305 245L296 247ZM182 502Q182 461
202 436T275 393L295 609Q245 606 214 577T182 502Z" />
<glyph unicode="%" glyph-name="percent" horiz-adv-x="831" d="M612 630H654L202 -50H162L612 630ZM201 576Q185 576 174 567T155 542T144 508T140 467Q140 437 146 408T163 354T189 315T225 300Q240 300 251 309T269 333T281 369T285 410Q285 442 279 472T261
525T234 562T201 576ZM210 269Q174 269 145 281T94 316T60 367T48 432Q48 470 61 502T98 557T151 594T214 607Q251 607 281 594T332 558T365 505T377 443Q377 405 364 373T328 318T275 282T210 269ZM597 290Q582 290 571 281T552 257T540 222T536 181Q536 151 542
122T559 69T585 30T621 15Q636 15 647 24T665 48T677 83T681 125Q681 157 675 186T657 239T630 276T597 290ZM607 -17Q571 -17 542 -5T491 30T457 82T445 147Q445 185 458 217T495 272T547 309T610 322Q647 322 677 309T728 272T761 219T773 157Q773 119 760 87T725
32T672 -4T607 -17Z" />
<glyph unicode="&amp;" glyph-name="ampersand" horiz-adv-x="801" d="M699 431L564 217Q559 208 553 200T541 183Q586 126 617 97T686 67Q709 67 728 74T770 94L784 76Q748 37 708 11T615 -15Q591 -14 573 -9T537 8T503 39T462 86Q416 40 362 10T246 -20Q192
-20 152 -5T85 37T45 98T31 171Q31 204 45 232T83 286T138 331T203 370Q181 391 165 409T137 446T121 482T115 524Q115 562 133 591T180 641T248 673T328 684Q412 684 459 651T506 564Q506 536 495 514T463 474T413 438T346 404Q367 383 392 357T446 298L520 210Q539
239 557 272L644 431L556 455V483H787V455L699 431ZM348 221Q310 263 280 293T226 348Q188 318 170 289T152 220Q152 190 163 163T195 116T245 84T310 72Q343 72 374 82T436 116Q418 138 397 164T348 221ZM228 564Q228 546 233 531T250 501T280 468T323 426Q366
461 383 491T400 562Q400 599 376 625T313 652Q278 652 253 629T228 564Z" />
<glyph unicode="&apos;" glyph-name="quotesingle" horiz-adv-x="251" d="M65 722H186L132 464H111L65 722Z" />
<glyph unicode="(" glyph-name="parenleft" horiz-adv-x="345" d="M298 -180Q203 -90 148 25T92 273Q92 340 107 403T150 525T216 635T301 732H344Q305 681 275 630T223 524T192 407T181 273Q181 205 191 145T221 29T271 -77T340 -180H298Z" />
<glyph unicode=")" glyph-name="parenright" horiz-adv-x="345" d="M46 732Q141 642 196 527T252 279Q252 212 237 149T195 27T129 -83T43 -180H1Q40 -129 70 -78T121 28T152 145T163 279Q163 347 153 407T123 523T74 629T5 732H46Z" />
<glyph unicode="*" glyph-name="asterisk" horiz-adv-x="393" d="M246 504L255 373L235 369L184 489L63 440L53 456L153 542L69 640L81 654L193 589L261 698L279 692L250 566L374 535L373 517L246 504Z" />
<glyph unicode="+" glyph-name="plus" horiz-adv-x="580" d="M313 221V6H267V221H53V264H267V479H313V264H527V221H313Z" />
<glyph unicode="," glyph-name="comma" horiz-adv-x="269" d="M33 -147Q128 -82 128 -17Q128 12 111 33T64 63Q61 78 64 92T76 118T99 137T131 144Q147 144 162 137T190 115T209 82T216 38Q216 -27 174 -75T51 -172L33 -147Z" />
<glyph unicode="-" glyph-name="hyphen" horiz-adv-x="372" d="M56 315H316V238H56V315Z" />
<glyph unicode="." glyph-name="period" horiz-adv-x="252" d="M128 -11Q98 -11 76 11T53 63Q53 94 75 116T128 138Q159 138 181 116T203 63Q203 33 181 11T128 -11Z" />
<glyph unicode="/" glyph-name="slash" horiz-adv-x="420" d="M-33 -196L359 751L396 735L3 -212L-33 -196Z" />
<glyph unicode="0" glyph-name="zero" horiz-adv-x="623" d="M287 487Q236 487 207 441T178 310Q178 262 187 211T216 117T266 47T339 19Q390 19 417 66T445 203Q445 257 433 308T400 399T350 463T287 487ZM314 -17Q253 -17 203 3T116 58T60 143T40 251Q40 307
62 357T121 444T207 502T311 524Q371 524 421 504T508 447T564 362T584 256Q584 199 563 150T504 63T418 5T314 -17Z" />
<glyph unicode="1" glyph-name="one" horiz-adv-x="404" d="M283 49L388 32V0H42V32L154 48V433H32V465L279 518H283V49Z" />
<glyph unicode="2" glyph-name="two" horiz-adv-x="466" d="M154 97H442V0H34V33L92 86Q137 131 170 166T225 231T259 286T270 338Q270 381 245 408T178 435Q144 435 119 417T70 366L45 378Q69 446 116 486T231 526Q302 526 344 487T387 385Q387 353 375 324T340
268T286 212T218 154L154 97Z" />
<glyph unicode="3" glyph-name="three" horiz-adv-x="448" d="M127 -207Q104 -207 82 -201T43 -185T16 -159T5 -126Q5 -103 22 -85T68 -64Q72 -69 83 -84T107 -117T133 -149T152 -171Q217 -168 255 -129T293 -23Q293 9 280 36T242 84T180 116T96 128V179L131 186Q205
218 238 257T271 341Q271 387 244 412T176 438Q139 438 113 419T66 367L39 379Q49 410 66 437T107 483T159 514T224 526Q262 526 292 515T343 485T375 440T386 384Q386 353 375 328T346 283T304 247T257 217L229 201V199Q265 197 298 185T356 151T397 98T413 26Q413
-26 387 -69T319 -142T227 -190T127 -207Z" />
<glyph unicode="4" glyph-name="four" horiz-adv-x="595" d="M328 17H22V67L411 520L448 517V103H581V17H448V-193H328V17ZM328 103V373L100 103H328Z" />
<glyph unicode="5" glyph-name="five" horiz-adv-x="401" d="M205 49Q205 80 197 107T170 161T123 215T55 274L133 509H349V399H131L123 375Q176 339 215 306T279 240T317 171T329 93Q329 27 300 -24T226 -115T125 -183T15 -231L4 -207Q33 -192 68 -170T133 -116T184
-44T205 49Z" />
<glyph unicode="6" glyph-name="six" horiz-adv-x="598" d="M563 688Q515 667 465 638T367 572T281 490T216 392Q245 413 278 425T343 438Q388 438 426 423T492 380T536 313T552 226Q552 173 531 128T474 50T393 -1T298 -20Q246 -20 201 -3T121 48T66 131T46 242Q46
302 66 356T123 458T207 546T312 620T430 677T554 717L563 688ZM275 385Q255 385 237 380T205 366Q185 311 185 253Q185 194 196 150T227 76T271 31T322 16Q370 16 395 57T421 168Q421 212 411 251T381 320T335 367T275 385Z" />
<glyph unicode="7" glyph-name="seven" horiz-adv-x="509" d="M45 -179L392 390H38V509H493V502L178 -62L103 -207L45 -179Z" />
<glyph unicode="8" glyph-name="eight" horiz-adv-x="545" d="M38 146Q38 182 53 208T90 255T140 291T194 319Q161 339 137 357T98 397T75 442T67 496Q67 532 83 565T130 625T202 667T296 683Q340 683 376 671T437 638T476 590T490 534Q490 501 476 476T440 431T393
397T347 372Q432 325 469 278T507 173Q507 129 487 93T434 32T356 -6T263 -20Q215 -20 174 -8T103 26T55 78T38 146ZM219 304Q187 274 172 242T157 167Q157 136 166 108T192 59T233 26T286 13Q337 13 363 44T389 119Q389 171 355 207T263 277L219 304ZM177 552Q177
508 199 478T269 419L320 388Q347 416 363 447T379 516Q379 550 370 575T344 618T309 643T270 651Q232 651 205 626T177 552Z" />
<glyph unicode="9" glyph-name="nine" horiz-adv-x="591" d="M40 -183Q167 -126 255 -53T382 114Q353 92 320 81T255 69Q210 69 172 84T105 128T60 195T44 283Q44 334 64 378T119 454T199 506T295 525Q346 525 392 507T472 454T527 371T548 260Q548 162 503 84T387
-53T226 -152T49 -213L40 -183ZM325 121Q364 121 391 140Q409 192 409 253Q409 310 398 354T369 428T327 473T277 489Q231 489 204 450T176 336Q176 292 187 253T217 185T264 138T325 121Z" />
<glyph unicode=":" glyph-name="colon" horiz-adv-x="267" d="M136 -11Q106 -11 84 11T61 63Q61 94 83 116T136 138Q167 138 189 116T211 63Q211 33 189 11T136 -11ZM135 335Q105 335 83 357T61 410Q61 440 83 462T135 484Q166 484 188 462T210 410Q210 379 188
357T135 335Z" />
<glyph unicode=";" glyph-name="semicolon" horiz-adv-x="270" d="M35 -147Q83 -114 106 -83T130 -17Q130 12 113 33T66 63Q63 78 66 92T78 118T101 137T133 144Q149 144 164 137T192 115T211 82T218 38Q218 -27 176 -75T53 -172L35 -147ZM140 335Q110 335 88
357T66 410Q66 440 88 462T140 484Q171 484 193 462T215 410Q215 379 193 357T140 335Z" />
<glyph unicode="&lt;" glyph-name="less" horiz-adv-x="588" d="M116 241L530 51V3L57 225V259L530 480V433L116 241Z" />
<glyph unicode="=" glyph-name="equal" horiz-adv-x="580" d="M53 298V340H527V298H53ZM53 157V199H527V157H53Z" />
<glyph unicode="&gt;" glyph-name="greater" horiz-adv-x="588" d="M471 241L58 432V480L530 258V224L58 3V50L471 241Z" />
<glyph unicode="?" glyph-name="question" horiz-adv-x="394" d="M72 708L113 699Q157 689 201 667T281 613T339 539T362 450Q362 396 334 361T242 306L153 278L156 198H118L92 373L239 413Q286 426 305 440T325 476Q325 509 276 535T118 571L72 575V708ZM138
-11Q108 -11 86 11T63 63Q63 94 85 116T138 138Q169 138 191 116T213 63Q213 33 191 11T138 -11Z" />
<glyph unicode="@" glyph-name="at" horiz-adv-x="945" d="M513 192H510Q505 186 494 170T474 141Q457 118 439 97T402 59T362 32T320 22Q282 22 261 48T240 115Q240 176 269 238T344 350T442 431T542 463Q557 463 573 458T604 445L616 479H699L611 169Q594 107
606 84T651 60Q675 60 706 75T765 123T812 204T831 321Q831 386 808 442T744 539T646 604T522 628Q449 628 379 598T255 514T166 382T132 210Q132 123 158 58T232 -52T342 -118T478 -141Q533 -141 573 -131T631 -113V-130Q625 -134 608 -141T565 -155T507 -167T439
-173Q364 -173 293 -153T168 -90T80 20T47 183Q47 250 67 311T122 426T204 522T307 596T423 643T545 660Q627 660 693 635T805 566T875 463T900 338Q900 260 870 201T794 101T696 40T598 19Q538 19 510 54T502 155L513 192ZM387 103Q403 103 427 125T475 182T520
257T553 334L574 400Q563 414 550 423T523 432Q495 432 466 404T413 334T374 241T359 145Q359 122 366 113T387 103Z" />
<glyph unicode="A" glyph-name="A" horiz-adv-x="684" d="M-6 29L64 47L301 669L337 677L381 686L622 45L690 29V0H391V29L470 46L406 224H177L114 51L228 29V0H-6V29ZM195 275H388L292 543L195 275Z" />
<glyph unicode="B" glyph-name="B" horiz-adv-x="635" d="M30 29L107 48V616L30 635V664L292 665Q370 665 422 655T504 625T548 578T561 519Q561 484 546 458T504 412T444 380T370 361V359Q419 357 462 346T538 314T589 260T608 184Q608 91 530 45T306 -1L30 0V29ZM244
338V82Q254 62 279 47T337 32Q397 32 430 66T463 167Q463 203 451 233T419 285T373 321T317 338H244ZM244 368Q339 374 382 406T426 502Q426 566 378 600T244 634V368Z" />
<glyph unicode="C" glyph-name="C" horiz-adv-x="720" d="M409 -20Q315 -20 246 9T132 85T65 193T43 316Q43 394 74 461T159 577T285 654T438 682Q504 682 555 667T651 630L654 448H625L561 592Q532 616 497 631T414 646Q369 646 330 625T263 566T218 475T202
356Q202 273 221 210T272 104T347 40T439 18Q482 18 511 31T560 61L654 222H684L650 38Q588 10 533 -5T409 -20Z" />
<glyph unicode="D" glyph-name="D" horiz-adv-x="769" d="M244 67Q261 50 292 41T356 33Q406 34 447 56T518 116T564 207T581 322Q581 402 555 462T482 561T375 620T244 637V67ZM30 30L107 48V615L30 635V664L346 666Q430 664 500 641T622 577T701 478T729 346Q729
269 699 205T612 95T472 23T284 -2L30 0V30Z" />
<glyph unicode="E" glyph-name="E" horiz-adv-x="619" d="M245 323V64Q265 40 305 37H455L561 215H592L546 0H30V29L107 48V614L30 635V664H478L558 666V477H528L468 628H245V363H365L397 465H426V226H395L365 323H245Z" />
<glyph unicode="F" glyph-name="F" horiz-adv-x="581" d="M245 317V48L348 33V0H30V30L107 48V614L30 635V664H467L551 666V478H520L461 627H245V356H371L405 459H433V219H404L371 317H245Z" />
<glyph unicode="G" glyph-name="G" horiz-adv-x="758" d="M419 -20Q320 -20 250 9T134 85T67 193T45 316Q45 393 78 460T168 576T298 654T455 682Q522 682 575 668T669 633L674 451H647L570 599Q538 622 508 632T442 643Q388 643 344 621T270 559T222 464T205
341Q205 258 225 198T280 99T358 42T451 23Q485 23 509 28T550 42V246L437 262V297H734V265L684 252V44L649 30Q632 23 607 14T552 -2T489 -15T419 -20Z" />
<glyph unicode="H" glyph-name="H" horiz-adv-x="792" d="M466 29L547 48V322H245V48L326 29V0H30V29L107 48V615L30 635V664H326V635L245 615V363H547V615L466 635V664H762V635L685 615V48L762 29V0H466V29Z" />
<glyph unicode="I" glyph-name="I" horiz-adv-x="353" d="M30 29L107 48V615L30 635V664H322V635L245 615V48L322 29V0H30V29Z" />
<glyph unicode="J" glyph-name="J" horiz-adv-x="357" d="M252 69Q252 7 239 -41T195 -126T115 -184T-8 -216L-14 -193Q26 -175 51 -153T90 -104T109 -43T114 34V615L27 635V664H329V635L252 615V69Z" />
<glyph unicode="K" glyph-name="K" horiz-adv-x="705" d="M30 29L107 48V615L30 635V664H326V635L245 615V48L326 29V0H30V29ZM260 325V330L526 615L434 635V664H662V635L582 614L372 397L643 43L706 29V0H508L260 325Z" />
<glyph unicode="L" glyph-name="L" horiz-adv-x="603" d="M245 64Q265 39 306 38H448L557 245H588L540 0H30V30L107 48V614L30 635V664H332V635L245 615V64Z" />
<glyph unicode="M" glyph-name="M" horiz-adv-x="906" d="M24 29L102 48L130 613L51 635V664H279L465 225L631 642L637 664H857V635L780 616L805 48L883 29V0H579V29L667 48L649 584L464 118L428 26H407L372 117L170 577L150 51L260 30V0H24V29Z" />
<glyph unicode="N" glyph-name="N" horiz-adv-x="728" d="M586 -12L155 529L158 52L254 30V0H35V30L109 49V582Q95 599 77 611T38 630L21 636V664H223L587 205L584 611L489 635V664H706V635L632 614V98L634 -6L586 -12Z" />
<glyph unicode="O" glyph-name="O" horiz-adv-x="790" d="M410 16Q457 16 492 38T551 101T586 195T598 311Q598 375 582 435T538 543T469 618T380 646Q333 646 298 624T239 563T203 471T191 354Q191 291 206 231T249 122T318 45T410 16ZM395 682Q474 682 539 655T651
582T724 475T750 344Q750 259 720 192T641 77T527 5T393 -20Q322 -20 259 4T146 74T69 183T40 329Q40 408 69 473T148 584T261 656T395 682Z" />
<glyph unicode="P" glyph-name="P" horiz-adv-x="584" d="M288 316Q353 324 395 363T437 468Q437 499 427 527T393 578T334 616T245 634V48L341 30V0H30V30L107 48V615L30 635V664H276Q344 664 398 652T491 617T549 560T569 485Q569 438 545 402T482 340T392 300T288
285V316Z" />
<glyph unicode="Q" glyph-name="Q" horiz-adv-x="790" d="M395 682Q474 682 539 655T651 583T724 476T750 347Q750 279 730 223T674 122T591 47T489 1Q531 -30 570 -59T649 -110T727 -145T810 -158Q861 -158 902 -144T979 -103L993 -120Q980 -133 961 -151T912
-185T841 -212T743 -224Q678 -224 622 -206T512 -158T405 -86T290 2Q238 17 193 46T113 118T60 214T40 332Q40 410 69 474T148 585T261 656T395 682ZM410 20Q457 20 492 42T551 103T586 196T598 314Q598 379 582 439T538 545T469 619T380 647Q333 647 298 626T239
566T203 474T191 356Q191 291 205 230T248 123T316 48T410 20Z" />
<glyph unicode="R" glyph-name="R" horiz-adv-x="680" d="M30 29L107 48V616L30 635V664L284 666Q363 666 420 654T513 620T567 568T584 501Q584 440 544 400T435 336V332L616 46L682 29V0H490L340 239Q334 248 328 258T315 278Q308 289 302 300H244V48L320 29V0H30V29ZM244
337H323Q380 346 415 384T450 477Q450 513 435 542T393 592T328 624T244 636V337Z" />
<glyph unicode="S" glyph-name="S" horiz-adv-x="541" d="M43 220H70L143 57Q161 43 188 32T257 20Q313 20 347 53T382 140Q382 160 377 177T360 211T327 241T273 269L219 291Q135 325 98 371T61 483Q61 522 78 558T127 623T205 667T309 684Q357 684 399 669T471
640L475 474H447L385 617Q371 630 351 639T300 649Q273 649 252 641T215 618T191 584T183 542Q183 518 189 501T209 469T245 441T299 414L359 388Q403 368 432 348T478 307T503 260T510 207Q510 155 487 114T427 43T343 -1T247 -17Q186 -17 139 -2T56 31L43 220Z"
/>
<glyph unicode="T" glyph-name="T" horiz-adv-x="636" d="M535 664L610 669L612 469H584L525 624H387V48L481 29V0H154V29L249 48V624H111L52 469H24L26 669L101 664H535Z" />
<glyph unicode="U" glyph-name="U" horiz-adv-x="737" d="M367 -21Q230 -21 163 50T96 252V614L19 635V664H327V635L237 614V266Q237 216 247 175T277 105T329 60T405 44Q493 44 539 96T588 248L587 608L477 635V664H718V635L641 612V265Q641 195 622 142T566
52T480 -2T367 -21Z" />
<glyph unicode="V" glyph-name="V" horiz-adv-x="648" d="M48 616L-3 635V664H280V635L198 615L373 133L547 609L445 634V664H652V635L596 612L356 -12H291L48 616Z" />
<glyph unicode="W" glyph-name="W" horiz-adv-x="936" d="M471 414L318 -9H247L49 616L-3 634V664H265V635L193 616L334 143L450 477L404 616L345 635V664H626V634L547 616L693 154L833 608L733 634V664H939V635L884 612L682 -9H611L471 414Z" />
<glyph unicode="X" glyph-name="X" horiz-adv-x="679" d="M74 47L278 322L90 615L20 635V664H327V635L249 615L379 406H381L526 609L434 634V664H658V635L587 614L405 365L610 48L679 30V0H373V30L450 48L304 283H302L140 50L221 30V0H2V30L74 47Z" />
<glyph unicode="Y" glyph-name="Y" horiz-adv-x="638" d="M390 292V48L469 29V0H172V29L252 48V268L56 619L1 635V664H296V635L210 616L363 322L525 612L427 635V664H637V635L578 614L390 292Z" />
<glyph unicode="Z" glyph-name="Z" horiz-adv-x="642" d="M28 27L406 623H138L69 464H41L46 668L133 664H583V658L188 42H497L599 226H630L587 0H28V27Z" />
<glyph unicode="[" glyph-name="bracketleft" horiz-adv-x="308" d="M99 -181V733H297V697H197V-145H297V-181H99Z" />
<glyph unicode="\" glyph-name="backslash" horiz-adv-x="420" d="M417 -212L25 735L62 751L453 -196L417 -212Z" />
<glyph unicode="]" glyph-name="bracketright" horiz-adv-x="308" d="M209 733V-181H11V-145H111V697H11V733H209Z" />
<glyph unicode="^" glyph-name="asciicircum" horiz-adv-x="453" d="M45 485L206 756H247L408 485H360L223 681L86 485H45Z" />
<glyph unicode="_" glyph-name="underscore" horiz-adv-x="408" d="M4 -173H404V-215H4V-173Z" />
<glyph unicode="`" glyph-name="grave" horiz-adv-x="307" d="M179 763L227 563H194L66 755V763H179Z" />
<glyph unicode="a" glyph-name="a" horiz-adv-x="498" d="M158 -15Q133 -15 110 -7T70 17T42 55T31 107Q31 168 73 200T200 253L297 277V344Q295 394 273 424T211 455Q194 455 181 451T160 440L156 330Q145 326 132 324T101 321Q75 321 60 334T44 371Q44 392 61
414T109 454T180 485T265 497Q344 497 383 461T423 345V79Q423 59 430 53T457 46H500V26Q480 15 460 7Q443 -1 423 -6T384 -12Q305 -12 301 68H296Q284 53 271 38T241 11T204 -8T158 -15ZM226 60Q249 60 267 71T297 98V247L231 225Q189 211 172 189T154 138Q154
106 172 83T226 60Z" />
<glyph unicode="b" glyph-name="b" horiz-adv-x="562" d="M230 -16Q193 -16 158 -9T97 10L61 26V643L-1 675V690L187 746V419Q197 430 212 443T246 468T290 488T342 496Q377 496 411 483T472 443T515 373T532 271Q532 210 505 158T435 67T338 6T230 -16ZM264 426Q237
426 218 417T187 396V73Q197 56 218 42T277 27Q303 27 326 39T366 75T393 136T403 220Q403 266 392 304T361 369T316 411T264 426Z" />
<glyph unicode="c" glyph-name="c" horiz-adv-x="486" d="M258 -14Q210 -14 168 3T96 52T48 131T30 237Q30 296 52 344T110 426T192 480T286 499Q320 499 351 490T406 466T444 430T458 385Q458 356 438 340T386 324Q375 324 366 325T354 329L325 438Q314 449 299
456T262 463Q237 463 216 451T180 418T157 367T148 301Q148 248 162 207T199 138T254 95T321 80Q345 80 366 86T404 101T434 119T454 137L469 122Q457 103 438 80T393 35T334 0T258 -14Z" />
<glyph unicode="d" glyph-name="d" horiz-adv-x="581" d="M297 698L500 747V58L563 41V18L389 -13L378 53Q367 41 352 29T319 7T280 -9T234 -16Q187 -16 149 2T85 53T44 127T30 218Q30 280 54 330T118 417T209 473T314 493Q327 493 343 491T374 484V646L297 682V698ZM303
56Q324 56 342 63T374 81V398Q362 418 339 436T276 455Q253 455 231 445T193 413T166 356T156 271Q156 230 165 192T194 123T240 75T303 56Z" />
<glyph unicode="e" glyph-name="e" horiz-adv-x="500" d="M254 -14Q201 -14 159 6T89 61T45 140T30 235Q30 290 50 338T104 422T181 478T270 499Q358 499 405 447T465 294H143V285Q143 236 157 198T195 134T251 94T319 80Q341 80 361 85T398 99T430 117T456 136L472
121Q456 98 436 74T389 31T329 -1T254 -14ZM240 460Q203 460 178 427T145 327H331Q324 388 302 424T240 460Z" />
<glyph unicode="f" glyph-name="f" horiz-adv-x="340" d="M23 28L84 45V432H12V463L85 486Q89 547 110 596T164 679T237 731T321 750Q348 750 373 743T418 724T450 695T462 658Q462 638 454 626T431 606T400 598T365 599L342 692Q320 714 289 714Q274 714 259
707T233 683T215 639T209 571L210 483H342V436H211V45L287 28V0H23V28Z" />
<glyph unicode="g" glyph-name="g" horiz-adv-x="524" d="M398 433L397 430Q418 410 432 385T446 328Q446 292 431 262T388 209T323 175T242 162Q190 162 151 178Q142 168 137 159T132 139Q132 124 143 115T180 103L380 93Q446 90 478 59T511 -19Q511 -63 486
-103T418 -173T319 -221T201 -239Q113 -239 65 -208T16 -119Q16 -81 43 -54T114 -8V-3Q85 2 63 22T40 78Q40 107 62 134T122 190V192Q86 213 65 247T44 326Q44 365 60 396T103 450T166 485T244 497Q261 497 276 495T305 490T335 483T370 472L518 487V426L398 433ZM150
-13Q138 -26 129 -43T119 -86Q119 -134 157 -161T263 -188Q306 -188 336 -178T385 -151T413 -117T422 -82Q422 -60 407 -45T368 -25L150 -13ZM161 361Q161 324 168 294T187 241T217 207T256 195Q288 195 308 224T329 306Q329 345 321 375T300 425T270 456T233 467Q198
467 180 438T161 361Z" />
<glyph unicode="h" glyph-name="h" horiz-adv-x="592" d="M336 28L393 45V319Q391 363 371 390T305 417Q276 417 251 404T212 379V45L270 28V0H24V28L85 45V636L26 671V688L212 747V409Q223 420 240 435T280 464T328 487T382 497Q448 497 483 461T519 336V45L582
27V0H336V28Z" />
<glyph unicode="i" glyph-name="i" horiz-adv-x="288" d="M20 28L83 45V390L22 430V446L210 497V45L276 28V0H20V28ZM143 594Q114 594 92 615T70 667Q70 696 92 718T143 740Q158 740 171 734T194 718T211 695T217 667Q217 637 195 616T143 594Z" />
<glyph unicode="j" glyph-name="j" horiz-adv-x="283" d="M-19 -220Q10 -202 29 -184T59 -139T76 -76T83 14V390L23 430V446L209 497V55Q209 -15 202 -64T160 -149Q120 -191 73 -210T-13 -239L-19 -220ZM144 594Q114 594 93 615T71 667Q71 696 92 718T144 740Q173
740 195 718T217 667Q217 637 195 616T144 594Z" />
<glyph unicode="k" glyph-name="k" horiz-adv-x="556" d="M85 636L26 671V688L212 747V45L270 28V0H24V28L85 45V636ZM478 -14Q439 -14 414 1T368 43L219 253L402 427L327 457V483H543V459L472 434L324 306L556 10Q545 3 533 -2Q522 -7 509 -10T478 -14Z" />
<glyph unicode="l" glyph-name="l" horiz-adv-x="292" d="M22 28L85 45V636L26 671V688L212 747V45L278 28V0H22V28Z" />
<glyph unicode="m" glyph-name="m" horiz-adv-x="896" d="M640 28L696 45V319Q694 363 674 390T608 417Q579 417 555 404T516 379V45L573 27V0H332V28L389 45V319Q387 363 367 390T301 417Q272 417 248 404T208 378V45L266 28V0H20V28L81 45V390L20 428V443L189
498H194L201 405H203Q213 415 230 431T271 461T322 486T379 497Q433 497 464 476T507 404H510Q520 414 537 430T577 461T628 486T686 497Q752 497 787 461T823 336V45L886 27V0H640V28Z" />
<glyph unicode="n" glyph-name="n" horiz-adv-x="589" d="M20 28L81 45V390L20 428V443L189 498H194L201 405H203Q213 415 230 431T271 461T322 486T379 497Q445 497 480 461T516 336V45L578 27V0H332V28L389 45V319Q387 363 367 390T301 417Q272 417 247 404T208
379V45L266 28V0H20V28Z" />
<glyph unicode="o" glyph-name="o" horiz-adv-x="575" d="M271 464Q242 464 222 448T190 407T173 349T167 284Q167 235 175 188T201 103T244 43T304 20Q353 20 380 70T408 203Q408 260 398 308T369 390T326 444T271 464ZM288 -16Q226 -16 178 4T98 59T48 139T31
232Q31 288 51 336T106 421T187 477T288 498Q345 498 392 480T473 430T525 353T544 253Q544 196 524 147T470 62T389 5T288 -16Z" />
<glyph unicode="p" glyph-name="p" horiz-adv-x="581" d="M12 -201L79 -183V390L17 428V443L190 498H195L199 405H200Q209 418 223 433T257 462T302 485T359 495Q394 495 428 482T490 442T533 372T550 271Q550 208 525 156T458 67T366 10T262 -11Q246 -11 232
-10T206 -6V-181L311 -201V-229H12V-201ZM285 421Q241 421 206 386V66Q219 51 240 39T293 27Q347 27 384 75T421 221Q421 267 411 304T382 367T338 407T285 421Z" />
<glyph unicode="q" glyph-name="q" horiz-adv-x="571" d="M271 -203L374 -181V49Q351 26 316 5T234 -16Q187 -16 150 2T86 52T45 126T30 218Q30 281 54 332T118 418T205 473T301 493Q339 493 367 482T414 456L497 498H502V-182L567 -201V-229H271V-203ZM305 57Q326
57 343 64T374 81V399Q369 408 361 417T341 435T313 449T276 455Q253 455 232 446T194 414T167 355T157 265Q157 226 166 189T195 122T241 75T305 57Z" />
<glyph unicode="r" glyph-name="r" horiz-adv-x="400" d="M20 28L81 45V390L20 428V443L191 498H196L201 367H205L218 393Q234 424 248 444T276 476T304 493T336 498Q362 498 382 482T403 435Q403 376 335 361L273 398Q259 393 239 372T208 319V45L291 28V0H20V28Z" />
<glyph unicode="s" glyph-name="s" horiz-adv-x="434" d="M184 -16Q142 -16 107 -6T42 17L36 170H60L117 48Q128 37 146 28T189 19Q232 19 256 42T280 100Q280 129 264 148T210 182L144 207Q93 226 68 259T42 344Q42 378 57 407T99 456T163 487T245 499Q281 499
314 490T375 468L374 332H352L301 439Q289 449 272 456T234 464Q198 464 177 443T156 391Q156 359 175 342T229 310L282 289Q343 265 370 236T398 155Q398 117 381 86T334 32T266 -3T184 -16Z" />
<glyph unicode="t" glyph-name="t" horiz-adv-x="352" d="M195 -13Q129 -13 102 21T75 116L78 430H4V463L78 486L181 610H202V483H343V428H202V109Q210 76 232 64T285 51Q308 51 326 56T346 62L352 39Q345 34 331 26T297 9T252 -6T195 -13Z" />
<glyph unicode="u" glyph-name="u" horiz-adv-x="587" d="M380 69Q368 56 352 41T314 14T269 -7T216 -16Q153 -16 114 22T74 140V413L12 440V459L200 491V166Q200 64 289 64Q318 64 341 75T378 97V415L310 440V460L505 493V59L572 38V15L391 -13L380 69Z" />
<glyph unicode="v" glyph-name="v" horiz-adv-x="486" d="M216 -16L39 439L-13 455V483H241V455L176 439L277 149L285 122H287L297 150L398 436L331 456V483H499V455L444 439L269 -16H216Z" />
<glyph unicode="w" glyph-name="w" horiz-adv-x="755" d="M563 158Q565 154 566 149T569 139Q571 134 572 128H574Q575 134 576 139Q578 149 581 159L662 434L588 456V483H767V455L708 438L562 -15H499L386 285Q384 289 383 294T379 305Q377 311 376 318H374Q372
311 370 305Q368 300 367 295T364 285L256 -15H197L45 439L-12 455V483H250V455L183 439L265 162Q266 158 267 152T270 141Q272 135 273 128H275Q277 135 279 141Q282 153 286 162L399 488H441L563 158Z" />
<glyph unicode="x" glyph-name="x" horiz-adv-x="519" d="M458 45L513 27V0H270V28L316 45L227 189H225L129 47L180 27V0H8V27L72 46L206 223L67 442L16 457V483H259V457L212 441L291 311H293L378 438L328 457V483H486V457L433 441L311 278L458 45Z" />
<glyph unicode="y" glyph-name="y" horiz-adv-x="492" d="M339 456V483H495V455L449 439L222 -152Q205 -194 180 -219T114 -244Q85 -244 65 -224T44 -174Q44 -144 64 -125T113 -105Q139 -105 153 -118T181 -149L184 -153L228 -40L39 442L-3 455V483H231V455L178
440L291 124L403 436L339 456Z" />
<glyph unicode="z" glyph-name="z" horiz-adv-x="483" d="M30 0V25L295 445H129L73 314H47V492L127 483H456V479L177 36H350L424 182H449L432 -2L345 0H30Z" />
<glyph unicode="{" glyph-name="braceleft" horiz-adv-x="333" d="M102 274Q135 270 158 263T196 243T217 208T224 154L223 -33Q223 -68 228 -91T244 -128T275 -149T322 -155V-181H306Q251 -183 215 -172T157 -138T129 -82T126 -6L142 173Q146 212 131 232T77
255L44 256V296L77 297Q116 299 131 319T142 379L126 558Q122 600 129 633T157 689T214 723T306 733H322V707Q294 707 275 701T245 681T228 643T223 585L224 397Q224 365 218 344T196 310T158 289T102 277V274Z" />
<glyph unicode="|" glyph-name="bar" horiz-adv-x="224" d="M93 -205V739H131V-205H93Z" />
<glyph unicode="}" glyph-name="braceright" horiz-adv-x="333" d="M231 278Q198 282 175 289T137 309T116 344T109 398L110 585Q110 654 88 680T11 707V733H27Q82 734 118 723T176 690T204 634T207 558L191 379Q187 340 202 320T256 297L289 296V256L256 255Q217
253 202 233T191 173L207 -6Q211 -48 204 -81T176 -137T119 -171T27 -181H11V-155Q66 -155 88 -129T110 -33L109 155Q109 187 115 208T137 242T175 263T231 275V278Z" />
<glyph unicode="~" glyph-name="asciitilde" horiz-adv-x="504" d="M16 208L23 227Q41 275 63 301T110 337T165 346T225 333L302 309Q337 298 361 295T402 296T433 315T463 355L485 345L478 327Q444 240 395 214T272 211L210 230Q169 243 143 249T98 253T67 237T38
198L16 208Z" />
<glyph unicode="&#xa0;" glyph-name="uni00A0" horiz-adv-x="166" />
<glyph unicode="&#xa1;" glyph-name="exclamdown" horiz-adv-x="283" d="M67 -118L128 387H155L215 -118H67ZM142 596Q172 596 194 574T217 521Q217 491 195 469T142 447Q111 447 89 469T67 521Q67 551 89 573T142 596Z" />
<glyph unicode="&#xa2;" glyph-name="cent" horiz-adv-x="499" d="M227 -12Q186 -6 151 13T90 64T48 139T33 234Q33 292 54 339T109 421T186 476T276 498L287 607H321L310 497Q341 494 369 484T418 459T451 424T463 384Q463 358 446 344T400 329Q389 329 381 330T371
334L342 432Q325 449 306 457L270 83Q281 78 293 77T320 75Q348 75 370 81T409 97T437 115T454 129L467 112Q452 90 432 68T387 27T330 -3T260 -15L250 -123H216L227 -12ZM151 282Q151 219 174 172T237 98L273 463Q248 463 226 452T187 418T161 361T151 282Z" />
<glyph unicode="&#xa3;" glyph-name="sterling" horiz-adv-x="678" d="M134 303H261L279 375Q296 445 330 497T405 584T487 636T559 653Q581 653 600 647T635 629T658 603T667 572Q667 542 643 526T581 503Q570 560 553 586T514 613Q489 613 470 584T434 489L389
303H570V262H378Q366 219 347 184T305 120T255 70T203 32Q230 18 257 3T308 -29L348 -55Q391 -83 419 -101T466 -130T497 -145T521 -150Q552 -150 561 -112T556 -6Q598 -3 623 -12T648 -53Q648 -74 632 -100T588 -149T524 -187T447 -203Q415 -203 383 -190T319
-155T255 -105T191 -44L144 2Q118 -8 97 -12T61 -17Q29 -17 14 -4T-1 27Q-1 49 20 62T69 76Q90 76 115 69T167 50Q188 72 206 109T238 205L251 262H134V303Z" />
<glyph unicode="&#xa5;" glyph-name="yen" horiz-adv-x="603" d="M57 294H220L52 592L-3 608V636H279V608L204 588L340 315H342L493 584L401 608V636H606V607L546 587L374 294H541V259H365V183H542V149H365V49L445 29V0H156V29L235 48V149H57V183H235V259H57V294Z" />
<glyph unicode="&#xa6;" glyph-name="brokenbar" horiz-adv-x="223" d="M93 313V739H131V313H93ZM93 -205V222H131V-205H93Z" />
<glyph unicode="&#xa7;" glyph-name="section" horiz-adv-x="498" d="M276 -111Q276 -97 272 -83T256 -49T226 0T180 74L126 162Q103 199 89 227T66 279T54 323T50 363Q50 408 67 447T112 521T175 581T248 627T320 656T383 666Q425 666 447 648T470 603Q470 583
457 567T421 545Q408 555 391 565Q377 573 358 582T317 599Q295 599 273 595T229 580Q226 569 226 557Q226 544 230 531T246 497T275 448T321 374L375 286Q397 249 412 221T435 168T447 124T451 85Q451 40 434 0T389 -73T326 -134T253 -179T181 -208T119 -218Q76
-218 54 -199T32 -154Q32 -134 44 -118T80 -97Q94 -107 111 -117Q125 -125 144 -134T185 -151Q206 -151 228 -147T272 -131Q274 -126 275 -122T276 -111ZM135 424Q135 376 152 333T201 235L256 142Q280 101 294 73T316 23T325 -13T327 -42Q327 -60 324 -74T315
-99H320Q341 -78 354 -48T367 24Q367 71 349 115T300 213L246 306Q222 348 208 376T186 425T176 460T174 490Q174 507 177 522T186 547H182Q161 526 148 496T135 424Z" />
<glyph unicode="&#xa8;" glyph-name="dieresis" horiz-adv-x="400" d="M109 601Q81 601 62 620T42 667Q42 694 61 714T109 734Q136 734 156 714T176 667Q176 639 156 620T109 601ZM307 601Q279 601 260 620T240 667Q240 694 259 714T307 734Q334 734 354 714T374
667Q374 639 354 620T307 601Z" />
<glyph unicode="&#xa9;" glyph-name="copyright" horiz-adv-x="792" d="M47 331Q47 404 74 467T149 578T260 652T396 679Q468 679 531 652T642 578T717 468T744 331Q744 258 717 195T642 84T531 10T395 -17Q323 -17 260 10T149 84T74 194T47 331ZM77 331Q77 264
102 206T170 104T272 35T396 9Q462 9 520 34T621 103T690 205T715 331Q715 398 690 457T622 559T520 628T396 653Q330 653 272 628T171 560T102 457T77 331ZM407 133Q351 133 312 150T248 194T211 255T199 324Q199 368 216 405T263 470T335 512T424 528Q459 528
488 518T542 497L544 389H520L484 474Q454 502 415 502Q369 502 338 460T307 340Q307 254 340 208T426 162Q444 162 460 168T488 186L530 274H555L540 167Q509 153 479 143T407 133Z" />
<glyph unicode="&#xaa;" glyph-name="ordfeminine" horiz-adv-x="439" d="M139 241Q120 241 102 247T69 266T45 296T36 338Q36 386 70 409T170 449L253 468V537Q251 566 233 587T183 609Q169 609 160 606T145 600L134 510Q127 506 118 504T97 501Q49 501 49 542Q49
558 63 576T102 610T159 635T226 645Q297 645 326 614T356 519V319Q356 302 362 297T386 291H419V269Q404 261 387 255Q373 250 356 246T323 242Q288 242 273 259T257 305H252Q240 292 229 281T204 260T175 246T139 241ZM193 304Q216 304 231 313T253 331V442L207
428Q172 417 155 403T138 363Q138 337 153 321T193 304Z" />
<glyph unicode="&#xab;" glyph-name="guillemotleft" horiz-adv-x="479" d="M237 377L129 212L237 44L219 29L48 200V219L219 393L237 377ZM411 377L303 212L411 44L393 29L222 200V219L393 393L411 377Z" />
<glyph unicode="&#xac;" glyph-name="logicalnot" horiz-adv-x="580" d="M527 264V64H481V221H53V264H527Z" />
<glyph unicode="&#xae;" glyph-name="registered" horiz-adv-x="452" d="M17 551Q17 594 33 631T79 696T146 740T228 756Q271 756 309 740T375 697T419 632T435 551Q435 507 419 470T373 405T306 362T224 346Q181 346 143 361T77 404T33 469T17 551ZM48 551Q48
513 61 481T99 424T155 386T225 372Q263 372 296 385T353 423T391 480T405 551Q405 588 391 620T353 677T296 715T225 729Q187 729 155 715T99 677T62 621T48 551ZM113 465L141 471V643L113 649V664H214Q324 664 324 606Q324 582 306 569T271 548V546L325 471L353
465V450H272L244 491Q240 496 235 503T225 518Q220 526 214 535H198V471L222 465V450H113V465ZM198 553H233Q247 558 255 569T264 597Q264 619 247 634T198 648V553Z" />
<glyph unicode="&#xaf;" glyph-name="macron" horiz-adv-x="400" d="M52 690H348V624H52V690Z" />
<glyph unicode="&#xb0;" glyph-name="degree" horiz-adv-x="300" d="M18 603Q18 630 28 654T57 696T100 724T153 735Q181 735 205 725T246 696T273 654T283 603Q283 575 273 551T244 509T201 481T149 470Q120 470 96 480T55 509T28 551T18 603ZM57 603Q57 561
83 532T151 503Q192 503 218 532T244 603Q244 645 218 674T151 703Q109 703 83 674T57 603Z" />
<glyph unicode="&#xb1;" glyph-name="plusminus" horiz-adv-x="580" d="M313 326V111H267V326H53V368H267V583H313V368H527V326H313ZM53 43H527V0H53V43Z" />
<glyph unicode="&#xb4;" glyph-name="acute" horiz-adv-x="307" d="M240 763V755L112 563H79L127 763H240Z" />
<glyph unicode="&#xb6;" glyph-name="paragraph" horiz-adv-x="548" d="M514 635L441 615V45Q441 -25 424 -73T377 -151T309 -194T228 -207Q191 -207 160 -195T106 -162T71 -112T58 -47Q58 -13 69 14T100 61T145 91T200 102Q225 102 244 94T277 74T298 45T305
11Q305 -34 281 -55T229 -77Q205 -77 188 -60T172 -12Q195 -7 216 4T250 30V34Q244 49 229 59T190 69Q174 69 158 62T129 42T108 7T99 -41Q99 -67 108 -90T134 -132T176 -160T234 -171Q264 -171 290 -162T336 -130T366 -73T377 12V627H324V233H271Q226 233 187
250T119 296T72 364T55 448Q55 493 72 532T118 600T187 647T271 664H514V635Z" />
<glyph unicode="&#xb7;" glyph-name="periodcentered" horiz-adv-x="314" d="M157 201Q127 201 105 223T82 275Q82 306 104 328T157 350Q188 350 210 328T232 275Q232 245 210 223T157 201Z" />
<glyph unicode="&#xb8;" glyph-name="cedilla" horiz-adv-x="263" d="M51 -230Q98 -213 121 -194T145 -148Q145 -126 131 -113T93 -92L154 4H186L153 -47Q193 -54 216 -73T239 -125Q239 -151 225 -171T185 -207T127 -234T57 -251L51 -230Z" />
<glyph unicode="&#xba;" glyph-name="ordmasculine" horiz-adv-x="468" d="M223 616Q202 616 187 604T162 571T148 524T143 469Q143 431 149 395T169 330T201 284T246 267Q284 267 305 307T326 417Q326 458 319 494T298 558T265 600T223 616ZM234 236Q184 236
146 252T83 295T44 359T31 435Q31 480 46 518T89 585T154 630T234 646Q280 646 317 632T381 592T422 530T437 448Q437 403 422 364T379 297T314 252T234 236Z" />
<glyph unicode="&#xbb;" glyph-name="guillemotright" horiz-adv-x="479" d="M68 46L176 211L69 378L87 393L257 222V204L87 29L68 46ZM242 46L350 211L243 378L261 393L431 222V204L261 29L242 46Z" />
<glyph unicode="&#xbc;" glyph-name="onequarter" horiz-adv-x="723" d="M189 328L257 316V292H18V316L91 328V604H15V627L179 671H189V328ZM88 -59L627 721L655 702L116 -79L88 -59ZM643 150H710V92H643V34L694 23V1H502V23L555 33V92H381V126L606 383L643 376V150ZM555
150V287L435 150H555Z" />
<glyph unicode="&#xbd;" glyph-name="onehalf" horiz-adv-x="765" d="M88 -59L627 721L655 702L116 -79L88 -59ZM189 328L257 316V292H18V316L91 328V604H15V627L179 671H189V328ZM549 78H746V1H459V27L528 91Q557 118 578 139T613 178T634 214T641 252Q641 284
621 302T569 321Q540 321 521 305T482 264L462 277Q487 328 524 357T613 387Q666 387 699 359T733 282Q733 257 725 237T703 200T670 166T626 133L549 78Z" />
<glyph unicode="&#xbe;" glyph-name="threequarters" horiz-adv-x="727" d="M137 306Q165 306 185 324T205 375Q205 410 173 436T72 463V489Q134 497 163 520T192 570Q192 593 177 608T133 623Q108 623 84 608T39 566L19 578Q39 620 75 649T170 678Q221 678 250
655T279 596Q279 560 252 538T184 502V498Q240 495 268 470T297 407Q297 379 284 356T247 317T194 292T131 283Q76 283 43 303T9 352Q9 369 21 380T56 392L98 317Q111 306 137 306ZM92 -59L631 721L659 702L120 -79L92 -59ZM647 150H714V92H647V34L698 23V1H506V23L559
33V92H385V126L610 383L647 376V150ZM559 150V287L439 150H559Z" />
<glyph unicode="&#xbf;" glyph-name="questiondown" horiz-adv-x="394" d="M330 -123L289 -114Q245 -104 201 -82T120 -28T62 45T39 134Q39 189 67 224T160 279L249 306L246 387H284L310 212L163 172Q116 159 97 144T77 109Q77 75 126 50T284 14L330 10V-123ZM264
596Q294 596 316 574T339 521Q339 491 317 469T264 447Q233 447 211 469T189 521Q189 551 211 573T264 596Z" />
<glyph unicode="&#xc0;" glyph-name="Agrave" horiz-adv-x="684" d="M-6 29L64 47L301 669L337 677L381 686L622 45L690 29V0H391V29L470 46L406 224H177L114 51L228 29V0H-6V29ZM195 275H388L292 543L195 275ZM292 865L365 722H321L166 854V865H292Z" />
<glyph unicode="&#xc1;" glyph-name="Aacute" horiz-adv-x="684" d="M-6 29L64 47L301 669L337 677L381 686L622 45L690 29V0H391V29L470 46L406 224H177L114 51L228 29V0H-6V29ZM195 275H388L292 543L195 275ZM515 865V854L360 722H315L389 865H515Z" />
<glyph unicode="&#xc2;" glyph-name="Acircumflex" horiz-adv-x="684" d="M-6 29L64 47L301 669L337 677L381 686L622 45L690 29V0H391V29L470 46L406 224H177L114 51L228 29V0H-6V29ZM195 275H388L292 543L195 275ZM186 722L294 859H388L492 722H443L338 794L230
722H186Z" />
<glyph unicode="&#xc3;" glyph-name="Atilde" horiz-adv-x="684" d="M-6 29L64 47L301 669L337 677L381 686L622 45L690 29V0H391V29L470 46L406 224H177L114 51L228 29V0H-6V29ZM195 275H388L292 543L195 275ZM319 765Q289 775 270 779T237 781T214 766T195 736L174
746L179 760Q205 834 243 853T341 852L385 837Q409 829 426 827T457 828T481 844T503 876L525 866L519 850Q504 810 488 786T454 750T412 739T359 751L319 765Z" />
<glyph unicode="&#xc4;" glyph-name="Adieresis" horiz-adv-x="684" d="M-6 29L64 47L301 669L337 677L381 686L622 45L690 29V0H391V29L470 46L406 224H177L114 51L228 29V0H-6V29ZM195 275H388L292 543L195 275ZM228 737Q201 737 182 756T162 803Q162 830 181
850T228 870Q256 870 276 850T296 803Q296 775 276 756T228 737ZM455 737Q428 737 409 756T389 803Q389 830 408 850T455 870Q482 870 502 850T523 803Q523 775 503 756T455 737Z" />
<glyph unicode="&#xc5;" glyph-name="Aring" horiz-adv-x="684" d="M-6 29L64 47L301 669L337 677L381 686L622 45L690 29V0H391V29L470 46L406 224H177L114 51L228 29V0H-6V29ZM195 275H388L292 543L195 275ZM236 831Q236 852 244 870T266 902T299 924T340 932Q386
932 415 903T444 832Q444 789 415 760T340 731Q294 731 265 759T236 831ZM276 832Q276 802 295 783T340 764Q367 764 385 782T404 831Q404 860 385 879T340 898Q313 898 295 880T276 832Z" />
<glyph unicode="&#xc6;" glyph-name="AE" horiz-adv-x="949" d="M578 312V64Q589 52 603 46T638 38H785L891 215H922L876 0H370V29L443 48V313H260L119 51L224 29V0H-1V29L62 47L385 610L298 635V664H808L889 666V477H858L798 627H578V351H695L727 454H756V215H725L695
312H578ZM430 617L281 351H443V617H430Z" />
<glyph unicode="&#xc7;" glyph-name="Ccedilla" horiz-adv-x="720" d="M284 -230Q331 -213 354 -194T378 -148Q378 -126 364 -113T326 -92L372 -18Q288 -12 226 18T124 95T63 199T43 316Q43 394 74 461T159 577T285 654T438 682Q504 682 555 667T651 630L654 448H625L561
592Q532 616 497 631T414 646Q369 646 330 625T263 566T218 475T202 356Q202 273 221 210T272 104T347 40T439 18Q482 18 511 31T560 61L654 222H684L650 38Q588 10 533 -5T409 -20H403L386 -47Q426 -54 449 -73T472 -125Q472 -151 458 -171T418 -207T360 -234T290
-251L284 -230Z" />
<glyph unicode="&#xc8;" glyph-name="Egrave" horiz-adv-x="619" d="M289 865L362 722H318L163 854V865H289ZM245 323V64Q265 40 305 37H455L561 215H592L546 0H30V29L107 48V614L30 635V664H478L558 666V477H528L468 628H245V363H365L397 465H426V226H395L365 323H245Z" />
<glyph unicode="&#xc9;" glyph-name="Eacute" horiz-adv-x="619" d="M504 865V854L349 722H304L378 865H504ZM245 323V64Q265 40 305 37H455L561 215H592L546 0H30V29L107 48V614L30 635V664H478L558 666V477H528L468 628H245V363H365L397 465H426V226H395L365 323H245Z" />
<glyph unicode="&#xca;" glyph-name="Ecircumflex" horiz-adv-x="619" d="M172 722L280 859H374L478 722H429L324 794L216 722H172ZM245 323V64Q265 40 305 37H455L561 215H592L546 0H30V29L107 48V614L30 635V664H478L558 666V477H528L468 628H245V363H365L397
465H426V226H395L365 323H245Z" />
<glyph unicode="&#xcb;" glyph-name="Edieresis" horiz-adv-x="619" d="M245 323V64Q265 40 305 37H455L561 215H592L546 0H30V29L107 48V614L30 635V664H478L558 666V477H528L468 628H245V363H365L397 465H426V226H395L365 323H245ZM209 737Q182 737 163 756T143
803Q143 830 162 850T209 870Q237 870 257 850T277 803Q277 775 257 756T209 737ZM436 737Q409 737 390 756T370 803Q370 830 389 850T436 870Q463 870 483 850T504 803Q504 775 484 756T436 737Z" />
<glyph unicode="&#xcc;" glyph-name="Igrave" horiz-adv-x="353" d="M30 29L107 48V615L30 635V664H322V635L245 615V48L322 29V0H30V29ZM386 865L459 722H415L260 854V865H386Z" />
<glyph unicode="&#xcd;" glyph-name="Iacute" horiz-adv-x="353" d="M30 29L107 48V615L30 635V664H322V635L245 615V48L322 29V0H30V29ZM345 865V854L190 722H145L219 865H345Z" />
<glyph unicode="&#xce;" glyph-name="Icircumflex" horiz-adv-x="353" d="M30 29L107 48V615L30 635V664H322V635L245 615V48L322 29V0H30V29ZM35 722L133 859H222L316 722H268L175 796L80 722H35Z" />
<glyph unicode="&#xcf;" glyph-name="Idieresis" horiz-adv-x="353" d="M82 735Q54 735 35 754T15 801Q15 828 34 848T82 868Q109 868 129 848T149 801Q149 773 129 754T82 735ZM270 735Q243 735 224 754T204 801Q204 828 223 848T270 868Q298 868 318 848T338
801Q338 773 318 754T270 735ZM30 29L107 48V615L30 635V664H322V635L245 615V48L322 29V0H30V29Z" />
<glyph unicode="&#xd0;" glyph-name="Eth" horiz-adv-x="769" d="M30 30L107 48V314H27V354H107V615L30 635V664L345 666Q430 664 500 641T622 577T701 478T729 346Q729 269 699 205T612 95T472 23T284 -2L30 0V30ZM244 314V67Q261 50 291 42T355 33Q405 33 446
55T518 115T564 207T581 322Q581 402 555 462T482 561T375 620T244 637V354H399V314H244Z" />
<glyph unicode="&#xd1;" glyph-name="Ntilde" horiz-adv-x="728" d="M366 765Q336 775 317 779T284 781T261 766T242 736L221 746L226 760Q252 834 290 853T388 852L432 837Q456 829 473 827T504 828T528 844T550 876L572 866L566 850Q551 810 535 786T501 750T459
739T406 751L366 765ZM586 -12L155 529L158 52L254 30V0H35V30L109 49V582Q95 599 77 611T38 630L21 636V664H223L587 205L584 611L489 635V664H706V635L632 614V98L634 -6L586 -12Z" />
<glyph unicode="&#xd2;" glyph-name="Ograve" horiz-adv-x="790" d="M348 865L421 722H377L222 854V865H348ZM410 16Q457 16 492 38T551 101T586 195T598 311Q598 375 582 435T538 543T469 618T380 646Q333 646 298 624T239 563T203 471T191 354Q191 291 206 231T249
122T318 45T410 16ZM395 682Q474 682 539 655T651 582T724 475T750 344Q750 259 720 192T641 77T527 5T393 -20Q322 -20 259 4T146 74T69 183T40 329Q40 408 69 473T148 584T261 656T395 682Z" />
<glyph unicode="&#xd3;" glyph-name="Oacute" horiz-adv-x="790" d="M563 865V854L408 722H363L437 865H563ZM410 16Q457 16 492 38T551 101T586 195T598 311Q598 375 582 435T538 543T469 618T380 646Q333 646 298 624T239 563T203 471T191 354Q191 291 206 231T249
122T318 45T410 16ZM395 682Q474 682 539 655T651 582T724 475T750 344Q750 259 720 192T641 77T527 5T393 -20Q322 -20 259 4T146 74T69 183T40 329Q40 408 69 473T148 584T261 656T395 682Z" />
<glyph unicode="&#xd4;" glyph-name="Ocircumflex" horiz-adv-x="790" d="M242 722L350 859H444L548 722H499L394 794L286 722H242ZM410 16Q457 16 492 38T551 101T586 195T598 311Q598 375 582 435T538 543T469 618T380 646Q333 646 298 624T239 563T203 471T191
354Q191 291 206 231T249 122T318 45T410 16ZM395 682Q474 682 539 655T651 582T724 475T750 344Q750 259 720 192T641 77T527 5T393 -20Q322 -20 259 4T146 74T69 183T40 329Q40 408 69 473T148 584T261 656T395 682Z" />
<glyph unicode="&#xd5;" glyph-name="Otilde" horiz-adv-x="790" d="M375 765Q345 775 326 779T293 781T270 766T251 736L230 746L235 760Q261 834 299 853T397 852L441 837Q465 829 482 827T513 828T537 844T559 876L581 866L575 850Q560 810 544 786T510 750T468
739T415 751L375 765ZM410 16Q457 16 492 38T551 101T586 195T598 311Q598 375 582 435T538 543T469 618T380 646Q333 646 298 624T239 563T203 471T191 354Q191 291 206 231T249 122T318 45T410 16ZM395 682Q474 682 539 655T651 582T724 475T750 344Q750 259
720 192T641 77T527 5T393 -20Q322 -20 259 4T146 74T69 183T40 329Q40 408 69 473T148 584T261 656T395 682Z" />
<glyph unicode="&#xd6;" glyph-name="Odieresis" horiz-adv-x="790" d="M281 737Q254 737 235 756T215 803Q215 830 234 850T281 870Q309 870 329 850T349 803Q349 775 329 756T281 737ZM508 737Q481 737 462 756T442 803Q442 830 461 850T508 870Q535 870 555
850T576 803Q576 775 556 756T508 737ZM410 16Q457 16 492 38T551 101T586 195T598 311Q598 375 582 435T538 543T469 618T380 646Q333 646 298 624T239 563T203 471T191 354Q191 291 206 231T249 122T318 45T410 16ZM395 682Q474 682 539 655T651 582T724 475T750
344Q750 259 720 192T641 77T527 5T393 -20Q322 -20 259 4T146 74T69 183T40 329Q40 408 69 473T148 584T261 656T395 682Z" />
<glyph unicode="&#xd7;" glyph-name="multiply" horiz-adv-x="580" d="M288 211L101 21L69 52L258 242L72 430L105 462L291 275L477 467L508 435L321 245L510 55L476 22L288 211Z" />
<glyph unicode="&#xd8;" glyph-name="Oslash" horiz-adv-x="790" d="M146 74Q97 120 69 184T40 329Q40 408 69 473T148 584T261 656T395 682Q456 682 508 666T604 620L667 696H714L632 598Q688 551 719 485T750 344Q750 259 720 192T641 77T527 5T393 -20Q332
-20 277 -2T175 50L105 -33H57L146 74ZM410 16Q457 16 492 38T550 101T585 195T597 311Q597 365 587 415T557 508L242 131Q270 79 312 48T410 16ZM192 354Q192 304 200 257T225 168L539 543Q510 590 470 618T380 646Q333 646 298 624T240 563T204 471T192 354Z"
/>
<glyph unicode="&#xd9;" glyph-name="Ugrave" horiz-adv-x="737" d="M349 865L422 722H378L223 854V865H349ZM367 -21Q230 -21 163 50T96 252V614L19 635V664H327V635L237 614V266Q237 216 247 175T277 105T329 60T405 44Q493 44 539 96T588 248L587 608L477 635V664H718V635L641
612V265Q641 195 622 142T566 52T480 -2T367 -21Z" />
<glyph unicode="&#xda;" glyph-name="Uacute" horiz-adv-x="737" d="M561 865V854L406 722H361L435 865H561ZM367 -21Q230 -21 163 50T96 252V614L19 635V664H327V635L237 614V266Q237 216 247 175T277 105T329 60T405 44Q493 44 539 96T588 248L587 608L477 635V664H718V635L641
612V265Q641 195 622 142T566 52T480 -2T367 -21Z" />
<glyph unicode="&#xdb;" glyph-name="Ucircumflex" horiz-adv-x="737" d="M248 722L356 859H450L554 722H505L400 794L292 722H248ZM367 -21Q230 -21 163 50T96 252V614L19 635V664H327V635L237 614V266Q237 216 247 175T277 105T329 60T405 44Q493 44 539 96T588
248L587 608L477 635V664H718V635L641 612V265Q641 195 622 142T566 52T480 -2T367 -21Z" />
<glyph unicode="&#xdc;" glyph-name="Udieresis" horiz-adv-x="737" d="M367 -21Q230 -21 163 50T96 252V614L19 635V664H327V635L237 614V266Q237 216 247 175T277 105T329 60T405 44Q493 44 539 96T588 248L587 608L477 635V664H718V635L641 612V265Q641 195
622 142T566 52T480 -2T367 -21ZM285 737Q258 737 239 756T219 803Q219 830 238 850T285 870Q313 870 333 850T353 803Q353 775 333 756T285 737ZM512 737Q485 737 466 756T446 803Q446 830 465 850T512 870Q539 870 559 850T580 803Q580 775 560 756T512 737Z"
/>
<glyph unicode="&#xdd;" glyph-name="Yacute" horiz-adv-x="638" d="M390 292V48L469 29V0H172V29L252 48V268L56 619L1 635V664H296V635L210 616L363 322L525 612L427 635V664H637V635L578 614L390 292ZM528 865V854L373 722H328L402 865H528Z" />
<glyph unicode="&#xde;" glyph-name="Thorn" horiz-adv-x="614" d="M30 30L107 48V615L30 635V664H322V635L245 615V515H296Q369 515 423 502T514 467T569 414T587 349Q587 300 559 265T487 207T390 174T285 164V189Q360 201 405 237T450 337Q450 366 438 392T401
438T338 471T245 485V48L322 29V0H30V30Z" />
<glyph unicode="&#xdf;" glyph-name="germandbls" horiz-adv-x="641" d="M20 28L81 45V435H15V463L82 486Q86 539 107 586T164 670T250 727T361 749Q449 749 500 714T552 616Q552 591 544 572T521 536T490 505T454 477Q420 451 400 433T380 394Q380 376 392 365T434
338L511 296Q540 280 560 266T592 236T610 202T616 160Q616 122 599 90T553 35T486 -2T405 -16Q370 -16 336 -7T272 19V159H292L340 51Q341 49 346 44T362 34T385 25T416 20Q453 20 477 43T501 102Q501 135 480 158T417 204L363 233Q328 252 310 275T291 332Q291
351 298 367T318 399T344 430T374 461Q406 496 422 528T439 605Q439 627 432 647T412 682T379 705T335 714Q310 714 287 705T246 675T218 618T207 529V0H20V28Z" />
<glyph unicode="&#xe0;" glyph-name="agrave" horiz-adv-x="498" d="M158 -15Q133 -15 110 -7T70 17T42 55T31 107Q31 168 73 200T200 253L297 277V344Q295 394 273 424T211 455Q194 455 181 451T160 440L156 330Q145 326 132 324T101 321Q75 321 60 334T44 371Q44
392 61 414T109 454T180 485T265 497Q344 497 383 461T423 345V79Q423 59 430 53T457 46H500V26Q480 15 460 7Q443 -1 423 -6T384 -12Q305 -12 301 68H296Q284 53 271 38T241 11T204 -8T158 -15ZM226 60Q249 60 267 71T297 98V247L231 225Q189 211 172 189T154
138Q154 106 172 83T226 60ZM218 763L266 563H233L105 755V763H218Z" />
<glyph unicode="&#xe1;" glyph-name="aacute" horiz-adv-x="498" d="M158 -15Q133 -15 110 -7T70 17T42 55T31 107Q31 168 73 200T200 253L297 277V344Q295 394 273 424T211 455Q194 455 181 451T160 440L156 330Q145 326 132 324T101 321Q75 321 60 334T44 371Q44
392 61 414T109 454T180 485T265 497Q344 497 383 461T423 345V79Q423 59 430 53T457 46H500V26Q480 15 460 7Q443 -1 423 -6T384 -12Q305 -12 301 68H296Q284 53 271 38T241 11T204 -8T158 -15ZM226 60Q249 60 267 71T297 98V247L231 225Q189 211 172 189T154
138Q154 106 172 83T226 60ZM389 763V755L261 563H228L276 763H389Z" />
<glyph unicode="&#xe2;" glyph-name="acircumflex" horiz-adv-x="498" d="M158 -15Q133 -15 110 -7T70 17T42 55T31 107Q31 168 73 200T200 253L297 277V344Q295 394 273 424T211 455Q194 455 181 451T160 440L156 330Q145 326 132 324T101 321Q75 321 60 334T44
371Q44 392 61 414T109 454T180 485T265 497Q344 497 383 461T423 345V79Q423 59 430 53T457 46H500V26Q480 15 460 7Q443 -1 423 -6T384 -12Q305 -12 301 68H296Q284 53 271 38T241 11T204 -8T158 -15ZM226 60Q249 60 267 71T297 98V247L231 225Q189 211 172 189T154
138Q154 106 172 83T226 60ZM118 563L219 763H281L381 563H342L247 676L157 563H118Z" />
<glyph unicode="&#xe3;" glyph-name="atilde" horiz-adv-x="498" d="M158 -15Q133 -15 110 -7T70 17T42 55T31 107Q31 168 73 200T200 253L297 277V344Q295 394 273 424T211 455Q194 455 181 451T160 440L156 330Q145 326 132 324T101 321Q75 321 60 334T44 371Q44
392 61 414T109 454T180 485T265 497Q344 497 383 461T423 345V79Q423 59 430 53T457 46H500V26Q480 15 460 7Q443 -1 423 -6T384 -12Q305 -12 301 68H296Q284 53 271 38T241 11T204 -8T158 -15ZM226 60Q249 60 267 71T297 98V247L231 225Q189 211 172 189T154
138Q154 106 172 83T226 60ZM225 617Q196 629 177 633T144 633T122 617T103 586L81 596L87 611Q116 683 153 704T251 702L295 685Q341 667 365 676T411 726L433 716L427 701Q411 662 395 637T359 599T316 588T263 601L225 617Z" />
<glyph unicode="&#xe4;" glyph-name="adieresis" horiz-adv-x="498" d="M158 -15Q133 -15 110 -7T70 17T42 55T31 107Q31 168 73 200T200 253L297 277V344Q295 394 273 424T211 455Q194 455 181 451T160 440L156 330Q145 326 132 324T101 321Q75 321 60 334T44
371Q44 392 61 414T109 454T180 485T265 497Q344 497 383 461T423 345V79Q423 59 430 53T457 46H500V26Q480 15 460 7Q443 -1 423 -6T384 -12Q305 -12 301 68H296Q284 53 271 38T241 11T204 -8T158 -15ZM226 60Q249 60 267 71T297 98V247L231 225Q189 211 172 189T154
138Q154 106 172 83T226 60ZM148 601Q120 601 101 620T81 667Q81 694 100 714T148 734Q175 734 195 714T215 667Q215 639 195 620T148 601ZM346 601Q318 601 299 620T279 667Q279 694 298 714T346 734Q373 734 393 714T413 667Q413 639 393 620T346 601Z" />
<glyph unicode="&#xe5;" glyph-name="aring" horiz-adv-x="498" d="M158 -15Q133 -15 110 -7T70 17T42 55T31 107Q31 168 73 200T200 253L297 277V344Q295 394 273 424T211 455Q194 455 181 451T160 440L156 330Q145 326 132 324T101 321Q75 321 60 334T44 371Q44
392 61 414T109 454T180 485T265 497Q344 497 383 461T423 345V79Q423 59 430 53T457 46H500V26Q480 15 460 7Q443 -1 423 -6T384 -12Q305 -12 301 68H296Q284 53 271 38T241 11T204 -8T158 -15ZM226 60Q249 60 267 71T297 98V247L231 225Q189 211 172 189T154
138Q154 106 172 83T226 60ZM144 672Q144 693 152 711T174 743T207 765T248 773Q293 773 322 745T351 673Q351 631 322 602T247 572Q202 572 173 600T144 672ZM183 673Q183 643 202 624T248 605Q274 605 293 624T312 672Q312 701 293 720T247 740Q221 740 202 721T183
673Z" />
<glyph unicode="&#xe6;" glyph-name="ae" horiz-adv-x="756" d="M156 -16Q130 -16 107 -8T67 17T41 55T31 107Q31 138 44 160T83 200T147 230T236 254L298 268V353Q293 398 273 426T212 454Q195 454 181 449T160 438V333Q154 331 137 326T103 321Q77 321 62 335T46
373Q46 395 64 417T112 457T180 486T259 497Q310 497 341 479T388 430Q408 456 444 476T528 497Q571 497 603 484T659 445T697 386T718 308L417 256V215Q425 151 469 116T578 80Q602 80 623 87T661 104T689 123T705 136L720 122Q712 111 697 89T656 43T594 3T508
-15Q453 -15 406 11T330 86Q308 65 289 47T250 14T207 -8T156 -16ZM417 289L583 322Q580 382 558 419T496 457Q460 457 440 428T417 327V289ZM298 236L258 225Q197 208 177 185T156 132Q156 97 176 79T228 60Q263 60 281 84T306 146Q298 178 298 210V236Z" />
<glyph unicode="&#xe7;" glyph-name="ccedilla" horiz-adv-x="486" d="M140 -227Q187 -210 210 -191T234 -145Q234 -123 220 -110T182 -89L230 -12Q187 -8 151 11T87 62T45 138T30 237Q30 296 52 344T110 426T192 480T286 499Q320 499 351 490T406 466T444 430T458
385Q458 356 438 340T386 324Q375 324 366 325T354 329L325 438Q314 449 299 456T262 463Q237 463 216 451T180 418T157 367T148 301Q148 248 162 207T199 138T254 95T321 80Q345 80 366 86T404 101T434 119T454 137L469 122Q457 103 438 80T394 36T335 1T261 -14L242
-44Q282 -51 305 -70T328 -122Q328 -148 314 -168T274 -204T216 -231T146 -248L140 -227Z" />
<glyph unicode="&#xe8;" glyph-name="egrave" horiz-adv-x="500" d="M254 -14Q201 -14 159 6T89 61T45 140T30 235Q30 290 50 338T104 422T181 478T270 499Q358 499 405 447T465 294H143V285Q143 236 157 198T195 134T251 94T319 80Q341 80 361 85T398 99T430
117T456 136L472 121Q456 98 436 74T389 31T329 -1T254 -14ZM240 460Q203 460 178 427T145 327H331Q324 388 302 424T240 460ZM236 763L284 563H251L123 755V763H236Z" />
<glyph unicode="&#xe9;" glyph-name="eacute" horiz-adv-x="500" d="M402 763V755L274 563H241L289 763H402ZM254 -14Q201 -14 159 6T89 61T45 140T30 235Q30 290 50 338T104 422T181 478T270 499Q358 499 405 447T465 294H143V285Q143 236 157 198T195 134T251
94T319 80Q341 80 361 85T398 99T430 117T456 136L472 121Q456 98 436 74T389 31T329 -1T254 -14ZM240 460Q203 460 178 427T145 327H331Q324 388 302 424T240 460Z" />
<glyph unicode="&#xea;" glyph-name="ecircumflex" horiz-adv-x="500" d="M133 563L234 763H296L396 563H357L262 676L172 563H133ZM254 -14Q201 -14 159 6T89 61T45 140T30 235Q30 290 50 338T104 422T181 478T270 499Q358 499 405 447T465 294H143V285Q143 236
157 198T195 134T251 94T319 80Q341 80 361 85T398 99T430 117T456 136L472 121Q456 98 436 74T389 31T329 -1T254 -14ZM240 460Q203 460 178 427T145 327H331Q324 388 302 424T240 460Z" />
<glyph unicode="&#xeb;" glyph-name="edieresis" horiz-adv-x="500" d="M166 601Q138 601 119 620T99 667Q99 694 118 714T166 734Q193 734 213 714T233 667Q233 639 213 620T166 601ZM364 601Q336 601 317 620T297 667Q297 694 316 714T364 734Q391 734 411 714T431
667Q431 639 411 620T364 601ZM254 -14Q201 -14 159 6T89 61T45 140T30 235Q30 290 50 338T104 422T181 478T270 499Q358 499 405 447T465 294H143V285Q143 236 157 198T195 134T251 94T319 80Q341 80 361 85T398 99T430 117T456 136L472 121Q456 98 436 74T389
31T329 -1T254 -14ZM240 460Q203 460 178 427T145 327H331Q324 388 302 424T240 460Z" />
<glyph unicode="&#xec;" glyph-name="igrave" horiz-adv-x="288" d="M20 28L83 45V390L22 430V446L210 497V45L276 28V0H20V28ZM374 763L422 563H389L261 755V763H374Z" />
<glyph unicode="&#xed;" glyph-name="iacute" horiz-adv-x="288" d="M288 763V755L160 563H127L175 763H288ZM20 28L83 45V390L22 430V446L210 497V45L276 28V0H20V28Z" />
<glyph unicode="&#xee;" glyph-name="icircumflex" horiz-adv-x="288" d="M20 28L83 45V390L22 430V446L210 497V45L276 28V0H20V28ZM20 563L115 763H176L270 563H231L143 672L58 563H20Z" />
<glyph unicode="&#xef;" glyph-name="idieresis" horiz-adv-x="288" d="M55 601Q27 601 8 620T-12 667Q-12 694 7 714T55 734Q82 734 102 714T122 667Q122 639 102 620T55 601ZM233 601Q206 601 187 620T167 667Q167 694 186 714T233 734Q261 734 281 714T301
667Q301 639 281 620T233 601ZM20 28L83 45V390L22 430V446L210 497V45L276 28V0H20V28Z" />
<glyph unicode="&#xf0;" glyph-name="eth" horiz-adv-x="578" d="M86 556L218 634Q159 687 84 733L97 757Q151 740 197 719T285 673L409 747L426 719L316 654Q374 614 416 569T487 474T528 373T541 272Q541 205 522 152T468 61T386 3T285 -17Q224 -17 177 3T98
58T49 137T32 232Q32 287 53 334T108 415T187 470T277 490Q311 490 341 479Q321 516 297 548T243 610L104 528L86 556ZM405 208Q405 251 400 290T386 366Q359 412 333 433T276 455Q250 455 230 442T196 407T175 352T168 283Q168 235 176 188T202 104T245 43T304
19Q352 19 378 69T405 208Z" />
<glyph unicode="&#xf1;" glyph-name="ntilde" horiz-adv-x="589" d="M20 28L81 45V390L20 428V443L189 498H194L201 405H203Q213 415 230 431T271 461T322 486T379 497Q445 497 480 461T516 336V45L578 27V0H332V28L389 45V319Q387 363 367 390T301 417Q272 417
247 404T208 379V45L266 28V0H20V28ZM270 617Q241 629 222 633T189 633T167 617T148 586L126 596L132 611Q161 683 198 704T296 702L340 685Q386 667 410 676T456 726L478 716L472 701Q456 662 440 637T404 599T361 588T308 601L270 617Z" />
<glyph unicode="&#xf2;" glyph-name="ograve" horiz-adv-x="575" d="M271 464Q242 464 222 448T190 407T173 349T167 284Q167 235 175 188T201 103T244 43T304 20Q353 20 380 70T408 203Q408 260 398 308T369 390T326 444T271 464ZM288 -16Q226 -16 178 4T98 59T48
139T31 232Q31 288 51 336T106 421T187 477T288 498Q345 498 392 480T473 430T525 353T544 253Q544 196 524 147T470 62T389 5T288 -16ZM258 763L306 563H273L145 755V763H258Z" />
<glyph unicode="&#xf3;" glyph-name="oacute" horiz-adv-x="575" d="M429 763V755L301 563H268L316 763H429ZM271 464Q242 464 222 448T190 407T173 349T167 284Q167 235 175 188T201 103T244 43T304 20Q353 20 380 70T408 203Q408 260 398 308T369 390T326 444T271
464ZM288 -16Q226 -16 178 4T98 59T48 139T31 232Q31 288 51 336T106 421T187 477T288 498Q345 498 392 480T473 430T525 353T544 253Q544 196 524 147T470 62T389 5T288 -16Z" />
<glyph unicode="&#xf4;" glyph-name="ocircumflex" horiz-adv-x="575" d="M159 563L260 763H322L422 563H383L288 676L198 563H159ZM271 464Q242 464 222 448T190 407T173 349T167 284Q167 235 175 188T201 103T244 43T304 20Q353 20 380 70T408 203Q408 260 398
308T369 390T326 444T271 464ZM288 -16Q226 -16 178 4T98 59T48 139T31 232Q31 288 51 336T106 421T187 477T288 498Q345 498 392 480T473 430T525 353T544 253Q544 196 524 147T470 62T389 5T288 -16Z" />
<glyph unicode="&#xf5;" glyph-name="otilde" horiz-adv-x="575" d="M271 464Q242 464 222 448T190 407T173 349T167 284Q167 235 175 188T201 103T244 43T304 20Q353 20 380 70T408 203Q408 260 398 308T369 390T326 444T271 464ZM288 -16Q226 -16 178 4T98 59T48
139T31 232Q31 288 51 336T106 421T187 477T288 498Q345 498 392 480T473 430T525 353T544 253Q544 196 524 147T470 62T389 5T288 -16ZM265 617Q236 629 217 633T184 633T162 617T143 586L121 596L127 611Q156 683 193 704T291 702L335 685Q381 667 405 676T451
726L473 716L467 701Q451 662 435 637T399 599T356 588T303 601L265 617Z" />
<glyph unicode="&#xf6;" glyph-name="odieresis" horiz-adv-x="575" d="M189 601Q161 601 142 620T122 667Q122 694 141 714T189 734Q216 734 236 714T256 667Q256 639 236 620T189 601ZM387 601Q359 601 340 620T320 667Q320 694 339 714T387 734Q414 734 434
714T454 667Q454 639 434 620T387 601ZM271 464Q242 464 222 448T190 407T173 349T167 284Q167 235 175 188T201 103T244 43T304 20Q353 20 380 70T408 203Q408 260 398 308T369 390T326 444T271 464ZM288 -16Q226 -16 178 4T98 59T48 139T31 232Q31 288 51 336T106
421T187 477T288 498Q345 498 392 480T473 430T525 353T544 253Q544 196 524 147T470 62T389 5T288 -16Z" />
<glyph unicode="&#xf7;" glyph-name="divide" horiz-adv-x="580" d="M53 221V264H527V221H53ZM290 334Q264 334 245 353T226 400Q226 425 245 444T290 464Q303 464 315 459T336 444T350 424T356 400Q356 373 336 354T290 334ZM290 21Q264 21 245 40T225 86Q225
112 244 131T290 151Q316 151 335 132T355 86Q355 60 336 41T290 21Z" />
<glyph unicode="&#xf8;" glyph-name="oslash" horiz-adv-x="575" d="M35 -49L111 46Q72 81 52 129T31 232Q31 288 51 336T106 421T187 477T288 498Q333 498 371 487T440 456L501 532H542L465 437Q503 405 523 358T544 253Q544 196 524 147T470 62T389 5T288 -16Q242
-16 204 -5T136 26L76 -49H35ZM271 464Q242 464 222 448T189 406T171 348T166 283Q166 243 171 207T185 139L377 377Q358 419 331 441T271 464ZM408 204Q406 285 390 342L198 104Q215 65 241 43T304 20Q329 20 348 33T381 71T401 129T408 204Z" />
<glyph unicode="&#xf9;" glyph-name="ugrave" horiz-adv-x="587" d="M380 69Q368 56 352 41T314 14T269 -7T216 -16Q153 -16 114 22T74 140V413L12 440V459L200 491V166Q200 64 289 64Q318 64 341 75T378 97V415L310 440V460L505 493V59L572 38V15L391 -13L380
69ZM262 763L310 563H277L149 755V763H262Z" />
<glyph unicode="&#xfa;" glyph-name="uacute" horiz-adv-x="587" d="M433 763V755L305 563H272L320 763H433ZM380 69Q368 56 352 41T314 14T269 -7T216 -16Q153 -16 114 22T74 140V413L12 440V459L200 491V166Q200 64 289 64Q318 64 341 75T378 97V415L310 440V460L505
493V59L572 38V15L391 -13L380 69Z" />
<glyph unicode="&#xfb;" glyph-name="ucircumflex" horiz-adv-x="587" d="M163 563L264 763H326L426 563H387L292 676L202 563H163ZM380 69Q368 56 352 41T314 14T269 -7T216 -16Q153 -16 114 22T74 140V413L12 440V459L200 491V166Q200 64 289 64Q318 64 341
75T378 97V415L310 440V460L505 493V59L572 38V15L391 -13L380 69Z" />
<glyph unicode="&#xfc;" glyph-name="udieresis" horiz-adv-x="587" d="M193 601Q165 601 146 620T126 667Q126 694 145 714T193 734Q220 734 240 714T260 667Q260 639 240 620T193 601ZM391 601Q363 601 344 620T324 667Q324 694 343 714T391 734Q418 734 438
714T458 667Q458 639 438 620T391 601ZM380 69Q368 56 352 41T314 14T269 -7T216 -16Q153 -16 114 22T74 140V413L12 440V459L200 491V166Q200 64 289 64Q318 64 341 75T378 97V415L310 440V460L505 493V59L572 38V15L391 -13L380 69Z" />
<glyph unicode="&#xfd;" glyph-name="yacute" horiz-adv-x="492" d="M339 456V483H495V455L449 439L222 -152Q205 -194 180 -219T114 -244Q85 -244 65 -224T44 -174Q44 -144 64 -125T113 -105Q139 -105 153 -118T181 -149L184 -153L228 -40L39 442L-3 455V483H231V455L178
440L291 124L403 436L339 456ZM423 763V755L295 563H262L310 763H423Z" />
<glyph unicode="&#xfe;" glyph-name="thorn" horiz-adv-x="570" d="M249 -11Q233 -11 219 -9T191 -2V-181L296 -201V-229H-1V-201L64 -183V643L3 675V690L191 746V411Q201 424 215 438T249 465T291 486T344 495Q379 495 413 482T475 442T518 373T535 271Q535 209
510 158T445 69T353 10T249 -11ZM268 423Q241 423 222 413T191 390V64Q202 52 224 40T278 27Q333 27 370 76T407 221Q407 268 396 305T365 369T320 409T268 423Z" />
<glyph unicode="&#xff;" glyph-name="ydieresis" horiz-adv-x="492" d="M339 456V483H495V455L449 439L222 -152Q205 -194 180 -219T114 -244Q85 -244 65 -224T44 -174Q44 -144 64 -125T113 -105Q139 -105 153 -118T181 -149L184 -153L228 -40L39 442L-3 455V483H231V455L178
440L291 124L403 436L339 456ZM171 601Q143 601 124 620T104 667Q104 694 123 714T171 734Q198 734 218 714T238 667Q238 639 218 620T171 601ZM369 601Q341 601 322 620T302 667Q302 694 321 714T369 734Q396 734 416 714T436 667Q436 639 416 620T369 601Z" />
<glyph unicode="&#x100;" glyph-name="Amacron" horiz-adv-x="684" d="M-6 29L64 47L301 669L337 677L381 686L622 45L690 29V0H391V29L470 46L406 224H177L114 51L228 29V0H-6V29ZM195 275H388L292 543L195 275ZM191 830H487V764H191V830Z" />
<glyph unicode="&#x101;" glyph-name="amacron" horiz-adv-x="498" d="M158 -15Q133 -15 110 -7T70 17T42 55T31 107Q31 168 73 200T200 253L297 277V344Q295 394 273 424T211 455Q194 455 181 451T160 440L156 330Q145 326 132 324T101 321Q75 321 60 334T44
371Q44 392 61 414T109 454T180 485T265 497Q344 497 383 461T423 345V79Q423 59 430 53T457 46H500V26Q480 15 460 7Q443 -1 423 -6T384 -12Q305 -12 301 68H296Q284 53 271 38T241 11T204 -8T158 -15ZM226 60Q249 60 267 71T297 98V247L231 225Q189 211 172 189T154
138Q154 106 172 83T226 60ZM99 690H395V624H99V690Z" />
<glyph unicode="&#x102;" glyph-name="Abreve" horiz-adv-x="684" d="M-6 29L64 47L301 669L337 677L381 686L622 45L690 29V0H391V29L470 46L406 224H177L114 51L228 29V0H-6V29ZM195 275H388L292 543L195 275ZM335 717Q300 717 275 729T234 761T210 806T203
859H230Q241 830 267 809T341 787Q387 787 412 808T448 859H474Q475 832 467 807T441 761T397 729T335 717Z" />
<glyph unicode="&#x103;" glyph-name="abreve" horiz-adv-x="498" d="M158 -15Q133 -15 110 -7T70 17T42 55T31 107Q31 168 73 200T200 253L297 277V344Q295 394 273 424T211 455Q194 455 181 451T160 440L156 330Q145 326 132 324T101 321Q75 321 60 334T44 371Q44
392 61 414T109 454T180 485T265 497Q344 497 383 461T423 345V79Q423 59 430 53T457 46H500V26Q480 15 460 7Q443 -1 423 -6T384 -12Q305 -12 301 68H296Q284 53 271 38T241 11T204 -8T158 -15ZM226 60Q249 60 267 71T297 98V247L231 225Q189 211 172 189T154
138Q154 106 172 83T226 60ZM246 573Q189 573 154 614T119 746H145Q157 692 184 669T250 646Q288 646 315 670T353 746H377Q375 661 340 617T246 573Z" />
<glyph unicode="&#x104;" glyph-name="Aogonek" horiz-adv-x="684" d="M-6 29L64 47L301 669L337 677L381 686L622 45L690 29V0H519Q493 -14 476 -29T448 -59T434 -87T430 -112Q430 -136 443 -152T480 -168Q500 -168 516 -159T553 -127L570 -140Q560 -159 548
-177T519 -211T482 -235T434 -245Q392 -245 366 -221T340 -159Q340 -139 347 -121T372 -83T416 -41T482 11L406 224H177L114 51L228 29V0H-6V29ZM195 275H388L292 543L195 275Z" />
<glyph unicode="&#x105;" glyph-name="aogonek" horiz-adv-x="498" d="M396 -12Q346 -14 325 7T302 68H296Q284 53 271 38T241 11T204 -8T158 -15Q133 -15 110 -7T70 17T42 55T31 107Q31 168 73 199T200 253L297 277V344Q295 394 273 424T211 455Q194 455 181
451T160 440L156 330Q145 326 131 324T101 321Q75 321 60 334T44 370Q44 391 61 413T109 454T180 485T265 497Q344 497 383 461T423 345V79Q423 59 430 53T457 46H500V27Q456 1 428 -19T383 -55T360 -87T353 -117Q353 -137 366 -152T403 -168Q424 -168 439 -159T476
-127L494 -140Q483 -159 471 -177T442 -211T406 -235T358 -245Q315 -245 289 -221T263 -159Q263 -118 296 -85T396 -15V-12ZM226 60Q249 60 267 71T297 98V247L231 225Q189 211 172 189T154 138Q154 106 172 83T226 60Z" />
<glyph unicode="&#x106;" glyph-name="Cacute" horiz-adv-x="720" d="M409 -20Q315 -20 246 9T132 85T65 193T43 316Q43 394 74 461T159 577T285 654T438 682Q504 682 555 667T651 630L654 448H625L561 592Q532 616 497 631T414 646Q369 646 330 625T263 566T218
475T202 356Q202 273 221 210T272 104T347 40T439 18Q482 18 511 31T560 61L654 222H684L650 38Q588 10 533 -5T409 -20ZM591 865V854L436 722H391L465 865H591Z" />
<glyph unicode="&#x107;" glyph-name="cacute" horiz-adv-x="486" d="M412 763V755L284 563H251L299 763H412ZM258 -14Q210 -14 168 3T96 52T48 131T30 237Q30 296 52 344T110 426T192 480T286 499Q320 499 351 490T406 466T444 430T458 385Q458 356 438 340T386
324Q375 324 366 325T354 329L325 438Q314 449 299 456T262 463Q237 463 216 451T180 418T157 367T148 301Q148 248 162 207T199 138T254 95T321 80Q345 80 366 86T404 101T434 119T454 137L469 122Q457 103 438 80T393 35T334 0T258 -14Z" />
<glyph unicode="&#x108;" glyph-name="Ccircumflex" horiz-adv-x="720" d="M267 722L375 859H469L573 722H524L419 794L311 722H267ZM409 -20Q315 -20 246 9T132 85T65 193T43 316Q43 394 74 461T159 577T285 654T438 682Q504 682 555 667T651 630L654 448H625L561
592Q532 616 497 631T414 646Q369 646 330 625T263 566T218 475T202 356Q202 273 221 210T272 104T347 40T439 18Q482 18 511 31T560 61L654 222H684L650 38Q588 10 533 -5T409 -20Z" />
<glyph unicode="&#x109;" glyph-name="ccircumflex" horiz-adv-x="486" d="M142 563L243 763H305L405 563H366L271 676L181 563H142ZM258 -14Q210 -14 168 3T96 52T48 131T30 237Q30 296 52 344T110 426T192 480T286 499Q320 499 351 490T406 466T444 430T458
385Q458 356 438 340T386 324Q375 324 366 325T354 329L325 438Q314 449 299 456T262 463Q237 463 216 451T180 418T157 367T148 301Q148 248 162 207T199 138T254 95T321 80Q345 80 366 86T404 101T434 119T454 137L469 122Q457 103 438 80T393 35T334 0T258 -14Z"
/>
<glyph unicode="&#x10a;" glyph-name="Cdotaccent" horiz-adv-x="720" d="M409 -20Q315 -20 246 9T132 85T65 193T43 316Q43 394 74 461T159 577T285 654T438 682Q504 682 555 667T651 630L654 448H625L561 592Q532 616 497 631T414 646Q369 646 330 625T263 566T218
475T202 356Q202 273 221 210T272 104T347 40T439 18Q482 18 511 31T560 61L654 222H684L650 38Q588 10 533 -5T409 -20ZM418 733Q387 733 366 754T345 806Q345 837 366 858T418 880Q448 880 470 859T492 806Q492 775 470 754T418 733Z" />
<glyph unicode="&#x10b;" glyph-name="cdotaccent" horiz-adv-x="486" d="M258 -14Q210 -14 168 3T96 52T48 131T30 237Q30 296 52 344T110 426T192 480T286 499Q320 499 351 490T406 466T444 430T458 385Q458 356 438 340T386 324Q375 324 366 325T354 329L325
438Q314 449 299 456T262 463Q237 463 216 451T180 418T157 367T148 301Q148 248 162 207T199 138T254 95T321 80Q345 80 366 86T404 101T434 119T454 137L469 122Q457 103 438 80T393 35T334 0T258 -14ZM271 594Q241 594 219 615T197 667Q197 697 219 718T271
740Q301 740 322 719T344 667Q344 637 323 616T271 594Z" />
<glyph unicode="&#x10c;" glyph-name="Ccaron" horiz-adv-x="720" d="M573 859L465 722H371L267 859H315L420 786L528 859H573ZM409 -20Q315 -20 246 9T132 85T65 193T43 316Q43 394 74 461T159 577T285 654T438 682Q504 682 555 667T651 630L654 448H625L561
592Q532 616 497 631T414 646Q369 646 330 625T263 566T218 475T202 356Q202 273 221 210T272 104T347 40T439 18Q482 18 511 31T560 61L654 222H684L650 38Q588 10 533 -5T409 -20Z" />
<glyph unicode="&#x10d;" glyph-name="ccaron" horiz-adv-x="486" d="M402 763L301 563H240L139 763H179L273 650L364 763H402ZM258 -14Q210 -14 168 3T96 52T48 131T30 237Q30 296 52 344T110 426T192 480T286 499Q320 499 351 490T406 466T444 430T458 385Q458
356 438 340T386 324Q375 324 366 325T354 329L325 438Q314 449 299 456T262 463Q237 463 216 451T180 418T157 367T148 301Q148 248 162 207T199 138T254 95T321 80Q345 80 366 86T404 101T434 119T454 137L469 122Q457 103 438 80T393 35T334 0T258 -14Z" />
<glyph unicode="&#x10e;" glyph-name="Dcaron" horiz-adv-x="769" d="M512 859L404 722H310L206 859H254L359 786L467 859H512ZM244 67Q261 50 292 41T356 33Q406 34 447 56T518 116T564 207T581 322Q581 402 555 462T482 561T375 620T244 637V67ZM30 30L107 48V615L30
635V664L346 666Q430 664 500 641T622 577T701 478T729 346Q729 269 699 205T612 95T472 23T284 -2L30 0V30Z" />
<glyph unicode="&#x10f;" glyph-name="dcaron" horiz-adv-x="581" d="M554 525L569 728H673V721L579 525H554ZM297 698L500 747V58L563 41V18L389 -13L378 53Q367 41 352 29T319 7T280 -9T234 -16Q187 -16 149 2T85 53T44 127T30 218Q30 280 54 330T118 417T209
473T314 493Q327 493 343 491T374 484V646L297 682V698ZM303 56Q324 56 342 63T374 81V398Q362 418 339 436T276 455Q253 455 231 445T193 413T166 356T156 271Q156 230 165 192T194 123T240 75T303 56Z" />
<glyph unicode="&#x110;" glyph-name="Dcroat" horiz-adv-x="769" d="M30 30L107 48V314H27V354H107V615L30 635V664L345 666Q430 664 500 641T622 577T701 478T729 346Q729 269 699 205T612 95T472 23T284 -2L30 0V30ZM244 314V67Q261 50 291 42T355 33Q405 33
446 55T518 115T564 207T581 322Q581 402 555 462T482 561T375 620T244 637V354H399V314H244Z" />
<glyph unicode="&#x111;" glyph-name="dcroat" horiz-adv-x="581" d="M297 698L500 747V598H565V562H500V58L563 41V18L389 -13L378 52Q367 40 352 28T319 7T280 -9T234 -16Q187 -16 149 2T85 53T44 127T30 218Q30 280 53 330T116 417T207 473T314 493Q327 493
343 491T374 484V562H195V598H374V652L297 682V698ZM303 57Q324 57 342 64T374 82V401Q362 421 340 438T278 455Q255 455 233 445T194 413T167 357T157 274Q157 232 166 193T194 124T240 76T303 57Z" />
<glyph unicode="&#x112;" glyph-name="Emacron" horiz-adv-x="619" d="M245 323V64Q265 40 305 37H455L561 215H592L546 0H30V29L107 48V614L30 635V664H478L558 666V477H528L468 628H245V363H365L397 465H426V226H395L365 323H245ZM176 830H472V764H176V830Z" />
<glyph unicode="&#x113;" glyph-name="emacron" horiz-adv-x="500" d="M254 -14Q201 -14 159 6T89 61T45 140T30 235Q30 290 50 338T104 422T181 478T270 499Q358 499 405 447T465 294H143V285Q143 236 157 198T195 134T251 94T319 80Q341 80 361 85T398 99T430
117T456 136L472 121Q456 98 436 74T389 31T329 -1T254 -14ZM240 460Q203 460 178 427T145 327H331Q324 388 302 424T240 460ZM112 690H408V624H112V690Z" />
<glyph unicode="&#x114;" glyph-name="Ebreve" horiz-adv-x="619" d="M245 323V64Q265 40 305 37H455L561 215H592L546 0H30V29L107 48V614L30 635V664H478L558 666V477H528L468 628H245V363H365L397 465H426V226H395L365 323H245ZM325 717Q290 717 265 729T224
761T200 806T193 859H220Q231 830 257 809T331 787Q377 787 402 808T438 859H464Q465 832 457 807T431 761T387 729T325 717Z" />
<glyph unicode="&#x115;" glyph-name="ebreve" horiz-adv-x="500" d="M254 -14Q201 -14 159 6T89 61T45 140T30 235Q30 290 50 338T104 422T181 478T270 499Q358 499 405 447T465 294H143V285Q143 236 157 198T195 134T251 94T319 80Q341 80 361 85T398 99T430
117T456 136L472 121Q456 98 436 74T389 31T329 -1T254 -14ZM240 460Q203 460 178 427T145 327H331Q324 388 302 424T240 460ZM265 573Q208 573 173 614T138 746H164Q176 692 203 669T269 646Q307 646 334 670T372 746H396Q394 661 359 617T265 573Z" />
<glyph unicode="&#x116;" glyph-name="Edotaccent" horiz-adv-x="619" d="M332 733Q301 733 280 754T259 806Q259 837 280 858T332 880Q362 880 384 859T406 806Q406 775 384 754T332 733ZM245 323V64Q265 40 305 37H455L561 215H592L546 0H30V29L107 48V614L30
635V664H478L558 666V477H528L468 628H245V363H365L397 465H426V226H395L365 323H245Z" />
<glyph unicode="&#x117;" glyph-name="edotaccent" horiz-adv-x="500" d="M254 -14Q201 -14 159 6T89 61T45 140T30 235Q30 290 50 338T104 422T181 478T270 499Q358 499 405 447T465 294H143V285Q143 236 157 198T195 134T251 94T319 80Q341 80 361 85T398 99T430
117T456 136L472 121Q456 98 436 74T389 31T329 -1T254 -14ZM240 460Q203 460 178 427T145 327H331Q324 388 302 424T240 460ZM266 594Q236 594 214 615T192 667Q192 697 214 718T266 740Q296 740 317 719T339 667Q339 637 318 616T266 594Z" />
<glyph unicode="&#x118;" glyph-name="Eogonek" horiz-adv-x="619" d="M245 323V64Q265 40 305 37H455L561 215H592L546 0H465Q422 -42 409 -68T396 -114Q396 -138 409 -153T445 -168Q466 -168 481 -159T518 -127L536 -140Q525 -159 513 -177T485 -211T448 -235T400
-245Q357 -245 331 -221T305 -158Q305 -119 337 -82T435 0H30V29L107 48V614L30 635V664H478L558 666V477H528L468 628H245V363H365L397 465H426V226H395L365 323H245Z" />
<glyph unicode="&#x119;" glyph-name="eogonek" horiz-adv-x="500" d="M254 -14Q201 -14 159 6T89 61T45 140T30 235Q30 290 50 338T104 422T181 478T270 499Q358 499 405 447T465 294H143V285Q143 236 157 198T195 134T251 94T319 80Q341 80 361 85T398 99T430
117T456 136L472 121Q460 102 445 83T409 45Q373 13 350 -12T312 -56T292 -91T286 -119Q286 -139 298 -153T335 -168Q355 -168 370 -159T407 -127L425 -140Q414 -159 402 -177T373 -211T337 -235T289 -245Q246 -245 220 -221T194 -159Q194 -139 202 -122T226 -86T269
-48T332 -3V0Q295 -14 254 -14ZM240 460Q203 460 178 427T145 327H331Q324 388 302 424T240 460Z" />
<glyph unicode="&#x11a;" glyph-name="Ecaron" horiz-adv-x="619" d="M480 859L372 722H278L174 859H222L327 786L435 859H480ZM245 323V64Q265 40 305 37H455L561 215H592L546 0H30V29L107 48V614L30 635V664H478L558 666V477H528L468 628H245V363H365L397 465H426V226H395L365
323H245Z" />
<glyph unicode="&#x11b;" glyph-name="ecaron" horiz-adv-x="500" d="M396 763L295 563H234L133 763H173L267 650L358 763H396ZM254 -14Q201 -14 159 6T89 61T45 140T30 235Q30 290 50 338T104 422T181 478T270 499Q358 499 405 447T465 294H143V285Q143 236 157
198T195 134T251 94T319 80Q341 80 361 85T398 99T430 117T456 136L472 121Q456 98 436 74T389 31T329 -1T254 -14ZM240 460Q203 460 178 427T145 327H331Q324 388 302 424T240 460Z" />
<glyph unicode="&#x11c;" glyph-name="Gcircumflex" horiz-adv-x="758" d="M280 722L388 859H482L586 722H537L432 794L324 722H280ZM419 -20Q320 -20 250 9T134 85T67 193T45 316Q45 393 78 460T168 576T298 654T455 682Q522 682 575 668T669 633L674 451H647L570
599Q538 622 508 632T442 643Q388 643 344 621T270 559T222 464T205 341Q205 258 225 198T280 99T358 42T451 23Q485 23 509 28T550 42V246L437 262V297H734V265L684 252V44L649 30Q632 23 607 14T552 -2T489 -15T419 -20Z" />
<glyph unicode="&#x11d;" glyph-name="gcircumflex" horiz-adv-x="524" d="M118 563L219 763H281L381 563H342L247 676L157 563H118ZM398 433L397 430Q418 410 432 385T446 328Q446 292 431 262T388 209T323 175T242 162Q190 162 151 178Q142 168 137 159T132
139Q132 124 143 115T180 103L380 93Q446 90 478 59T511 -19Q511 -63 486 -103T418 -173T319 -221T201 -239Q113 -239 65 -208T16 -119Q16 -81 43 -54T114 -8V-3Q85 2 63 22T40 78Q40 107 62 134T122 190V192Q86 213 65 247T44 326Q44 365 60 396T103 450T166 485T244
497Q261 497 276 495T305 490T335 483T370 472L518 487V426L398 433ZM150 -13Q138 -26 129 -43T119 -86Q119 -134 157 -161T263 -188Q306 -188 336 -178T385 -151T413 -117T422 -82Q422 -60 407 -45T368 -25L150 -13ZM161 361Q161 324 168 294T187 241T217 207T256
195Q288 195 308 224T329 306Q329 345 321 375T300 425T270 456T233 467Q198 467 180 438T161 361Z" />
<glyph unicode="&#x11e;" glyph-name="Gbreve" horiz-adv-x="758" d="M432 717Q397 717 372 729T331 761T307 806T300 859H327Q338 830 364 809T438 787Q484 787 509 808T545 859H571Q572 832 564 807T538 761T494 729T432 717ZM419 -20Q320 -20 250 9T134 85T67
193T45 316Q45 393 78 460T168 576T298 654T455 682Q522 682 575 668T669 633L674 451H647L570 599Q538 622 508 632T442 643Q388 643 344 621T270 559T222 464T205 341Q205 258 225 198T280 99T358 42T451 23Q485 23 509 28T550 42V246L437 262V297H734V265L684
252V44L649 30Q632 23 607 14T552 -2T489 -15T419 -20Z" />
<glyph unicode="&#x11f;" glyph-name="gbreve" horiz-adv-x="524" d="M398 433L397 430Q418 410 432 385T446 328Q446 292 431 262T388 209T323 175T242 162Q190 162 151 178Q142 168 137 159T132 139Q132 124 143 115T180 103L380 93Q446 90 478 59T511 -19Q511
-63 486 -103T418 -173T319 -221T201 -239Q113 -239 65 -208T16 -119Q16 -81 43 -54T114 -8V-3Q85 2 63 22T40 78Q40 107 62 134T122 190V192Q86 213 65 247T44 326Q44 365 60 396T103 450T166 485T244 497Q261 497 276 495T305 490T335 483T370 472L518 487V426L398
433ZM150 -13Q138 -26 129 -43T119 -86Q119 -134 157 -161T263 -188Q306 -188 336 -178T385 -151T413 -117T422 -82Q422 -60 407 -45T368 -25L150 -13ZM161 361Q161 324 168 294T187 241T217 207T256 195Q288 195 308 224T329 306Q329 345 321 375T300 425T270
456T233 467Q198 467 180 438T161 361ZM246 573Q189 573 154 614T119 746H145Q157 692 184 669T250 646Q288 646 315 670T353 746H377Q375 661 340 617T246 573Z" />
<glyph unicode="&#x120;" glyph-name="Gdotaccent" horiz-adv-x="758" d="M434 733Q403 733 382 754T361 806Q361 837 382 858T434 880Q464 880 486 859T508 806Q508 775 486 754T434 733ZM419 -20Q320 -20 250 9T134 85T67 193T45 316Q45 393 78 460T168 576T298
654T455 682Q522 682 575 668T669 633L674 451H647L570 599Q538 622 508 632T442 643Q388 643 344 621T270 559T222 464T205 341Q205 258 225 198T280 99T358 42T451 23Q485 23 509 28T550 42V246L437 262V297H734V265L684 252V44L649 30Q632 23 607 14T552 -2T489
-15T419 -20Z" />
<glyph unicode="&#x121;" glyph-name="gdotaccent" horiz-adv-x="524" d="M398 433L397 430Q418 410 432 385T446 328Q446 292 431 262T388 209T323 175T242 162Q190 162 151 178Q142 168 137 159T132 139Q132 124 143 115T180 103L380 93Q446 90 478 59T511 -19Q511
-63 486 -103T418 -173T319 -221T201 -239Q113 -239 65 -208T16 -119Q16 -81 43 -54T114 -8V-3Q85 2 63 22T40 78Q40 107 62 134T122 190V192Q86 213 65 247T44 326Q44 365 60 396T103 450T166 485T244 497Q261 497 276 495T305 490T335 483T370 472L518 487V426L398
433ZM150 -13Q138 -26 129 -43T119 -86Q119 -134 157 -161T263 -188Q306 -188 336 -178T385 -151T413 -117T422 -82Q422 -60 407 -45T368 -25L150 -13ZM161 361Q161 324 168 294T187 241T217 207T256 195Q288 195 308 224T329 306Q329 345 321 375T300 425T270
456T233 467Q198 467 180 438T161 361ZM248 594Q218 594 196 615T174 667Q174 697 196 718T248 740Q278 740 299 719T321 667Q321 637 300 616T248 594Z" />
<glyph unicode="&#x122;" glyph-name="Gcommaaccent" horiz-adv-x="758" d="M313 -232Q365 -215 386 -197T408 -156Q408 -134 392 -122T352 -108V-104Q360 -78 379 -65T424 -51Q459 -51 480 -72T502 -126Q502 -221 320 -254L313 -232ZM419 -20Q320 -20 250 9T134
85T67 193T45 316Q45 393 78 460T168 576T298 654T455 682Q522 682 575 668T669 633L674 451H647L570 599Q538 622 508 632T442 643Q388 643 344 621T270 559T222 464T205 341Q205 258 225 198T280 99T358 42T451 23Q485 23 509 28T550 42V246L437 262V297H734V265L684
252V44L649 30Q632 23 607 14T552 -2T489 -15T419 -20Z" />
<glyph unicode="&#x123;" glyph-name="gcommaaccent" horiz-adv-x="524" d="M358 776Q306 759 285 741T263 700Q263 678 279 666T320 652V648Q312 622 293 609T247 595Q212 595 191 616T169 670Q169 765 351 799L358 776ZM398 433L397 430Q418 410 432 385T446
328Q446 292 431 262T388 209T323 175T242 162Q190 162 151 178Q142 168 137 159T132 139Q132 124 143 115T180 103L380 93Q446 90 478 59T511 -19Q511 -63 486 -103T418 -173T319 -221T201 -239Q113 -239 65 -208T16 -119Q16 -81 43 -54T114 -8V-3Q85 2 63 22T40
78Q40 107 62 134T122 190V192Q86 213 65 247T44 326Q44 365 60 396T103 450T166 485T244 497Q261 497 276 495T305 490T335 483T370 472L518 487V426L398 433ZM150 -13Q138 -26 129 -43T119 -86Q119 -134 157 -161T263 -188Q306 -188 336 -178T385 -151T413 -117T422
-82Q422 -60 407 -45T368 -25L150 -13ZM161 361Q161 324 168 294T187 241T217 207T256 195Q288 195 308 224T329 306Q329 345 321 375T300 425T270 456T233 467Q198 467 180 438T161 361Z" />
<glyph unicode="&#x124;" glyph-name="Hcircumflex" horiz-adv-x="792" d="M466 29L547 48V322H245V48L326 29V0H30V29L107 48V615L30 635V664H326V635L245 615V363H547V615L466 635V664H762V635L685 615V48L762 29V0H466V29ZM243 722L351 859H445L549 722H500L395
794L287 722H243Z" />
<glyph unicode="&#x125;" glyph-name="hcircumflex" horiz-adv-x="592" d="M336 28L393 45V319Q391 363 371 390T305 417Q276 417 251 404T212 379V45L270 28V0H24V28L85 45V636L26 671V688L212 747V409Q223 420 240 435T280 464T328 487T382 497Q448 497 483
461T519 336V45L582 27V0H336V28ZM150 761L258 898H352L456 761H407L302 833L194 761H150Z" />
<glyph unicode="&#x126;" glyph-name="Hbar" horiz-adv-x="792" d="M466 29L547 48V322H245V48L326 29V0H30V29L107 48V483H13V523H107V615L30 635V664H326V635L245 615V523H547V615L467 635V664H762V635L685 615V523H780V483H685V48L762 29V0H466V29ZM245 363H547V483H245V363Z"
/>
<glyph unicode="&#x127;" glyph-name="hbar" horiz-adv-x="592" d="M340 28L393 45V319Q391 363 371 390T305 417Q276 417 251 404T212 379V45L270 28V0H24V28L85 46V562H17V598H85V648L26 671V688L212 747V598H391V562H212V409Q223 420 240 435T280 464T328 487T382
497Q448 497 483 461T519 336V45L582 27V0H340V28Z" />
<glyph unicode="&#x128;" glyph-name="Itilde" horiz-adv-x="353" d="M30 29L107 48V615L30 635V664H322V635L245 615V48L322 29V0H30V29ZM409 765Q379 775 360 779T327 781T304 766T285 736L264 746L269 760Q295 834 333 853T431 852L475 837Q499 829 516 827T547
828T571 844T593 876L615 866L609 850Q594 810 578 786T544 750T502 739T449 751L409 765Z" />
<glyph unicode="&#x129;" glyph-name="itilde" horiz-adv-x="288" d="M119 618Q96 628 79 632T49 634T24 620T3 587L-19 597L-14 610Q15 684 53 705T151 701L170 693Q209 676 233 684T280 734L302 724L295 708Q278 669 262 645T227 609T185 599T133 612L119 618ZM20
28L83 45V390L22 430V446L210 497V45L276 28V0H20V28Z" />
<glyph unicode="&#x12a;" glyph-name="Imacron" horiz-adv-x="353" d="M38 830H315V764H38V830ZM30 29L107 48V615L30 635V664H322V635L245 615V48L322 29V0H30V29Z" />
<glyph unicode="&#x12b;" glyph-name="imacron" horiz-adv-x="288" d="M15 690H274V624H15V690ZM20 28L83 45V390L22 430V446L210 497V45L276 28V0H20V28Z" />
<glyph unicode="&#x12c;" glyph-name="Ibreve" horiz-adv-x="353" d="M30 29L107 48V615L30 635V664H322V635L245 615V48L322 29V0H30V29ZM434 717Q399 717 374 729T333 761T309 806T302 859H329Q340 830 366 809T440 787Q486 787 511 808T547 859H573Q574 832
566 807T540 761T496 729T434 717Z" />
<glyph unicode="&#x12d;" glyph-name="ibreve" horiz-adv-x="288" d="M20 28L83 45V390L22 430V446L210 497V45L276 28V0H20V28ZM402 573Q345 573 310 614T275 746H301Q313 692 340 669T406 646Q444 646 471 670T509 746H533Q531 661 496 617T402 573Z" />
<glyph unicode="&#x12e;" glyph-name="Iogonek" horiz-adv-x="353" d="M30 29L107 48V615L30 635V664H322V635L245 615V48L322 29V0H190Q171 -37 160 -63T149 -113Q149 -138 162 -153T199 -168Q220 -168 235 -159T272 -127L290 -140Q279 -159 267 -177T238 -211T202
-235T154 -245Q111 -245 85 -221T59 -158Q59 -142 64 -126T82 -91T114 -50T162 0H30V29Z" />
<glyph unicode="&#x12f;" glyph-name="iogonek" horiz-adv-x="288" d="M20 28L83 45V390L22 430V446L210 497V45L276 28V0H162Q143 -37 132 -63T121 -113Q121 -138 134 -153T170 -168Q191 -168 206 -159T243 -127L261 -140Q250 -159 238 -177T210 -211T173 -235T125
-245Q82 -245 56 -221T30 -158Q30 -142 35 -126T53 -91T85 -50T134 0H20V28ZM143 594Q114 594 92 615T70 667Q70 696 92 718T143 740Q158 740 171 734T194 718T211 695T217 667Q217 637 195 616T143 594Z" />
<glyph unicode="&#x130;" glyph-name="Idotaccent" horiz-adv-x="353" d="M30 29L107 48V615L30 635V664H322V635L245 615V48L322 29V0H30V29ZM433 733Q402 733 381 754T360 806Q360 837 381 858T433 880Q463 880 485 859T507 806Q507 775 485 754T433 733Z" />
<glyph unicode="&#x131;" glyph-name="dotlessi" horiz-adv-x="288" d="M20 28L83 45V390L22 430V446L210 497V45L276 28V0H20V28Z" />
<glyph unicode="&#x132;" glyph-name="IJ" horiz-adv-x="695" d="M30 29L107 48V615L30 635V664H322V635L245 615V48L322 29V0H30V29ZM591 69Q591 7 578 -41T534 -126T454 -184T331 -216L325 -193Q365 -175 390 -153T429 -104T448 -43T453 34V615L366 635V664H668V635L591
615V69Z" />
<glyph unicode="&#x133;" glyph-name="ij" horiz-adv-x="556" d="M20 28L83 45V390L22 430V446L210 497V45L276 28V0H20V28ZM143 594Q114 594 92 615T70 667Q70 696 92 718T143 740Q158 740 171 734T194 718T211 695T217 667Q217 637 195 616T143 594ZM255 -220Q284
-202 303 -184T333 -139T350 -76T357 14V390L297 430V446L483 497V55Q483 -15 476 -64T434 -149Q394 -191 347 -210T261 -239L255 -220ZM418 594Q388 594 367 615T345 667Q345 696 366 718T418 740Q447 740 469 718T491 667Q491 637 469 616T418 594Z" />
<glyph unicode="&#x134;" glyph-name="Jcircumflex" horiz-adv-x="357" d="M286 722L394 859H488L592 722H543L438 794L330 722H286ZM252 69Q252 7 239 -41T195 -126T115 -184T-8 -216L-14 -193Q26 -175 51 -153T90 -104T109 -43T114 34V615L27 635V664H329V635L252
615V69Z" />
<glyph unicode="&#x135;" glyph-name="jcircumflex" horiz-adv-x="283" d="M-19 -220Q10 -202 29 -184T59 -139T76 -76T83 14V390L23 430V446L209 497V55Q209 -15 202 -64T160 -149Q120 -191 73 -210T-13 -239L-19 -220ZM20 563L115 763H176L270 563H231L143 672L58
563H20Z" />
<glyph unicode="&#x136;" glyph-name="Kcommaaccent" horiz-adv-x="705" d="M274 -232Q326 -215 347 -197T369 -156Q369 -134 353 -122T313 -108V-104Q321 -78 340 -65T385 -51Q420 -51 441 -72T463 -126Q463 -221 281 -254L274 -232ZM30 29L107 48V615L30 635V664H326V635L245
615V48L326 29V0H30V29ZM260 325V330L526 615L434 635V664H662V635L582 614L372 397L643 43L706 29V0H508L260 325Z" />
<glyph unicode="&#x137;" glyph-name="kcommaaccent" horiz-adv-x="556" d="M189 -232Q241 -215 262 -197T284 -156Q284 -134 268 -122T228 -108V-104Q236 -78 255 -65T300 -51Q335 -51 356 -72T378 -126Q378 -221 196 -254L189 -232ZM85 636L26 671V688L212 747V45L270
28V0H24V28L85 45V636ZM478 -14Q439 -14 414 1T368 43L219 253L402 427L327 457V483H543V459L472 434L324 306L556 10Q545 3 533 -2Q522 -7 509 -10T478 -14Z" />
<glyph unicode="&#x138;" glyph-name="kgreenlandic" horiz-adv-x="552" d="M20 28L81 45V390L20 428V443L208 498V45L266 28V0H20V28ZM474 -14Q436 -14 410 1T364 43L216 253L398 427L323 457V483H539V459L468 434L321 306L552 10Q542 3 530 -2Q519 -7 505 -10T474 -14Z" />
<glyph unicode="&#x139;" glyph-name="Lacute" horiz-adv-x="603" d="M356 865V854L201 722H156L230 865H356ZM245 64Q265 39 306 38H448L557 245H588L540 0H30V30L107 48V614L30 635V664H332V635L245 615V64Z" />
<glyph unicode="&#x13a;" glyph-name="lacute" horiz-adv-x="292" d="M570 905V894L415 762H370L444 905H570ZM22 28L85 45V636L26 671V688L212 747V45L278 28V0H22V28Z" />
<glyph unicode="&#x13b;" glyph-name="Lcommaaccent" horiz-adv-x="603" d="M195 -232Q247 -215 268 -197T290 -156Q290 -134 274 -122T234 -108V-104Q242 -78 261 -65T306 -51Q341 -51 362 -72T384 -126Q384 -221 202 -254L195 -232ZM245 64Q265 39 306 38H448L557
245H588L540 0H30V30L107 48V614L30 635V664H332V635L245 615V64Z" />
<glyph unicode="&#x13c;" glyph-name="lcommaaccent" horiz-adv-x="292" d="M286 -232Q338 -215 359 -197T381 -156Q381 -134 365 -122T325 -108V-104Q333 -78 352 -65T397 -51Q432 -51 453 -72T475 -126Q475 -221 293 -254L286 -232ZM22 28L85 45V636L26 671V688L212
747V45L278 28V0H22V28Z" />
<glyph unicode="&#x13d;" glyph-name="Lcaron" horiz-adv-x="603" d="M429 525L444 728H548V721L454 525H429ZM245 64Q265 39 306 38H448L557 245H588L540 0H30V30L107 48V614L30 635V664H332V635L245 615V64Z" />
<glyph unicode="&#x13e;" glyph-name="lcaron" horiz-adv-x="292" d="M259 525L274 728H378V721L284 525H259ZM22 28L85 45V636L26 671V688L212 747V45L278 28V0H22V28Z" />
<glyph unicode="&#x13f;" glyph-name="Ldot" horiz-adv-x="608" d="M508 294Q479 294 458 315T437 365Q437 380 442 393T458 415T481 431T508 437Q538 437 559 416T580 365Q580 336 559 315T508 294ZM245 64Q265 39 306 38H448L551 218H583L540 0H30V30L107 48V614L30
635V664H332V635L245 615V64Z" />
<glyph unicode="&#x140;" glyph-name="ldot" horiz-adv-x="361" d="M328 298Q299 298 278 319T257 369Q257 398 278 419T328 440Q357 440 378 419T399 369Q399 340 378 319T328 298ZM22 28L85 45V636L26 671V688L212 747V45L278 28V0H22V28Z" />
<glyph unicode="&#x141;" glyph-name="Lslash" horiz-adv-x="603" d="M28 289L107 312V614L30 635V664H332V635L245 615V353L450 414V377L245 316V65Q265 40 306 39H448L557 245H588L540 0H30V30L107 48V275L28 252V289Z" />
<glyph unicode="&#x142;" glyph-name="lslash" horiz-adv-x="292" d="M11 326L85 363V636L26 671V688L212 747V426L296 468V428L212 386V45L278 28V0H22V28L85 45V322L11 285V326Z" />
<glyph unicode="&#x143;" glyph-name="Nacute" horiz-adv-x="728" d="M554 865V854L399 722H354L428 865H554ZM586 -12L155 529L158 52L254 30V0H35V30L109 49V582Q95 599 77 611T38 630L21 636V664H223L587 205L584 611L489 635V664H706V635L632 614V98L634 -6L586 -12Z" />
<glyph unicode="&#x144;" glyph-name="nacute" horiz-adv-x="589" d="M435 763V755L307 563H274L322 763H435ZM20 28L81 45V390L20 428V443L189 498H194L201 405H203Q213 415 230 431T271 461T322 486T379 497Q445 497 480 461T516 336V45L578 27V0H332V28L389
45V319Q387 363 367 390T301 417Q272 417 247 404T208 379V45L266 28V0H20V28Z" />
<glyph unicode="&#x145;" glyph-name="Ncommaaccent" horiz-adv-x="728" d="M271 -232Q323 -215 344 -197T366 -156Q366 -134 350 -122T310 -108V-104Q318 -78 337 -65T382 -51Q417 -51 438 -72T460 -126Q460 -221 278 -254L271 -232ZM586 -12L155 529L158 52L254
30V0H35V30L109 49V582Q95 599 77 611T38 630L21 636V664H223L587 205L584 611L489 635V664H706V635L632 614V98L634 -6L586 -12Z" />
<glyph unicode="&#x146;" glyph-name="ncommaaccent" horiz-adv-x="589" d="M183 -232Q235 -215 256 -197T278 -156Q278 -134 262 -122T222 -108V-104Q230 -78 249 -65T294 -51Q329 -51 350 -72T372 -126Q372 -221 190 -254L183 -232ZM20 28L81 45V390L20 428V443L189
498H194L201 405H203Q213 415 230 431T271 461T322 486T379 497Q445 497 480 461T516 336V45L578 27V0H332V28L389 45V319Q387 363 367 390T301 417Q272 417 247 404T208 379V45L266 28V0H20V28Z" />
<glyph unicode="&#x147;" glyph-name="Ncaron" horiz-adv-x="728" d="M537 859L429 722H335L231 859H279L384 786L492 859H537ZM586 -12L155 529L158 52L254 30V0H35V30L109 49V582Q95 599 77 611T38 630L21 636V664H223L587 205L584 611L489 635V664H706V635L632
614V98L634 -6L586 -12Z" />
<glyph unicode="&#x148;" glyph-name="ncaron" horiz-adv-x="589" d="M429 763L328 563H267L166 763H206L300 650L391 763H429ZM20 28L81 45V390L20 428V443L189 498H194L201 405H203Q213 415 230 431T271 461T322 486T379 497Q445 497 480 461T516 336V45L578
27V0H332V28L389 45V319Q387 363 367 390T301 417Q272 417 247 404T208 379V45L266 28V0H20V28Z" />
<glyph unicode="&#x149;" glyph-name="napostrophe" horiz-adv-x="589" d="M-34 568Q18 585 39 603T61 644Q61 666 45 678T5 692V696Q13 722 32 735T77 749Q112 749 133 728T155 674Q155 579 -27 546L-34 568ZM20 28L81 45V390L20 428V443L189 498H194L201 405H203Q213
415 230 431T271 461T322 486T379 497Q445 497 480 461T516 336V45L578 27V0H332V28L389 45V319Q387 363 367 390T301 417Q272 417 247 404T208 379V45L266 28V0H20V28Z" />
<glyph unicode="&#x14a;" glyph-name="Eng" horiz-adv-x="731" d="M632 614V71Q632 11 620 -38T578 -123T500 -183T379 -215L374 -191Q468 -165 511 -111T558 22L156 528L160 52L256 30V0H35V30L109 49V582Q95 599 77 611T38 630L21 636V664H223L587 205L584 611L489
635V664H706V635L632 614Z" />
<glyph unicode="&#x14b;" glyph-name="eng" horiz-adv-x="589" d="M389 319Q387 363 367 390T301 417Q272 417 247 404T208 379V45L266 28V0H20V28L81 45V390L20 428V443L189 498H194L201 405H203Q213 415 230 431T271 461T322 486T379 497Q445 497 480 461T516
336V55Q516 -15 507 -64T463 -149Q443 -170 421 -185T376 -210T331 -227T290 -239L284 -220Q313 -202 332 -184T364 -139T382 -76T389 14V319Z" />
<glyph unicode="&#x14c;" glyph-name="Omacron" horiz-adv-x="790" d="M247 830H543V764H247V830ZM410 16Q457 16 492 38T551 101T586 195T598 311Q598 375 582 435T538 543T469 618T380 646Q333 646 298 624T239 563T203 471T191 354Q191 291 206 231T249 122T318
45T410 16ZM395 682Q474 682 539 655T651 582T724 475T750 344Q750 259 720 192T641 77T527 5T393 -20Q322 -20 259 4T146 74T69 183T40 329Q40 408 69 473T148 584T261 656T395 682Z" />
<glyph unicode="&#x14d;" glyph-name="omacron" horiz-adv-x="575" d="M140 690H436V624H140V690ZM271 464Q242 464 222 448T190 407T173 349T167 284Q167 235 175 188T201 103T244 43T304 20Q353 20 380 70T408 203Q408 260 398 308T369 390T326 444T271 464ZM288
-16Q226 -16 178 4T98 59T48 139T31 232Q31 288 51 336T106 421T187 477T288 498Q345 498 392 480T473 430T525 353T544 253Q544 196 524 147T470 62T389 5T288 -16Z" />
<glyph unicode="&#x14e;" glyph-name="Obreve" horiz-adv-x="790" d="M390 717Q355 717 330 729T289 761T265 806T258 859H285Q296 830 322 809T396 787Q442 787 467 808T503 859H529Q530 832 522 807T496 761T452 729T390 717ZM410 16Q457 16 492 38T551 101T586
195T598 311Q598 375 582 435T538 543T469 618T380 646Q333 646 298 624T239 563T203 471T191 354Q191 291 206 231T249 122T318 45T410 16ZM395 682Q474 682 539 655T651 582T724 475T750 344Q750 259 720 192T641 77T527 5T393 -20Q322 -20 259 4T146 74T69 183T40
329Q40 408 69 473T148 584T261 656T395 682Z" />
<glyph unicode="&#x14f;" glyph-name="obreve" horiz-adv-x="575" d="M271 464Q242 464 222 448T190 407T173 349T167 284Q167 235 175 188T201 103T244 43T304 20Q353 20 380 70T408 203Q408 260 398 308T369 390T326 444T271 464ZM288 -16Q226 -16 178 4T98
59T48 139T31 232Q31 288 51 336T106 421T187 477T288 498Q345 498 392 480T473 430T525 353T544 253Q544 196 524 147T470 62T389 5T288 -16ZM286 573Q229 573 194 614T159 746H185Q197 692 224 669T290 646Q328 646 355 670T393 746H417Q415 661 380 617T286
573Z" />
<glyph unicode="&#x150;" glyph-name="Ohungarumlaut" horiz-adv-x="790" d="M432 865V855L316 722H275L332 865H432ZM610 865V855L495 722H453L511 865H610ZM410 16Q457 16 492 38T551 101T586 195T598 311Q598 375 582 435T538 543T469 618T380 646Q333 646
298 624T239 563T203 471T191 354Q191 291 206 231T249 122T318 45T410 16ZM395 682Q474 682 539 655T651 582T724 475T750 344Q750 259 720 192T641 77T527 5T393 -20Q322 -20 259 4T146 74T69 183T40 329Q40 408 69 473T148 584T261 656T395 682Z" />
<glyph unicode="&#x151;" glyph-name="ohungarumlaut" horiz-adv-x="575" d="M331 763V754L223 563H192L236 763H331ZM477 763V754L368 563H336L381 763H477ZM271 464Q242 464 222 448T190 407T173 349T167 284Q167 235 175 188T201 103T244 43T304 20Q353 20
380 70T408 203Q408 260 398 308T369 390T326 444T271 464ZM288 -16Q226 -16 178 4T98 59T48 139T31 232Q31 288 51 336T106 421T187 477T288 498Q345 498 392 480T473 430T525 353T544 253Q544 196 524 147T470 62T389 5T288 -16Z" />
<glyph unicode="&#x152;" glyph-name="OE" horiz-adv-x="1034" d="M883 664L965 666V477H934L874 627H658V363H771L803 465H832V226H801L771 323H658V64Q669 52 683 46T718 38H861L968 215H998L952 0H699Q624 0 555 -3T402 -6Q321 -6 254 17T140 83T66 188T40
327Q40 405 68 468T147 576T265 645T412 670Q447 670 473 669T532 667T615 665T747 664H883ZM403 27Q472 27 497 59T523 158V599Q503 616 475 627T408 638Q360 638 320 620T252 566T208 477T192 352Q192 289 206 231T247 127T313 55T403 27Z" />
<glyph unicode="&#x153;" glyph-name="oe" horiz-adv-x="909" d="M657 -15Q592 -15 547 17T476 96Q447 45 399 14T286 -17Q224 -17 177 3T97 58T47 138T30 231Q30 287 50 336T105 421T187 477T288 498Q359 498 408 469T484 390Q517 441 568 469T680 497Q768 497
815 440T871 280H537Q537 232 553 195T594 132T653 93T721 80Q746 80 768 87T808 103T838 122T856 136L871 122Q863 111 847 89T806 43T743 3T657 -15ZM272 463Q243 463 223 447T191 405T175 347T170 281Q170 234 178 188T204 104T246 43T305 19Q354 19 380 70T406
204Q406 259 396 306T368 388T326 443T272 463ZM646 457Q605 457 575 421T538 313H734Q733 342 728 368T712 414T685 445T646 457Z" />
<glyph unicode="&#x154;" glyph-name="Racute" horiz-adv-x="680" d="M496 865V854L341 722H296L370 865H496ZM30 29L107 48V616L30 635V664L284 666Q363 666 420 654T513 620T567 568T584 501Q584 440 544 400T435 336V332L616 46L682 29V0H490L340 239Q334 248
328 258T315 278Q308 289 302 300H244V48L320 29V0H30V29ZM244 337H323Q380 346 415 384T450 477Q450 513 435 542T393 592T328 624T244 636V337Z" />
<glyph unicode="&#x155;" glyph-name="racute" horiz-adv-x="400" d="M360 763V755L232 563H199L247 763H360ZM20 28L81 45V390L20 428V443L191 498H196L201 367H205L218 393Q234 424 248 444T276 476T304 493T336 498Q362 498 382 482T403 435Q403 376 335 361L273
398Q259 393 239 372T208 319V45L291 28V0H20V28Z" />
<glyph unicode="&#x156;" glyph-name="Rcommaaccent" horiz-adv-x="680" d="M257 -232Q309 -215 330 -197T352 -156Q352 -134 336 -122T296 -108V-104Q304 -78 323 -65T368 -51Q403 -51 424 -72T446 -126Q446 -221 264 -254L257 -232ZM30 29L107 48V616L30 635V664L284
666Q363 666 420 654T513 620T567 568T584 501Q584 440 544 400T435 336V332L616 46L682 29V0H490L340 239Q334 248 328 258T315 278Q308 289 302 300H244V48L320 29V0H30V29ZM244 337H323Q380 346 415 384T450 477Q450 513 435 542T393 592T328 624T244 636V337Z"
/>
<glyph unicode="&#x157;" glyph-name="rcommaaccent" horiz-adv-x="400" d="M288 -232Q340 -215 361 -197T383 -156Q383 -134 367 -122T327 -108V-104Q335 -78 354 -65T399 -51Q434 -51 455 -72T477 -126Q477 -221 295 -254L288 -232ZM20 28L81 45V390L20 428V443L191
498H196L201 367H205L218 393Q234 424 248 444T276 476T304 493T336 498Q362 498 382 482T403 435Q403 376 335 361L273 398Q259 393 239 372T208 319V45L291 28V0H20V28Z" />
<glyph unicode="&#x158;" glyph-name="Rcaron" horiz-adv-x="680" d="M478 859L370 722H276L172 859H220L325 786L433 859H478ZM30 29L107 48V616L30 635V664L284 666Q363 666 420 654T513 620T567 568T584 501Q584 440 544 400T435 336V332L616 46L682 29V0H490L340
239Q334 248 328 258T315 278Q308 289 302 300H244V48L320 29V0H30V29ZM244 337H323Q380 346 415 384T450 477Q450 513 435 542T393 592T328 624T244 636V337Z" />
<glyph unicode="&#x159;" glyph-name="rcaron" horiz-adv-x="400" d="M350 763L249 563H188L87 763H127L221 650L312 763H350ZM20 28L81 45V390L20 428V443L191 498H196L201 367H205L218 393Q234 424 248 444T276 476T304 493T336 498Q362 498 382 482T403 435Q403
376 335 361L273 398Q259 393 239 372T208 319V45L291 28V0H20V28Z" />
<glyph unicode="&#x15a;" glyph-name="Sacute" horiz-adv-x="541" d="M43 220H70L143 57Q161 43 188 32T257 20Q313 20 347 53T382 140Q382 160 377 177T360 211T327 241T273 269L219 291Q135 325 98 371T61 483Q61 522 78 558T127 623T205 667T309 684Q357 684
399 669T471 640L475 474H447L385 617Q371 630 351 639T300 649Q273 649 252 641T215 618T191 584T183 542Q183 518 189 501T209 469T245 441T299 414L359 388Q403 368 432 348T478 307T503 260T510 207Q510 155 487 114T427 43T343 -1T247 -17Q186 -17 139 -2T56
31L43 220ZM456 865V854L301 722H256L330 865H456Z" />
<glyph unicode="&#x15b;" glyph-name="sacute" horiz-adv-x="434" d="M372 763V755L244 563H211L259 763H372ZM184 -16Q142 -16 107 -6T42 17L36 170H60L117 48Q128 37 146 28T189 19Q232 19 256 42T280 100Q280 129 264 148T210 182L144 207Q93 226 68 259T42
344Q42 378 57 407T99 456T163 487T245 499Q281 499 314 490T375 468L374 332H352L301 439Q289 449 272 456T234 464Q198 464 177 443T156 391Q156 359 175 342T229 310L282 289Q343 265 370 236T398 155Q398 117 381 86T334 32T266 -3T184 -16Z" />
<glyph unicode="&#x15c;" glyph-name="Scircumflex" horiz-adv-x="541" d="M140 722L248 859H342L446 722H397L292 794L184 722H140ZM43 220H70L143 57Q161 43 188 32T257 20Q313 20 347 53T382 140Q382 160 377 177T360 211T327 241T273 269L219 291Q135 325
98 371T61 483Q61 522 78 558T127 623T205 667T309 684Q357 684 399 669T471 640L475 474H447L385 617Q371 630 351 639T300 649Q273 649 252 641T215 618T191 584T183 542Q183 518 189 501T209 469T245 441T299 414L359 388Q403 368 432 348T478 307T503 260T510
207Q510 155 487 114T427 43T343 -1T247 -17Q186 -17 139 -2T56 31L43 220Z" />
<glyph unicode="&#x15d;" glyph-name="scircumflex" horiz-adv-x="434" d="M97 563L198 763H260L360 563H321L226 676L136 563H97ZM184 -16Q142 -16 107 -6T42 17L36 170H60L117 48Q128 37 146 28T189 19Q232 19 256 42T280 100Q280 129 264 148T210 182L144 207Q93
226 68 259T42 344Q42 378 57 407T99 456T163 487T245 499Q281 499 314 490T375 468L374 332H352L301 439Q289 449 272 456T234 464Q198 464 177 443T156 391Q156 359 175 342T229 310L282 289Q343 265 370 236T398 155Q398 117 381 86T334 32T266 -3T184 -16Z"
/>
<glyph unicode="&#x15e;" glyph-name="Scedilla" horiz-adv-x="541" d="M155 -230Q202 -213 225 -194T249 -148Q249 -126 235 -113T197 -92L244 -17Q184 -16 138 -1T56 31L43 220H70L143 57Q161 43 188 32T257 20Q313 20 347 53T382 140Q382 160 377 177T360 211T327
241T273 269L219 291Q135 325 98 371T61 483Q61 522 78 558T127 623T205 667T309 684Q357 684 399 669T471 640L475 474H447L385 617Q371 630 351 639T300 649Q273 649 252 641T215 618T191 584T183 542Q183 518 189 501T209 469T245 441T299 414L359 388Q403 368
432 348T478 307T503 260T510 207Q510 159 491 120T439 53T364 7T277 -15L257 -47Q297 -54 320 -73T343 -125Q343 -151 329 -171T289 -207T231 -234T161 -251L155 -230Z" />
<glyph unicode="&#x15f;" glyph-name="scedilla" horiz-adv-x="434" d="M94 -227Q141 -210 164 -191T188 -145Q188 -123 174 -110T136 -89L182 -16Q140 -15 106 -6T42 17L36 170H60L117 48Q128 37 146 28T189 19Q232 19 256 42T280 100Q280 129 264 148T210 182L144
207Q93 226 68 259T42 344Q42 378 57 407T99 456T163 487T245 499Q281 499 314 490T375 468L374 332H352L301 439Q289 449 272 456T234 464Q198 464 177 443T156 391Q156 359 175 342T229 310L282 289Q343 265 370 236T398 155Q398 120 384 91T345 40T287 4T215
-14L196 -44Q236 -51 259 -70T282 -122Q282 -148 268 -168T228 -204T170 -231T100 -248L94 -227Z" />
<glyph unicode="&#x160;" glyph-name="Scaron" horiz-adv-x="541" d="M444 859L336 722H242L138 859H186L291 786L399 859H444ZM43 220H70L143 57Q161 43 188 32T257 20Q313 20 347 53T382 140Q382 160 377 177T360 211T327 241T273 269L219 291Q135 325 98 371T61
483Q61 522 78 558T127 623T205 667T309 684Q357 684 399 669T471 640L475 474H447L385 617Q371 630 351 639T300 649Q273 649 252 641T215 618T191 584T183 542Q183 518 189 501T209 469T245 441T299 414L359 388Q403 368 432 348T478 307T503 260T510 207Q510
155 487 114T427 43T343 -1T247 -17Q186 -17 139 -2T56 31L43 220Z" />
<glyph unicode="&#x161;" glyph-name="scaron" horiz-adv-x="434" d="M359 763L258 563H197L96 763H136L230 650L321 763H359ZM184 -16Q142 -16 107 -6T42 17L36 170H60L117 48Q128 37 146 28T189 19Q232 19 256 42T280 100Q280 129 264 148T210 182L144 207Q93
226 68 259T42 344Q42 378 57 407T99 456T163 487T245 499Q281 499 314 490T375 468L374 332H352L301 439Q289 449 272 456T234 464Q198 464 177 443T156 391Q156 359 175 342T229 310L282 289Q343 265 370 236T398 155Q398 117 381 86T334 32T266 -3T184 -16Z"
/>
<glyph unicode="&#x162;" glyph-name="Tcommaaccent" horiz-adv-x="636" d="M202 -232Q254 -215 275 -197T297 -156Q297 -134 281 -122T241 -108V-104Q249 -78 268 -65T313 -51Q348 -51 369 -72T391 -126Q391 -221 209 -254L202 -232ZM535 664L610 669L612 469H584L525
624H387V48L481 29V0H154V29L249 48V624H111L52 469H24L26 669L101 664H535Z" />
<glyph unicode="&#x163;" glyph-name="tcommaaccent" horiz-adv-x="352" d="M333 -232Q385 -215 406 -197T428 -156Q428 -134 412 -122T372 -108V-104Q380 -78 399 -65T444 -51Q479 -51 500 -72T522 -126Q522 -221 340 -254L333 -232ZM195 -13Q129 -13 102 21T75
116L78 430H4V463L78 486L181 610H202V483H343V428H202V109Q210 76 232 64T285 51Q308 51 326 56T346 62L352 39Q345 34 331 26T297 9T252 -6T195 -13Z" />
<glyph unicode="&#x164;" glyph-name="Tcaron" horiz-adv-x="636" d="M467 859L359 722H265L161 859H209L314 786L422 859H467ZM535 664L610 669L612 469H584L525 624H387V48L481 29V0H154V29L249 48V624H111L52 469H24L26 669L101 664H535Z" />
<glyph unicode="&#x165;" glyph-name="tcaron" horiz-adv-x="352" d="M270 551L285 754H389V747L295 551H270ZM195 -13Q129 -13 102 21T75 116L78 430H4V463L78 486L181 610H202V483H343V428H202V109Q210 76 232 64T285 51Q308 51 326 56T346 62L352 39Q345 34
331 26T297 9T252 -6T195 -13Z" />
<glyph unicode="&#x166;" glyph-name="Tbar" horiz-adv-x="636" d="M84 380H249V622H111L52 469H24L26 669L101 664H535L610 669L612 469H584L525 622H387V380H551V340H387V48L481 29V0H154V29L249 48V340H84V380Z" />
<glyph unicode="&#x167;" glyph-name="tbar" horiz-adv-x="352" d="M4 331H77L78 430H4V463L78 486L181 610H202V483H343V428H202V331H342V288H202V109Q210 76 232 64T285 51Q308 51 326 56T346 62L352 39Q345 34 331 26T297 9T252 -6T195 -13Q129 -13 102 21T75
116L76 288H4V331Z" />
<glyph unicode="&#x168;" glyph-name="Utilde" horiz-adv-x="737" d="M367 -21Q230 -21 163 50T96 252V614L19 635V664H327V635L237 614V266Q237 216 247 175T277 105T329 60T405 44Q493 44 539 96T588 248L587 608L477 635V664H718V635L641 612V265Q641 195 622
142T566 52T480 -2T367 -21ZM373 765Q343 775 324 779T291 781T268 766T249 736L228 746L233 760Q259 834 297 853T395 852L439 837Q463 829 480 827T511 828T535 844T557 876L579 866L573 850Q558 810 542 786T508 750T466 739T413 751L373 765Z" />
<glyph unicode="&#x169;" glyph-name="utilde" horiz-adv-x="587" d="M380 69Q368 56 352 41T314 14T269 -7T216 -16Q153 -16 114 22T74 140V413L12 440V459L200 491V166Q200 64 289 64Q318 64 341 75T378 97V415L310 440V460L505 493V59L572 38V15L391 -13L380
69ZM269 617Q240 629 221 633T188 633T166 617T147 586L125 596L131 611Q160 683 197 704T295 702L339 685Q385 667 409 676T455 726L477 716L471 701Q455 662 439 637T403 599T360 588T307 601L269 617Z" />
<glyph unicode="&#x16a;" glyph-name="Umacron" horiz-adv-x="737" d="M367 -21Q230 -21 163 50T96 252V614L19 635V664H327V635L237 614V266Q237 216 247 175T277 105T329 60T405 44Q493 44 539 96T588 248L587 608L477 635V664H718V635L641 612V265Q641 195
622 142T566 52T480 -2T367 -21ZM244 830H540V764H244V830Z" />
<glyph unicode="&#x16b;" glyph-name="umacron" horiz-adv-x="587" d="M380 69Q368 56 352 41T314 14T269 -7T216 -16Q153 -16 114 22T74 140V413L12 440V459L200 491V166Q200 64 289 64Q318 64 341 75T378 97V415L310 440V460L505 493V59L572 38V15L391 -13L380
69ZM144 690H440V624H144V690Z" />
<glyph unicode="&#x16c;" glyph-name="Ubreve" horiz-adv-x="737" d="M367 -21Q230 -21 163 50T96 252V614L19 635V664H327V635L237 614V266Q237 216 247 175T277 105T329 60T405 44Q493 44 539 96T588 248L587 608L477 635V664H718V635L641 612V265Q641 195 622
142T566 52T480 -2T367 -21ZM388 717Q353 717 328 729T287 761T263 806T256 859H283Q294 830 320 809T394 787Q440 787 465 808T501 859H527Q528 832 520 807T494 761T450 729T388 717Z" />
<glyph unicode="&#x16d;" glyph-name="ubreve" horiz-adv-x="587" d="M380 69Q368 56 352 41T314 14T269 -7T216 -16Q153 -16 114 22T74 140V413L12 440V459L200 491V166Q200 64 289 64Q318 64 341 75T378 97V415L310 440V460L505 493V59L572 38V15L391 -13L380
69ZM291 573Q234 573 199 614T164 746H190Q202 692 229 669T295 646Q333 646 360 670T398 746H422Q420 661 385 617T291 573Z" />
<glyph unicode="&#x16e;" glyph-name="Uring" horiz-adv-x="737" d="M367 -21Q230 -21 163 50T96 252V614L19 635V664H327V635L237 614V266Q237 216 247 175T277 105T329 60T405 44Q493 44 539 96T588 248L587 608L477 635V664H718V635L641 612V265Q641 195 622
142T566 52T480 -2T367 -21ZM291 819Q291 840 299 858T321 890T354 912T395 920Q441 920 470 891T499 820Q499 777 470 748T395 719Q349 719 320 747T291 819ZM331 820Q331 790 350 771T395 752Q422 752 440 770T459 819Q459 848 440 867T395 886Q368 886 350 868T331
820Z" />
<glyph unicode="&#x16f;" glyph-name="uring" horiz-adv-x="587" d="M188 672Q188 693 196 711T218 743T251 765T292 773Q337 773 366 745T395 673Q395 631 366 602T291 572Q246 572 217 600T188 672ZM227 673Q227 643 246 624T292 605Q318 605 337 624T356 672Q356
701 337 720T291 740Q265 740 246 721T227 673ZM380 69Q368 56 352 41T314 14T269 -7T216 -16Q153 -16 114 22T74 140V413L12 440V459L200 491V166Q200 64 289 64Q318 64 341 75T378 97V415L310 440V460L505 493V59L572 38V15L391 -13L380 69Z" />
<glyph unicode="&#x170;" glyph-name="Uhungarumlaut" horiz-adv-x="737" d="M429 865V855L313 722H272L329 865H429ZM607 865V855L492 722H450L508 865H607ZM367 -21Q230 -21 163 50T96 252V614L19 635V664H327V635L237 614V266Q237 216 247 175T277 105T329
60T405 44Q493 44 539 96T588 248L587 608L477 635V664H718V635L641 612V265Q641 195 622 142T566 52T480 -2T367 -21Z" />
<glyph unicode="&#x171;" glyph-name="uhungarumlaut" horiz-adv-x="587" d="M380 69Q368 56 352 41T314 14T269 -7T216 -16Q153 -16 114 22T74 140V413L12 440V459L200 491V166Q200 64 289 64Q318 64 341 75T378 97V415L310 440V460L505 493V59L572 38V15L391
-13L380 69ZM337 763V754L229 563H198L242 763H337ZM483 763V754L374 563H342L387 763H483Z" />
<glyph unicode="&#x172;" glyph-name="Uogonek" horiz-adv-x="737" d="M367 -21Q230 -21 163 50T96 252V614L19 635V664H327V635L237 614V266Q237 216 247 175T277 105T329 60T405 44Q493 44 539 96T588 248L587 608L477 635V664H718V635L641 612V265Q641 143
585 72T430 -16Q397 -51 387 -74T376 -114Q376 -138 389 -153T425 -168Q446 -168 461 -159T498 -127L516 -140Q505 -159 493 -177T465 -211T428 -235T380 -245Q337 -245 311 -221T285 -158Q285 -123 310 -91T386 -20Q381 -21 377 -21T367 -21Z" />
<glyph unicode="&#x173;" glyph-name="uogonek" horiz-adv-x="587" d="M216 -16Q153 -16 114 22T74 140V413L12 440V459L200 491V166Q200 64 289 64Q318 64 341 75T378 97V415L310 440V460L505 493V59L572 38V15L433 -6Q394 -45 382 -70T370 -114Q370 -138 383
-153T419 -168Q440 -168 455 -159T492 -127L510 -140Q499 -159 487 -177T459 -211T422 -235T374 -245Q331 -245 305 -221T279 -158Q279 -122 306 -88T391 -13L380 69Q368 56 352 41T314 14T269 -7T216 -16Z" />
<glyph unicode="&#x174;" glyph-name="Wcircumflex" horiz-adv-x="936" d="M333 722L441 859H535L639 722H590L485 794L377 722H333ZM471 414L318 -9H247L49 616L-3 634V664H265V635L193 616L334 143L450 477L404 616L345 635V664H626V634L547 616L693 154L833
608L733 634V664H939V635L884 612L682 -9H611L471 414Z" />
<glyph unicode="&#x175;" glyph-name="wcircumflex" horiz-adv-x="755" d="M291 563L392 763H454L554 563H515L420 676L330 563H291ZM563 158Q565 154 566 149T569 139Q571 134 572 128H574Q575 134 576 139Q578 149 581 159L662 434L588 456V483H767V455L708
438L562 -15H499L386 285Q384 289 383 294T379 305Q377 311 376 318H374Q372 311 370 305Q368 300 367 295T364 285L256 -15H197L45 439L-12 455V483H250V455L183 439L265 162Q266 158 267 152T270 141Q272 135 273 128H275Q277 135 279 141Q282 153 286 162L399
488H441L563 158Z" />
<glyph unicode="&#x176;" glyph-name="Ycircumflex" horiz-adv-x="638" d="M390 292V48L469 29V0H172V29L252 48V268L56 619L1 635V664H296V635L210 616L363 322L525 612L427 635V664H637V635L578 614L390 292ZM207 722L315 859H409L513 722H464L359 794L251 722H207Z" />
<glyph unicode="&#x177;" glyph-name="ycircumflex" horiz-adv-x="492" d="M339 456V483H495V455L449 439L222 -152Q205 -194 180 -219T114 -244Q85 -244 65 -224T44 -174Q44 -144 64 -125T113 -105Q139 -105 153 -118T181 -149L184 -153L228 -40L39 442L-3 455V483H231V455L178
440L291 124L403 436L339 456ZM152 563L253 763H315L415 563H376L281 676L191 563H152Z" />
<glyph unicode="&#x178;" glyph-name="Ydieresis" horiz-adv-x="638" d="M390 292V48L469 29V0H172V29L252 48V268L56 619L1 635V664H296V635L210 616L363 322L525 612L427 635V664H637V635L578 614L390 292ZM238 737Q211 737 192 756T172 803Q172 830 191 850T238
870Q266 870 286 850T306 803Q306 775 286 756T238 737ZM465 737Q438 737 419 756T399 803Q399 830 418 850T465 870Q492 870 512 850T533 803Q533 775 513 756T465 737Z" />
<glyph unicode="&#x179;" glyph-name="Zacute" horiz-adv-x="642" d="M487 865V854L332 722H287L361 865H487ZM28 27L406 623H138L69 464H41L46 668L133 664H583V658L188 42H497L599 226H630L587 0H28V27Z" />
<glyph unicode="&#x17a;" glyph-name="zacute" horiz-adv-x="483" d="M389 763V755L261 563H228L276 763H389ZM30 0V25L295 445H129L73 314H47V492L127 483H456V479L177 36H350L424 182H449L432 -2L345 0H30Z" />
<glyph unicode="&#x17b;" glyph-name="Zdotaccent" horiz-adv-x="642" d="M28 27L406 623H138L69 464H41L46 668L133 664H583V658L188 42H497L599 226H630L587 0H28V27ZM319 733Q288 733 267 754T246 806Q246 837 267 858T319 880Q349 880 371 859T393 806Q393
775 371 754T319 733Z" />
<glyph unicode="&#x17c;" glyph-name="zdotaccent" horiz-adv-x="483" d="M30 0V25L295 445H129L73 314H47V492L127 483H456V479L177 36H350L424 182H449L432 -2L345 0H30ZM258 594Q228 594 206 615T184 667Q184 697 206 718T258 740Q288 740 309 719T331 667Q331
637 310 616T258 594Z" />
<glyph unicode="&#x17d;" glyph-name="Zcaron" horiz-adv-x="642" d="M469 859L361 722H267L163 859H211L316 786L424 859H469ZM28 27L406 623H138L69 464H41L46 668L133 664H583V658L188 42H497L599 226H630L587 0H28V27Z" />
<glyph unicode="&#x17e;" glyph-name="zcaron" horiz-adv-x="483" d="M379 763L278 563H217L116 763H156L250 650L341 763H379ZM30 0V25L295 445H129L73 314H47V492L127 483H456V479L177 36H350L424 182H449L432 -2L345 0H30Z" />
<glyph unicode="&#x192;" glyph-name="florin" horiz-adv-x="504" d="M55 326H158Q174 386 205 437T276 525T359 583T442 604Q477 604 497 587T517 542Q517 513 498 493T457 465Q439 500 420 526T376 552Q365 552 353 544T329 514T305 451T282 346L278 326H420L412
285H271L231 54Q219 -18 190 -74T125 -170T47 -230T-31 -251Q-45 -251 -59 -246T-84 -233T-102 -212T-110 -186Q-110 -157 -93 -140T-51 -114Q-32 -159 -11 -180T30 -202Q71 -202 92 -70L149 285H48L55 326Z" />
<glyph unicode="&#x1fa;" glyph-name="Aringacute" horiz-adv-x="684" d="M-6 29L64 47L301 669L337 677L381 686L622 45L690 29V0H391V29L470 46L406 224H177L114 51L228 29V0H-6V29ZM195 275H388L292 543L195 275ZM528 1084V1073L373 941H328L402 1084H528ZM245
812Q245 833 253 851T275 883T308 905T349 913Q395 913 424 884T453 813Q453 770 424 741T349 712Q303 712 274 740T245 812ZM285 813Q285 783 304 764T349 745Q376 745 394 763T413 812Q413 841 394 860T349 879Q322 879 304 861T285 813Z" />
<glyph unicode="&#x1fb;" glyph-name="aringacute" horiz-adv-x="498" d="M158 -15Q133 -15 110 -7T70 17T42 55T31 107Q31 168 73 200T200 253L297 277V344Q295 394 273 424T211 455Q194 455 181 451T160 440L156 330Q145 326 132 324T101 321Q75 321 60 334T44
371Q44 392 61 414T109 454T180 485T265 497Q344 497 383 461T423 345V79Q423 59 430 53T457 46H500V26Q480 15 460 7Q443 -1 423 -6T384 -12Q305 -12 301 68H296Q284 53 271 38T241 11T204 -8T158 -15ZM226 60Q249 60 267 71T297 98V247L231 225Q189 211 172 189T154
138Q154 106 172 83T226 60ZM144 894Q144 915 152 933T174 965T207 987T248 995Q293 995 322 967T351 895Q351 853 322 824T247 794Q202 794 173 822T144 894ZM183 895Q183 865 202 846T248 827Q274 827 293 846T312 894Q312 923 293 942T247 962Q221 962 202 943T183
895ZM425 914V903L270 771H225L299 914H425Z" />
<glyph unicode="&#x1fc;" glyph-name="AEacute" horiz-adv-x="949" d="M719 865V854L564 722H519L593 865H719ZM578 312V64Q589 52 603 46T638 38H785L891 215H922L876 0H370V29L443 48V313H260L119 51L224 29V0H-1V29L62 47L385 610L298 635V664H808L889 666V477H858L798
627H578V351H695L727 454H756V215H725L695 312H578ZM430 617L281 351H443V617H430Z" />
<glyph unicode="&#x1fd;" glyph-name="aeacute" horiz-adv-x="756" d="M541 763V755L413 563H380L428 763H541ZM156 -16Q130 -16 107 -8T67 17T41 55T31 107Q31 138 44 160T83 200T147 230T236 254L298 268V353Q293 398 273 426T212 454Q195 454 181 449T160 438V333Q154
331 137 326T103 321Q77 321 62 335T46 373Q46 395 64 417T112 457T180 486T259 497Q310 497 341 479T388 430Q408 456 444 476T528 497Q571 497 603 484T659 445T697 386T718 308L417 256V215Q425 151 469 116T578 80Q602 80 623 87T661 104T689 123T705 136L720
122Q712 111 697 89T656 43T594 3T508 -15Q453 -15 406 11T330 86Q308 65 289 47T250 14T207 -8T156 -16ZM417 289L583 322Q580 382 558 419T496 457Q460 457 440 428T417 327V289ZM298 236L258 225Q197 208 177 185T156 132Q156 97 176 79T228 60Q263 60 281 84T306
146Q298 178 298 210V236Z" />
<glyph unicode="&#x1fe;" glyph-name="Oslashacute" horiz-adv-x="790" d="M146 74Q97 120 69 184T40 329Q40 408 69 473T148 584T261 656T395 682Q456 682 508 666T604 620L667 696H714L632 598Q688 551 719 485T750 344Q750 259 720 192T641 77T527 5T393 -20Q332
-20 277 -2T175 50L105 -33H57L146 74ZM410 16Q457 16 492 38T550 101T585 195T597 311Q597 365 587 415T557 508L242 131Q270 79 312 48T410 16ZM192 354Q192 304 200 257T225 168L539 543Q510 590 470 618T380 646Q333 646 298 624T240 563T204 471T192 354ZM563
865V854L408 722H363L437 865H563Z" />
<glyph unicode="&#x1ff;" glyph-name="oslashacute" horiz-adv-x="575" d="M35 -49L111 46Q72 81 52 129T31 232Q31 288 51 336T106 421T187 477T288 498Q333 498 371 487T440 456L501 532H542L465 437Q503 405 523 358T544 253Q544 196 524 147T470 62T389 5T288
-16Q242 -16 204 -5T136 26L76 -49H35ZM271 464Q242 464 222 448T189 406T171 348T166 283Q166 243 171 207T185 139L377 377Q358 419 331 441T271 464ZM408 204Q406 285 390 342L198 104Q215 65 241 43T304 20Q329 20 348 33T381 71T401 129T408 204ZM429 763V755L301
563H268L316 763H429Z" />
<glyph unicode="&#x218;" glyph-name="Scommaaccent" horiz-adv-x="541" d="M147 -232Q199 -215 220 -197T242 -156Q242 -134 226 -122T186 -108V-104Q194 -78 213 -65T258 -51Q293 -51 314 -72T336 -126Q336 -221 154 -254L147 -232ZM43 220H70L143 57Q161 43
188 32T257 20Q313 20 347 53T382 140Q382 160 377 177T360 211T327 241T273 269L219 291Q135 325 98 371T61 483Q61 522 78 558T127 623T205 667T309 684Q357 684 399 669T471 640L475 474H447L385 617Q371 630 351 639T300 649Q273 649 252 641T215 618T191 584T183
542Q183 518 189 501T209 469T245 441T299 414L359 388Q403 368 432 348T478 307T503 260T510 207Q510 155 487 114T427 43T343 -1T247 -17Q186 -17 139 -2T56 31L43 220Z" />
<glyph unicode="&#x219;" glyph-name="scommaaccent" horiz-adv-x="434" d="M95 -232Q147 -215 168 -197T190 -156Q190 -134 174 -122T134 -108V-104Q142 -78 161 -65T206 -51Q241 -51 262 -72T284 -126Q284 -221 102 -254L95 -232ZM184 -16Q142 -16 107 -6T42
17L36 170H60L117 48Q128 37 146 28T189 19Q232 19 256 42T280 100Q280 129 264 148T210 182L144 207Q93 226 68 259T42 344Q42 378 57 407T99 456T163 487T245 499Q281 499 314 490T375 468L374 332H352L301 439Q289 449 272 456T234 464Q198 464 177 443T156
391Q156 359 175 342T229 310L282 289Q343 265 370 236T398 155Q398 117 381 86T334 32T266 -3T184 -16Z" />
<glyph unicode="&#x21a;" glyph-name="uni021A" horiz-adv-x="636" d="M202 -232Q254 -215 275 -197T297 -156Q297 -134 281 -122T241 -108V-104Q249 -78 268 -65T313 -51Q348 -51 369 -72T391 -126Q391 -221 209 -254L202 -232ZM535 664L610 669L612 469H584L525
624H387V48L481 29V0H154V29L249 48V624H111L52 469H24L26 669L101 664H535Z" />
<glyph unicode="&#x21b;" glyph-name="uni021B" horiz-adv-x="352" d="M333 -232Q385 -215 406 -197T428 -156Q428 -134 412 -122T372 -108V-104Q380 -78 399 -65T444 -51Q479 -51 500 -72T522 -126Q522 -221 340 -254L333 -232ZM195 -13Q129 -13 102 21T75 116L78
430H4V463L78 486L181 610H202V483H343V428H202V109Q210 76 232 64T285 51Q308 51 326 56T346 62L352 39Q345 34 331 26T297 9T252 -6T195 -13Z" />
<glyph unicode="&#x237;" glyph-name="uni0237" horiz-adv-x="283" d="M-19 -220Q10 -202 29 -184T59 -139T76 -76T83 14V390L23 430V446L209 497V55Q209 -15 202 -64T160 -149Q120 -191 73 -210T-13 -239L-19 -220Z" />
<glyph unicode="&#x2c6;" glyph-name="circumflex" horiz-adv-x="307" d="M22 563L123 763H185L285 563H246L151 676L61 563H22Z" />
<glyph unicode="&#x2c7;" glyph-name="caron" horiz-adv-x="307" d="M285 763L184 563H123L22 763H62L156 650L247 763H285Z" />
<glyph unicode="&#x2d8;" glyph-name="breve" horiz-adv-x="400" d="M198 573Q141 573 106 614T71 746H97Q109 692 136 669T202 646Q240 646 267 670T305 746H329Q327 661 292 617T198 573Z" />
<glyph unicode="&#x2d9;" glyph-name="dotaccent" horiz-adv-x="307" d="M154 594Q124 594 102 615T80 667Q80 697 102 718T154 740Q184 740 205 719T227 667Q227 637 206 616T154 594Z" />
<glyph unicode="&#x2da;" glyph-name="ring" horiz-adv-x="307" d="M50 672Q50 693 58 711T80 743T113 765T154 773Q199 773 228 745T257 673Q257 631 228 602T153 572Q108 572 79 600T50 672ZM89 673Q89 643 108 624T154 605Q180 605 199 624T218 672Q218 701
199 720T153 740Q127 740 108 721T89 673Z" />
<glyph unicode="&#x2db;" glyph-name="ogonek" horiz-adv-x="400" d="M246 5Q223 -17 208 -35T185 -67T174 -92T171 -114Q171 -138 184 -153T220 -168Q241 -168 256 -159T293 -127L311 -140Q300 -159 288 -177T260 -211T223 -235T175 -245Q132 -245 106 -221T80
-158Q80 -118 114 -81T217 5H246Z" />
<glyph unicode="&#x2dc;" glyph-name="tilde" horiz-adv-x="307" d="M122 617Q93 629 74 633T41 633T19 617T0 586L-22 596L-16 611Q13 683 50 704T148 702L192 685Q238 667 262 676T308 726L330 716L324 701Q308 662 292 637T256 599T213 588T160 601L122 617Z" />
<glyph unicode="&#x2dd;" glyph-name="hungarumlaut" horiz-adv-x="400" d="M200 763V754L92 563H61L105 763H200ZM346 763V754L237 563H205L250 763H346Z" />
</font>
</defs>
</svg>
